  0
SECTION
  2
HEADER
  9
$ACADVER
  1
AC1021
  9
$ACADMAINTVER
 70
    25
  9
$DWGCODEPAGE
  3
ANSI_932
  9
$INSBASE
 10
0.0
 20
0.0
 30
0.0
  9
$EXTMIN
 10
416.6200824857169
 20
217.2342857142851
 30
0.0
  9
$EXTMAX
 10
5746.525714285714
 20
3977.234303627609
 30
0.0
  9
$LIMMIN
 10
0.0
 20
0.0
  9
$LIMMAX
 10
594.0
 20
420.0
  9
$ORTHOMODE
 70
     0
  9
$REGENMODE
 70
     1
  9
$FILLMODE
 70
     1
  9
$QTEXTMODE
 70
     0
  9
$MIRRTEXT
 70
     1
  9
$LTSCALE
 40
2.5
  9
$ATTMODE
 70
     1
  9
$TEXTSIZE
 40
40.0
  9
$TRACEWID
 40
0.05
  9
$TEXTSTYLE
  7
Standard
  9
$CLAYER
  8
0
  9
$CELTYPE
  6
ByLayer
  9
$CECOLOR
 62
   256
  9
$CELTSCALE
 40
1.0
  9
$DISPSILH
 70
     0
  9
$DIMSCALE
 40
1.0
  9
$DIMASZ
 40
1.5
  9
$DIMEXO
 40
2.0
  9
$DIMDLI
 40
10.0
  9
$DIMRND
 40
0.0
  9
$DIMDLE
 40
0.0
  9
$DIMEXE
 40
1.0
  9
$DIMTP
 40
0.0
  9
$DIMTM
 40
0.0
  9
$DIMTXT
 40
4.0
  9
$DIMCEN
 40
0.09
  9
$DIMTSZ
 40
0.0
  9
$DIMTOL
 70
     0
  9
$DIMLIM
 70
     0
  9
$DIMTIH
 70
     0
  9
$DIMTOH
 70
     0
  9
$DIMSE1
 70
     0
  9
$DIMSE2
 70
     0
  9
$DIMTAD
 70
     3
  9
$DIMZIN
 70
     8
  9
$DIMBLK
  1

  9
$DIMASO
 70
     1
  9
$DIMSHO
 70
     1
  9
$DIMPOST
  1

  9
$DIMAPOST
  1

  9
$DIMALT
 70
     0
  9
$DIMALTD
 70
     2
  9
$DIMALTF
 40
25.4
  9
$DIMLFAC
 40
1.0
  9
$DIMTOFL
 70
     1
  9
$DIMTVP
 40
0.7
  9
$DIMTIX
 70
     0
  9
$DIMSOXD
 70
     0
  9
$DIMSAH
 70
     0
  9
$DIMBLK1
  1

  9
$DIMBLK2
  1

  9
$DIMSTYLE
  2
Standard
  9
$DIMCLRD
 70
     0
  9
$DIMCLRE
 70
     0
  9
$DIMCLRT
 70
     0
  9
$DIMTFAC
 40
0.5
  9
$DIMGAP
 40
0.09
  9
$DIMJUST
 70
     0
  9
$DIMSD1
 70
     0
  9
$DIMSD2
 70
     0
  9
$DIMTOLJ
 70
     1
  9
$DIMTZIN
 70
     8
  9
$DIMALTZ
 70
     0
  9
$DIMALTTZ
 70
     0
  9
$DIMUPT
 70
     1
  9
$DIMDEC
 70
     2
  9
$DIMTDEC
 70
     4
  9
$DIMALTU
 70
     2
  9
$DIMALTTD
 70
     2
  9
$DIMTXSTY
  7
Standard
  9
$DIMAUNIT
 70
     0
  9
$DIMADEC
 70
     0
  9
$DIMALTRND
 40
0.0
  9
$DIMAZIN
 70
     0
  9
$DIMDSEP
 70
    46
  9
$DIMATFIT
 70
     2
  9
$DIMFRAC
 70
     0
  9
$DIMLDRBLK
  1

  9
$DIMLUNIT
 70
     2
  9
$DIMLWD
 70
    -2
  9
$DIMLWE
 70
    -2
  9
$DIMTMOVE
 70
     2
  9
$DIMFXL
 40
1.0
  9
$DIMFXLON
 70
     0
  9
$DIMJOGANG
 40
0.7853981633974483
  9
$DIMTFILL
 70
     0
  9
$DIMTFILLCLR
 70
     0
  9
$DIMARCSYM
 70
     0
  9
$DIMLTYPE
  6

  9
$DIMLTEX1
  6

  9
$DIMLTEX2
  6

  9
$LUNITS
 70
     2
  9
$LUPREC
 70
     4
  9
$SKETCHINC
 40
0.1
  9
$FILLETRAD
 40
0.5
  9
$AUNITS
 70
     0
  9
$AUPREC
 70
     0
  9
$MENU
  1
.
  9
$ELEVATION
 40
0.0
  9
$PELEVATION
 40
0.0
  9
$THICKNESS
 40
0.0
  9
$LIMCHECK
 70
     0
  9
$CHAMFERA
 40
0.5
  9
$CHAMFERB
 40
0.5
  9
$CHAMFERC
 40
1.0
  9
$CHAMFERD
 40
0.0
  9
$SKPOLY
 70
     0
  9
$TDCREATE
 40
2459392.02087963
  9
$TDUCREATE
 40
2459391.64587963
  9
$TDUPDATE
 40
2459391.645884664
  9
$TDUUPDATE
 40
2459391.270884664
  9
$TDINDWG
 40
0.0000000116
  9
$TDUSRTIMER
 40
0.0000000116
  9
$USRTIMER
 70
     1
  9
$ANGBASE
 50
0.0
  9
$ANGDIR
 70
     0
  9
$PDMODE
 70
     0
  9
$PDSIZE
 40
0.0
  9
$PLINEWID
 40
0.0
  9
$SPLFRAME
 70
     0
  9
$SPLINETYPE
 70
     6
  9
$SPLINESEGS
 70
     8
  9
$HANDSEED
  5
442
  9
$SURFTAB1
 70
     6
  9
$SURFTAB2
 70
     6
  9
$SURFTYPE
 70
     6
  9
$SURFU
 70
     6
  9
$SURFV
 70
     6
  9
$UCSBASE
  2

  9
$UCSNAME
  2

  9
$UCSORG
 10
0.0
 20
0.0
 30
0.0
  9
$UCSXDIR
 10
1.0
 20
0.0
 30
0.0
  9
$UCSYDIR
 10
0.0
 20
1.0
 30
0.0
  9
$UCSORTHOREF
  2

  9
$UCSORTHOVIEW
 70
     0
  9
$UCSORGTOP
 10
0.0
 20
0.0
 30
0.0
  9
$UCSORGBOTTOM
 10
0.0
 20
0.0
 30
0.0
  9
$UCSORGLEFT
 10
0.0
 20
0.0
 30
0.0
  9
$UCSORGRIGHT
 10
0.0
 20
0.0
 30
0.0
  9
$UCSORGFRONT
 10
0.0
 20
0.0
 30
0.0
  9
$UCSORGBACK
 10
0.0
 20
0.0
 30
0.0
  9
$PUCSBASE
  2

  9
$PUCSNAME
  2

  9
$PUCSORG
 10
0.0
 20
0.0
 30
0.0
  9
$PUCSXDIR
 10
1.0
 20
0.0
 30
0.0
  9
$PUCSYDIR
 10
0.0
 20
1.0
 30
0.0
  9
$PUCSORTHOREF
  2

  9
$PUCSORTHOVIEW
 70
     0
  9
$PUCSORGTOP
 10
0.0
 20
0.0
 30
0.0
  9
$PUCSORGBOTTOM
 10
0.0
 20
0.0
 30
0.0
  9
$PUCSORGLEFT
 10
0.0
 20
0.0
 30
0.0
  9
$PUCSORGRIGHT
 10
0.0
 20
0.0
 30
0.0
  9
$PUCSORGFRONT
 10
0.0
 20
0.0
 30
0.0
  9
$PUCSORGBACK
 10
0.0
 20
0.0
 30
0.0
  9
$USERI1
 70
     0
  9
$USERI2
 70
     0
  9
$USERI3
 70
     0
  9
$USERI4
 70
     0
  9
$USERI5
 70
     0
  9
$USERR1
 40
0.0
  9
$USERR2
 40
0.0
  9
$USERR3
 40
0.0
  9
$USERR4
 40
0.0
  9
$USERR5
 40
0.0
  9
$WORLDVIEW
 70
     1
  9
$SHADEDGE
 70
     3
  9
$SHADEDIF
 70
    70
  9
$TILEMODE
 70
     1
  9
$MAXACTVP
 70
    64
  9
$PINSBASE
 10
0.0
 20
0.0
 30
0.0
  9
$PLIMCHECK
 70
     0
  9
$PEXTMIN
 10
0.0
 20
0.0
 30
0.0
  9
$PEXTMAX
 10
594.0
 20
420.0
 30
0.0
  9
$PLIMMIN
 10
0.0
 20
0.0
  9
$PLIMMAX
 10
594.0
 20
420.0
  9
$UNITMODE
 70
     0
  9
$VISRETAIN
 70
     1
  9
$PLINEGEN
 70
     0
  9
$PSLTSCALE
 70
     1
  9
$TREEDEPTH
 70
  3020
  9
$CMLSTYLE
  2
Standard
  9
$CMLJUST
 70
     0
  9
$CMLSCALE
 40
1.0
  9
$PROXYGRAPHICS
 70
     1
  9
$MEASUREMENT
 70
     1
  9
$CELWEIGHT
370
    -1
  9
$ENDCAPS
280
     0
  9
$JOINSTYLE
280
     0
  9
$LWDISPLAY
290
     0
  9
$INSUNITS
 70
     4
  9
$HYPERLINKBASE
  1

  9
$STYLESHEET
  1

  9
$XEDIT
290
     1
  9
$CEPSNTYPE
380
     0
  9
$PSTYLEMODE
290
     1
  9
$FINGERPRINTGUID
  2
{D20E6E64-41C0-4C6C-856C-66CF2C005005}
  9
$VERSIONGUID
  2
{FAEB1C32-E019-11D5-929B-00C0DF256EC4}
  9
$EXTNAMES
290
     1
  9
$PSVPSCALE
 40
0.0
  9
$OLESTARTUP
290
     0
  9
$SORTENTS
280
   127
  9
$INDEXCTL
280
     0
  9
$HIDETEXT
280
     1
  9
$XCLIPFRAME
290
     0
  9
$HALOGAP
280
     0
  9
$OBSCOLOR
 70
   257
  9
$OBSLTYPE
280
     0
  9
$INTERSECTIONDISPLAY
280
     0
  9
$INTERSECTIONCOLOR
 70
   257
  9
$DIMASSOC
280
     1
  9
$PROJECTNAME
  1

  9
$CAMERADISPLAY
290
     0
  9
$LENSLENGTH
 40
50.0
  9
$CAMERAHEIGHT
 40
0.0
  9
$STEPSPERSEC
 40
2.0
  9
$STEPSIZE
 40
6.0
  9
$3DDWFPREC
 40
2.0
  9
$PSOLWIDTH
 40
0.25
  9
$PSOLHEIGHT
 40
4.0
  9
$LOFTANG1
 40
1.570796326794897
  9
$LOFTANG2
 40
1.570796326794897
  9
$LOFTMAG1
 40
0.0
  9
$LOFTMAG2
 40
0.0
  9
$LOFTPARAM
 70
     7
  9
$LOFTNORMALS
280
     1
  9
$LATITUDE
 40
37.795
  9
$LONGITUDE
 40
-122.394
  9
$NORTHDIRECTION
 40
0.0
  9
$TIMEZONE
 70
 -8000
  9
$LIGHTGLYPHDISPLAY
280
     1
  9
$TILEMODELIGHTSYNCH
280
     1
  9
$SOLIDHIST
280
     1
  9
$SHOWHIST
280
     1
  9
$DWFFRAME
280
     2
  9
$DGNFRAME
280
     2
  9
$REALWORLDSCALE
290
     1
  9
$INTERFERECOLOR
 62
   256
  9
$CSHADOW
280
     0
  9
$SHADOWPLANELOCATION
 40
0.0
  0
ENDSEC
  0
SECTION
  2
CLASSES
  0
CLASS
  1
ACDBDICTIONARYWDFLT
  2
AcDbDictionaryWithDefault
  3
ObjectDBX Classes
 90
        0
 91
        4
280
     0
281
     0
  0
CLASS
  1
VISUALSTYLE
  2
AcDbVisualStyle
  3
ObjectDBX Classes
 90
     4095
 91
        4
280
     0
281
     0
  0
CLASS
  1
MATERIAL
  2
AcDbMaterial
  3
ObjectDBX Classes
 90
     1153
 91
        4
280
     0
281
     0
  0
ENDSEC
  0
SECTION
  2
TABLES
  0
TABLE
  2
VPORT
  5
8
330
0
100
AcDbSymbolTable
 70
     1
  0
VPORT
  5
29
330
8
100
AcDbSymbolTableRecord
100
AcDbViewportTableRecord
  2
*Active
 70
     0
 10
0.0
 20
0.0
 11
1.0
 21
1.0
 12
10.42990654205607
 22
4.5
 13
0.0
 23
0.0
 14
0.5
 24
0.5
 15
0.5
 25
0.5
 16
0.0
 26
0.0
 36
1.0
 17
0.0
 27
0.0
 37
0.0
 40
9.0
 41
1.972972972850329
 42
50.0
 43
0.0
 44
0.0
 50
0.0
 51
0.0
 71
     0
 72
   100
 73
     1
 74
     3
 75
     0
 76
     0
 77
     0
 78
     0
281
     0
 65
     1
110
0.0
120
0.0
130
0.0
111
1.0
121
0.0
131
0.0
112
0.0
122
1.0
132
0.0
 79
     0
146
0.0
 60
     3
 61
     5
292
     1
282
     1
141
0.0
142
0.0
 63
   250
  0
ENDTAB
  0
TABLE
  2
LTYPE
  5
5
330
0
100
AcDbSymbolTable
 70
     9
  0
LTYPE
  5
14
330
5
100
AcDbSymbolTableRecord
100
AcDbLinetypeTableRecord
  2
ByBlock
 70
     0
  3

 72
    65
 73
     0
 40
0.0
  0
LTYPE
  5
15
330
5
100
AcDbSymbolTableRecord
100
AcDbLinetypeTableRecord
  2
ByLayer
 70
     0
  3

 72
    65
 73
     0
 40
0.0
  0
LTYPE
  5
16
330
5
100
AcDbSymbolTableRecord
100
AcDbLinetypeTableRecord
  2
Continuous
 70
     0
  3
Solid line
 72
    65
 73
     0
 40
0.0
  0
LTYPE
  5
8E
330
5
100
AcDbSymbolTableRecord
100
AcDbLinetypeTableRecord
  2
DOT
 70
     0
  3
DOT
 72
    65
 73
     2
 40
4.0
 49
6.0
 74
     0
 49
-2.0
 74
     0
  0
LTYPE
  5
8F
330
5
100
AcDbSymbolTableRecord
100
AcDbLinetypeTableRecord
  2
HIDDEN
 70
     0
  3
HIDDEN
 72
    65
 73
     2
 40
4.2
 49
8.4
 74
     0
 49
-4.2
 74
     0
  0
LTYPE
  5
90
330
5
100
AcDbSymbolTableRecord
100
AcDbLinetypeTableRecord
  2
DASHDOT
 70
     0
  3
DASHDOT
 72
    65
 73
     4
 40
14.5
 49
30.0
 74
     0
 49
-9.0
 74
     0
 49
2.5
 74
     0
 49
-9.0
 74
     0
  0
LTYPE
  5
91
330
5
100
AcDbSymbolTableRecord
100
AcDbLinetypeTableRecord
  2
PHANTOM
 70
     0
  3
PHANTOM
 72
    65
 73
     6
 40
12.0
 49
30.0
 74
     0
 49
-9.0
 74
     0
 49
2.5
 74
     0
 49
-5.0
 74
     0
 49
2.5
 74
     0
 49
-9.0
 74
     0
  0
LTYPE
  5
92
330
5
100
AcDbSymbolTableRecord
100
AcDbLinetypeTableRecord
  2
ACAD_ISO14W100
 70
     0
  3
ACAD_ISO14W100
 72
    65
 73
     8
 40
1.5
 49
12.0
 74
     0
 49
-3.0
 74
     0
 49
0.5
 74
     0
 49
-3.0
 74
     0
 49
0.5
 74
     0
 49
-3.0
 74
     0
 49
0.5
 74
     0
 49
-3.0
 74
     0
  0
LTYPE
  5
93
330
5
100
AcDbSymbolTableRecord
100
AcDbLinetypeTableRecord
  2
ACAD_ISO06W100
 70
     0
  3
ACAD_ISO06W100
 72
    65
 73
     8
 40
13.5
 49
24.0
 74
     0
 49
-3.0
 74
     0
 49
0.5
 74
     0
 49
-3.0
 74
     0
 49
0.5
 74
     0
 49
-3.0
 74
     0
 49
0.5
 74
     0
 49
-3.0
 74
     0
  0
LTYPE
  5
94
330
5
100
AcDbSymbolTableRecord
100
AcDbLinetypeTableRecord
  2
ACAD_ISO11W100
 70
     0
  3
ACAD_ISO11W100
 72
    65
 73
     6
 40
15.5
 49
12.0
 74
     0
 49
-3.0
 74
     0
 49
12.0
 74
     0
 49
-3.0
 74
     0
 49
0.5
 74
     0
 49
-3.0
 74
     0
  0
LTYPE
  5
95
330
5
100
AcDbSymbolTableRecord
100
AcDbLinetypeTableRecord
  2
ACAD_ISO13W100
 70
     0
  3
ACAD_ISO13W100
 72
    65
 73
     8
 40
13.0
 49
12.0
 74
     0
 49
-3.0
 74
     0
 49
12.0
 74
     0
 49
-3.0
 74
     0
 49
0.5
 74
     0
 49
-3.0
 74
     0
 49
0.5
 74
     0
 49
-3.0
 74
     0
  0
ENDTAB
  0
TABLE
  2
LAYER
  5
2
330
0
100
AcDbSymbolTable
 70
    26
  0
LAYER
  5
10
330
2
100
AcDbSymbolTableRecord
100
AcDbLayerTableRecord
  2
0
 70
     0
 62
     7
  6
Continuous
370
    -3
390
F
347
3E
  0
LAYER
  5
96
330
2
100
AcDbSymbolTableRecord
100
AcDbLayerTableRecord
  2
1
 70
     0
 62
   254
  6
Continuous
370
     9
390
F
347
3E
  0
LAYER
  5
97
330
2
100
AcDbSymbolTableRecord
100
AcDbLayerTableRecord
  2
2
 70
     0
 62
     4
  6
Continuous
370
     9
390
F
347
3E
  0
LAYER
  5
98
330
2
100
AcDbSymbolTableRecord
100
AcDbLayerTableRecord
  2
3
 70
     0
 62
     3
  6
Continuous
370
     9
390
F
347
3E
  0
LAYER
  5
99
330
2
100
AcDbSymbolTableRecord
100
AcDbLayerTableRecord
  2
4
 70
     0
 62
     6
  6
Continuous
370
     9
390
F
347
3E
  0
LAYER
  5
9A
330
2
100
AcDbSymbolTableRecord
100
AcDbLayerTableRecord
  2
5
 70
     0
 62
     2
  6
Continuous
370
     9
390
F
347
3E
  0
LAYER
  5
9B
330
2
100
AcDbSymbolTableRecord
100
AcDbLayerTableRecord
  2
6
 70
     0
 62
   142
  6
Continuous
370
     9
390
F
347
3E
  0
LAYER
  5
9C
330
2
100
AcDbSymbolTableRecord
100
AcDbLayerTableRecord
  2
7
 70
     0
 62
    11
  6
Continuous
370
     9
390
F
347
3E
  0
LAYER
  5
9D
330
2
100
AcDbSymbolTableRecord
100
AcDbLayerTableRecord
  2
8
 70
     0
 62
    30
  6
Continuous
370
     9
390
F
347
3E
  0
LAYER
  5
9E
330
2
100
AcDbSymbolTableRecord
100
AcDbLayerTableRecord
  2
9
 70
     0
 62
   190
  6
Continuous
370
     9
390
F
347
3E
  0
LAYER
  5
9F
330
2
100
AcDbSymbolTableRecord
100
AcDbLayerTableRecord
  2
10
 70
     0
 62
   251
  6
Continuous
370
     9
390
F
347
3E
  0
LAYER
  5
A0
330
2
100
AcDbSymbolTableRecord
100
AcDbLayerTableRecord
  2
11
 70
     0
 62
   131
  6
Continuous
370
     9
390
F
347
3E
  0
LAYER
  5
A1
330
2
100
AcDbSymbolTableRecord
100
AcDbLayerTableRecord
  2
12
 70
     0
 62
    13
  6
Continuous
370
     9
390
F
347
3E
  0
LAYER
  5
A2
330
2
100
AcDbSymbolTableRecord
100
AcDbLayerTableRecord
  2
13
 70
     0
 62
    91
  6
Continuous
370
     9
390
F
347
3E
  0
LAYER
  5
A3
330
2
100
AcDbSymbolTableRecord
100
AcDbLayerTableRecord
  2
14
 70
     0
 62
   211
  6
Continuous
370
     9
390
F
347
3E
  0
LAYER
  5
A4
330
2
100
AcDbSymbolTableRecord
100
AcDbLayerTableRecord
  2
15
 70
     0
 62
    51
  6
Continuous
370
     9
390
F
347
3E
  0
LAYER
  5
A5
330
2
100
AcDbSymbolTableRecord
100
AcDbLayerTableRecord
  2
16
 70
     0
 62
     7
  6
Continuous
370
     9
390
F
347
3E
  0
LAYER
  5
A6
330
2
100
AcDbSymbolTableRecord
100
AcDbLayerTableRecord
  2
17
 70
     0
 62
   150
  6
Continuous
370
     9
390
F
347
3E
  0
LAYER
  5
A7
330
2
100
AcDbSymbolTableRecord
100
AcDbLayerTableRecord
  2
18
 70
     0
 62
    72
  6
Continuous
370
     9
390
F
347
3E
  0
LAYER
  5
A8
330
2
100
AcDbSymbolTableRecord
100
AcDbLayerTableRecord
  2
19
 70
     0
 62
   212
  6
Continuous
370
     9
390
F
347
3E
  0
LAYER
  5
A9
330
2
100
AcDbSymbolTableRecord
100
AcDbLayerTableRecord
  2
20
 70
     0
 62
    52
  6
Continuous
370
     9
390
F
347
3E
  0
LAYER
  5
AA
330
2
100
AcDbSymbolTableRecord
100
AcDbLayerTableRecord
  2
21
 70
     0
 62
   171
  6
Continuous
370
     9
390
F
347
3E
  0
LAYER
  5
AB
330
2
100
AcDbSymbolTableRecord
100
AcDbLayerTableRecord
  2
22
 70
     0
 62
    21
  6
Continuous
370
     9
390
F
347
3E
  0
LAYER
  5
AC
330
2
100
AcDbSymbolTableRecord
100
AcDbLayerTableRecord
  2
23
 70
     0
 62
   136
  6
Continuous
370
     9
390
F
347
3E
  0
LAYER
  5
AD
330
2
100
AcDbSymbolTableRecord
100
AcDbLayerTableRecord
  2
24
 70
     0
 62
   132
  6
Continuous
370
     9
390
F
347
3E
  0
LAYER
  5
AE
330
2
100
AcDbSymbolTableRecord
100
AcDbLayerTableRecord
  2
25
 70
     0
 62
   193
  6
Continuous
370
     9
390
F
347
3E
  0
ENDTAB
  0
TABLE
  2
STYLE
  5
3
330
0
100
AcDbSymbolTable
 70
     3
  0
STYLE
  5
11
330
3
100
AcDbSymbolTableRecord
100
AcDbTextStyleTableRecord
  2
Standard
 70
     0
 40
0.0
 41
1.0
 50
0.0
 71
     0
 42
40.0
  3
txt
  4
bigfont
  0
STYLE
  5
41
330
3
100
AcDbSymbolTableRecord
100
AcDbTextStyleTableRecord
  2
T_STANDARD
 70
     4
 40
10.0
 41
1.0
 50
0.0
 71
     0
 42
10.0
  3
txt
  4
bigfont
  0
STYLE
  5
10C
330
3
100
AcDbSymbolTableRecord
100
AcDbTextStyleTableRecord
  2
ＭＳ ゴシック
 70
     0
 40
0.0
 41
1.0
 50
0.0
 71
     0
 42
0.0
  3

  4

1001
ACAD
1000
ＭＳ ゴシック
1071
      256
  0
ENDTAB
  0
TABLE
  2
VIEW
  5
6
330
0
100
AcDbSymbolTable
 70
     0
  0
ENDTAB
  0
TABLE
  2
UCS
  5
7
330
0
100
AcDbSymbolTable
 70
     0
  0
ENDTAB
  0
TABLE
  2
APPID
  5
9
330
0
100
AcDbSymbolTable
 70
     2
  0
APPID
  5
12
330
9
100
AcDbSymbolTableRecord
100
AcDbRegAppTableRecord
  2
ACAD
 70
     0
  0
APPID
  5
40
330
9
100
AcDbSymbolTableRecord
100
AcDbRegAppTableRecord
  2
ODA
 70
     0
  0
ENDTAB
  0
TABLE
  2
DIMSTYLE
  5
A
330
0
100
AcDbSymbolTable
 70
     1
100
AcDbDimStyleTable
  0
DIMSTYLE
105
27
102
{ACAD_REACTORS
330
116
330
120
330
12A
330
134
330
14F
330
159
330
163
330
174
330
17E
330
209
330
24C
330
256
330
264
330
2A2
330
2AC
330
2B8
330
2EF
330
2F9
330
303
330
310
330
31C
330
32A
330
334
330
340
330
350
330
3EC
102
}
330
A
100
AcDbSymbolTableRecord
100
AcDbDimStyleTableRecord
  2
Standard
 70
     0
178
     0
340
11
  0
ENDTAB
  0
TABLE
  2
BLOCK_RECORD
  5
1
330
0
100
AcDbSymbolTable
 70
    49
  0
BLOCK_RECORD
  5
1F
330
1
100
AcDbSymbolTableRecord
100
AcDbBlockTableRecord
  2
*Model_Space
340
22
 70
     0
280
     1
281
     0
  0
BLOCK_RECORD
  5
1B
330
1
100
AcDbSymbolTableRecord
100
AcDbBlockTableRecord
  2
*Paper_Space
340
1E
 70
     0
280
     1
281
     0
  0
BLOCK_RECORD
  5
23
330
1
100
AcDbSymbolTableRecord
100
AcDbBlockTableRecord
  2
*Paper_Space0
340
26
 70
     0
280
     1
281
     0
  0
BLOCK_RECORD
  5
42
330
1
100
AcDbSymbolTableRecord
100
AcDbBlockTableRecord
  2
_ORIGIN
340
0
 70
     0
280
     1
281
     0
  0
BLOCK_RECORD
  5
47
330
1
100
AcDbSymbolTableRecord
100
AcDbBlockTableRecord
  2
_DOTBLANK
340
0
 70
     0
280
     1
281
     0
  0
BLOCK_RECORD
  5
4C
330
1
100
AcDbSymbolTableRecord
100
AcDbBlockTableRecord
  2
_DOT
340
0
 70
     0
280
     1
281
     0
  0
BLOCK_RECORD
  5
51
330
1
100
AcDbSymbolTableRecord
100
AcDbBlockTableRecord
  2
_OPEN
340
0
102
{BLKREFS
331
EF
331
F6
331
114
331
115
331
11E
331
11F
331
128
331
129
331
132
331
133
331
136
331
14D
331
14E
331
157
331
158
331
161
331
162
331
172
331
173
331
17C
331
17D
331
182
331
1F9
331
207
331
208
331
24A
331
24B
331
254
331
255
331
262
331
263
331
2A0
331
2A1
331
2AA
331
2AB
331
2B6
331
2B7
331
2ED
331
2EE
331
2F7
331
2F8
331
301
331
302
331
30E
331
30F
331
31A
331
31B
331
328
331
329
331
332
331
333
331
33E
331
33F
331
34E
331
34F
331
3D9
331
3EA
331
3EB
102
}
 70
     0
280
     1
281
     0
  0
BLOCK_RECORD
  5
57
330
1
100
AcDbSymbolTableRecord
100
AcDbBlockTableRecord
  2
_CLOSED
340
0
 70
     0
280
     1
281
     0
  0
BLOCK_RECORD
  5
5E
330
1
100
AcDbSymbolTableRecord
100
AcDbBlockTableRecord
  2
_CLOSEDBLANK
340
0
 70
     0
280
     1
281
     0
  0
BLOCK_RECORD
  5
64
330
1
100
AcDbSymbolTableRecord
100
AcDbBlockTableRecord
  2
_ARROWFILLED
340
0
 70
     0
280
     1
281
     0
  0
BLOCK_RECORD
  5
68
330
1
100
AcDbSymbolTableRecord
100
AcDbBlockTableRecord
  2
_BOXBLANK
340
0
 70
     0
280
     1
281
     0
  0
BLOCK_RECORD
  5
70
330
1
100
AcDbSymbolTableRecord
100
AcDbBlockTableRecord
  2
_BOXFILLED
340
0
 70
     0
280
     1
281
     0
  0
BLOCK_RECORD
  5
75
330
1
100
AcDbSymbolTableRecord
100
AcDbBlockTableRecord
  2
_INTEGRAL
340
0
 70
     0
280
     1
281
     0
  0
BLOCK_RECORD
  5
7A
330
1
100
AcDbSymbolTableRecord
100
AcDbBlockTableRecord
  2
_OBLIQUE
340
0
 70
     0
280
     1
281
     0
  0
BLOCK_RECORD
  5
7E
330
1
100
AcDbSymbolTableRecord
100
AcDbBlockTableRecord
  2
_NONE
340
0
 70
     0
280
     1
281
     0
  0
BLOCK_RECORD
  5
81
330
1
100
AcDbSymbolTableRecord
100
AcDbBlockTableRecord
  2
MARK_OPEN
340
0
 70
     0
280
     1
281
     0
  0
BLOCK_RECORD
  5
86
330
1
100
AcDbSymbolTableRecord
100
AcDbBlockTableRecord
  2
MARK_ORIGIN
340
0
 70
     0
280
     1
281
     0
  0
BLOCK_RECORD
  5
8A
330
1
100
AcDbSymbolTableRecord
100
AcDbBlockTableRecord
  2
MARK_DOT
340
0
 70
     0
280
     1
281
     0
  0
BLOCK_RECORD
  5
10D
330
1
100
AcDbSymbolTableRecord
100
AcDbBlockTableRecord
  2
Dim1
340
0
 70
     0
280
     1
281
     0
  0
BLOCK_RECORD
  5
117
330
1
100
AcDbSymbolTableRecord
100
AcDbBlockTableRecord
  2
Dim2
340
0
 70
     0
280
     1
281
     0
  0
BLOCK_RECORD
  5
121
330
1
100
AcDbSymbolTableRecord
100
AcDbBlockTableRecord
  2
Dim3
340
0
 70
     0
280
     1
281
     0
  0
BLOCK_RECORD
  5
12B
330
1
100
AcDbSymbolTableRecord
100
AcDbBlockTableRecord
  2
Dim4
340
0
 70
     0
280
     1
281
     0
  0
BLOCK_RECORD
  5
146
330
1
100
AcDbSymbolTableRecord
100
AcDbBlockTableRecord
  2
Dim5
340
0
 70
     0
280
     1
281
     0
  0
BLOCK_RECORD
  5
150
330
1
100
AcDbSymbolTableRecord
100
AcDbBlockTableRecord
  2
Dim6
340
0
 70
     0
280
     1
281
     0
  0
BLOCK_RECORD
  5
15A
330
1
100
AcDbSymbolTableRecord
100
AcDbBlockTableRecord
  2
Dim7
340
0
 70
     0
280
     1
281
     0
  0
BLOCK_RECORD
  5
16B
330
1
100
AcDbSymbolTableRecord
100
AcDbBlockTableRecord
  2
Dim8
340
0
 70
     0
280
     1
281
     0
  0
BLOCK_RECORD
  5
175
330
1
100
AcDbSymbolTableRecord
100
AcDbBlockTableRecord
  2
Dim9
340
0
 70
     0
280
     1
281
     0
  0
BLOCK_RECORD
  5
200
330
1
100
AcDbSymbolTableRecord
100
AcDbBlockTableRecord
  2
Dim10
340
0
 70
     0
280
     1
281
     0
  0
BLOCK_RECORD
  5
20A
330
1
100
AcDbSymbolTableRecord
100
AcDbBlockTableRecord
  2
*G26
340
0
102
{BLKREFS
331
213
102
}
 70
     0
280
     1
281
     0
  0
BLOCK_RECORD
  5
21A
330
1
100
AcDbSymbolTableRecord
100
AcDbBlockTableRecord
  2
*G27
340
0
102
{BLKREFS
331
223
102
}
 70
     0
280
     1
281
     0
  0
BLOCK_RECORD
  5
243
330
1
100
AcDbSymbolTableRecord
100
AcDbBlockTableRecord
  2
Dim11
340
0
 70
     0
280
     1
281
     0
  0
BLOCK_RECORD
  5
24D
330
1
100
AcDbSymbolTableRecord
100
AcDbBlockTableRecord
  2
Dim12
340
0
 70
     0
280
     1
281
     0
  0
BLOCK_RECORD
  5
25B
330
1
100
AcDbSymbolTableRecord
100
AcDbBlockTableRecord
  2
Dim13
340
0
 70
     0
280
     1
281
     0
  0
BLOCK_RECORD
  5
269
330
1
100
AcDbSymbolTableRecord
100
AcDbBlockTableRecord
  2
*G31
340
0
102
{BLKREFS
331
272
102
}
 70
     0
280
     1
281
     0
  0
BLOCK_RECORD
  5
276
330
1
100
AcDbSymbolTableRecord
100
AcDbBlockTableRecord
  2
*G32
340
0
102
{BLKREFS
331
27F
102
}
 70
     0
280
     1
281
     0
  0
BLOCK_RECORD
  5
299
330
1
100
AcDbSymbolTableRecord
100
AcDbBlockTableRecord
  2
Dim14
340
0
 70
     0
280
     1
281
     0
  0
BLOCK_RECORD
  5
2A3
330
1
100
AcDbSymbolTableRecord
100
AcDbBlockTableRecord
  2
Dim15
340
0
 70
     0
280
     1
281
     0
  0
BLOCK_RECORD
  5
2AF
330
1
100
AcDbSymbolTableRecord
100
AcDbBlockTableRecord
  2
Dim16
340
0
 70
     0
280
     1
281
     0
  0
BLOCK_RECORD
  5
2E6
330
1
100
AcDbSymbolTableRecord
100
AcDbBlockTableRecord
  2
Dim17
340
0
 70
     0
280
     1
281
     0
  0
BLOCK_RECORD
  5
2F0
330
1
100
AcDbSymbolTableRecord
100
AcDbBlockTableRecord
  2
Dim18
340
0
 70
     0
280
     1
281
     0
  0
BLOCK_RECORD
  5
2FA
330
1
100
AcDbSymbolTableRecord
100
AcDbBlockTableRecord
  2
Dim19
340
0
 70
     0
280
     1
281
     0
  0
BLOCK_RECORD
  5
307
330
1
100
AcDbSymbolTableRecord
100
AcDbBlockTableRecord
  2
Dim20
340
0
 70
     0
280
     1
281
     0
  0
BLOCK_RECORD
  5
313
330
1
100
AcDbSymbolTableRecord
100
AcDbBlockTableRecord
  2
Dim21
340
0
 70
     0
280
     1
281
     0
  0
BLOCK_RECORD
  5
321
330
1
100
AcDbSymbolTableRecord
100
AcDbBlockTableRecord
  2
Dim22
340
0
 70
     0
280
     1
281
     0
  0
BLOCK_RECORD
  5
32B
330
1
100
AcDbSymbolTableRecord
100
AcDbBlockTableRecord
  2
Dim23
340
0
 70
     0
280
     1
281
     0
  0
BLOCK_RECORD
  5
337
330
1
100
AcDbSymbolTableRecord
100
AcDbBlockTableRecord
  2
Dim24
340
0
 70
     0
280
     1
281
     0
  0
BLOCK_RECORD
  5
347
330
1
100
AcDbSymbolTableRecord
100
AcDbBlockTableRecord
  2
Dim25
340
0
 70
     0
280
     1
281
     0
  0
BLOCK_RECORD
  5
37F
330
1
100
AcDbSymbolTableRecord
100
AcDbBlockTableRecord
  2
*G45
340
0
102
{BLKREFS
331
3D2
102
}
 70
     0
280
     1
281
     0
  0
BLOCK_RECORD
  5
382
330
1
100
AcDbSymbolTableRecord
100
AcDbBlockTableRecord
  2
*G46
340
0
102
{BLKREFS
331
3D1
102
}
 70
     0
280
     1
281
     0
  0
BLOCK_RECORD
  5
3E3
330
1
100
AcDbSymbolTableRecord
100
AcDbBlockTableRecord
  2
Dim26
340
0
 70
     0
280
     1
281
     0
  0
BLOCK_RECORD
  5
3ED
330
1
100
AcDbSymbolTableRecord
100
AcDbBlockTableRecord
  2
*G48
340
0
102
{BLKREFS
331
41B
102
}
 70
     0
280
     1
281
     0
  0
ENDTAB
  0
ENDSEC
  0
SECTION
  2
BLOCKS
  0
BLOCK
  5
20
330
1F
100
AcDbEntity
  8
0
100
AcDbBlockBegin
  2
*Model_Space
 70
     0
 10
0.0
 20
0.0
 30
0.0
  3
*Model_Space
  1

  0
ENDBLK
  5
21
330
1F
100
AcDbEntity
  8
0
100
AcDbBlockEnd
  0
BLOCK
  5
1C
330
1B
100
AcDbEntity
 67
     1
  8
0
100
AcDbBlockBegin
  2
*Paper_Space
 70
     0
 10
0.0
 20
0.0
 30
0.0
  3
*Paper_Space
  1

  0
ENDBLK
  5
1D
330
1B
100
AcDbEntity
 67
     1
  8
0
100
AcDbBlockEnd
  0
BLOCK
  5
24
330
23
100
AcDbEntity
  8
0
100
AcDbBlockBegin
  2
*Paper_Space0
 70
     0
 10
0.0
 20
0.0
 30
0.0
  3
*Paper_Space0
  1

  0
ENDBLK
  5
25
330
23
100
AcDbEntity
  8
0
100
AcDbBlockEnd
  0
BLOCK
  5
45
330
42
100
AcDbEntity
  8
0
100
AcDbBlockBegin
  2
_ORIGIN
 70
     0
 10
0.0
 20
0.0
 30
0.0
  3
_ORIGIN
  1

  0
CIRCLE
  5
43
330
42
100
AcDbEntity
  8
0
 62
     0
100
AcDbCircle
 10
0.0
 20
0.0
 30
0.0
 40
0.5
  0
LINE
  5
44
330
42
100
AcDbEntity
  8
0
 62
     0
100
AcDbLine
 10
0.0
 20
0.0
 30
0.0
 11
-1.0
 21
0.0
 31
0.0
  0
ENDBLK
  5
46
330
42
100
AcDbEntity
  8
0
100
AcDbBlockEnd
  0
BLOCK
  5
4A
330
47
100
AcDbEntity
  8
0
100
AcDbBlockBegin
  2
_DOTBLANK
 70
     0
 10
0.0
 20
0.0
 30
0.0
  3
_DOTBLANK
  1

  0
CIRCLE
  5
48
330
47
100
AcDbEntity
  8
0
 62
     0
100
AcDbCircle
 10
0.0
 20
0.0
 30
0.0
 40
0.5
  0
LINE
  5
49
330
47
100
AcDbEntity
  8
0
 62
     0
100
AcDbLine
 10
-0.5
 20
0.0
 30
0.0
 11
-1.0
 21
0.0
 31
0.0
  0
ENDBLK
  5
4B
330
47
100
AcDbEntity
  8
0
100
AcDbBlockEnd
  0
BLOCK
  5
4F
330
4C
100
AcDbEntity
  8
0
100
AcDbBlockBegin
  2
_DOT
 70
     0
 10
0.0
 20
0.0
 30
0.0
  3
_DOT
  1

  0
LWPOLYLINE
  5
4D
330
4C
100
AcDbEntity
  8
0
 62
     0
100
AcDbPolyline
 90
        2
 70
     1
 43
0.5
 10
-0.25
 20
0.0
 42
1.0
 10
0.25
 20
0.0
 42
1.0
  0
LINE
  5
4E
330
4C
100
AcDbEntity
  8
0
 62
     0
100
AcDbLine
 10
-0.5
 20
0.0
 30
0.0
 11
-1.0
 21
0.0
 31
0.0
  0
ENDBLK
  5
50
330
4C
100
AcDbEntity
  8
0
100
AcDbBlockEnd
  0
BLOCK
  5
55
330
51
100
AcDbEntity
  8
0
100
AcDbBlockBegin
  2
_OPEN
 70
     0
 10
0.0
 20
0.0
 30
0.0
  3
_OPEN
  1

  0
LINE
  5
52
330
51
100
AcDbEntity
  8
0
 62
     0
100
AcDbLine
 10
0.0
 20
0.0
 30
0.0
 11
-1.0
 21
0.1666666666666667
 31
0.0
  0
LINE
  5
53
330
51
100
AcDbEntity
  8
0
 62
     0
100
AcDbLine
 10
0.0
 20
0.0
 30
0.0
 11
-1.0
 21
-0.1666666666666667
 31
0.0
  0
LINE
  5
54
330
51
100
AcDbEntity
  8
0
 62
     0
100
AcDbLine
 10
0.0
 20
0.0
 30
0.0
 11
-1.0
 21
0.0
 31
0.0
  0
ENDBLK
  5
56
330
51
100
AcDbEntity
  8
0
100
AcDbBlockEnd
  0
BLOCK
  5
5C
330
57
100
AcDbEntity
  8
0
100
AcDbBlockBegin
  2
_CLOSED
 70
     0
 10
0.0
 20
0.0
 30
0.0
  3
_CLOSED
  1

  0
LINE
  5
58
330
57
100
AcDbEntity
  8
0
 62
     0
100
AcDbLine
 10
0.0
 20
0.0
 30
0.0
 11
-1.0
 21
0.1666666666666667
 31
0.0
  0
LINE
  5
59
330
57
100
AcDbEntity
  8
0
 62
     0
100
AcDbLine
 10
0.0
 20
0.0
 30
0.0
 11
-1.0
 21
-0.1666666666666667
 31
0.0
  0
LINE
  5
5A
330
57
100
AcDbEntity
  8
0
 62
     0
100
AcDbLine
 10
-1.0
 20
0.1666666666666667
 30
0.0
 11
-1.0
 21
-0.1666666666666667
 31
0.0
  0
LINE
  5
5B
330
57
100
AcDbEntity
  8
0
 62
     0
100
AcDbLine
 10
0.0
 20
0.0
 30
0.0
 11
-1.0
 21
0.0
 31
0.0
  0
ENDBLK
  5
5D
330
57
100
AcDbEntity
  8
0
100
AcDbBlockEnd
  0
BLOCK
  5
62
330
5E
100
AcDbEntity
  8
0
100
AcDbBlockBegin
  2
_CLOSEDBLANK
 70
     0
 10
0.0
 20
0.0
 30
0.0
  3
_CLOSEDBLANK
  1

  0
LINE
  5
5F
330
5E
100
AcDbEntity
  8
0
 62
     0
100
AcDbLine
 10
0.0
 20
0.0
 30
0.0
 11
-1.0
 21
0.1666666666666667
 31
0.0
  0
LINE
  5
60
330
5E
100
AcDbEntity
  8
0
 62
     0
100
AcDbLine
 10
0.0
 20
0.0
 30
0.0
 11
-1.0
 21
-0.1666666666666667
 31
0.0
  0
LINE
  5
61
330
5E
100
AcDbEntity
  8
0
 62
     0
100
AcDbLine
 10
-1.0
 20
0.1666666666666667
 30
0.0
 11
-1.0
 21
-0.1666666666666667
 31
0.0
  0
ENDBLK
  5
63
330
5E
100
AcDbEntity
  8
0
100
AcDbBlockEnd
  0
BLOCK
  5
66
330
64
100
AcDbEntity
  8
0
100
AcDbBlockBegin
  2
_ARROWFILLED
 70
     0
 10
0.0
 20
0.0
 30
0.0
  3
_ARROWFILLED
  1

  0
SOLID
  5
65
330
64
100
AcDbEntity
  8
0
 62
     0
100
AcDbTrace
 10
0.0
 20
0.0
 30
0.0
 11
-1.0
 21
-0.1666666666666667
 31
0.0
 12
-1.0
 22
0.1666666666666667
 32
0.0
 13
0.0
 23
0.0
 33
0.0
  0
ENDBLK
  5
67
330
64
100
AcDbEntity
  8
0
100
AcDbBlockEnd
  0
BLOCK
  5
6E
330
68
100
AcDbEntity
  8
0
100
AcDbBlockBegin
  2
_BOXBLANK
 70
     0
 10
0.0
 20
0.0
 30
0.0
  3
_BOXBLANK
  1

  0
LINE
  5
69
330
68
100
AcDbEntity
  8
0
 62
     0
100
AcDbLine
 10
-0.5
 20
-0.5
 30
0.0
 11
0.5
 21
-0.5
 31
0.0
  0
LINE
  5
6A
330
68
100
AcDbEntity
  8
0
 62
     0
100
AcDbLine
 10
0.5
 20
-0.5
 30
0.0
 11
0.5
 21
0.5
 31
0.0
  0
LINE
  5
6B
330
68
100
AcDbEntity
  8
0
 62
     0
100
AcDbLine
 10
0.5
 20
0.5
 30
0.0
 11
-0.5
 21
0.5
 31
0.0
  0
LINE
  5
6C
330
68
100
AcDbEntity
  8
0
 62
     0
100
AcDbLine
 10
-0.5
 20
0.5
 30
0.0
 11
-0.5
 21
-0.5
 31
0.0
  0
LINE
  5
6D
330
68
100
AcDbEntity
  8
0
 62
     0
100
AcDbLine
 10
-0.5
 20
0.0
 30
0.0
 11
-1.0
 21
0.0
 31
0.0
  0
ENDBLK
  5
6F
330
68
100
AcDbEntity
  8
0
100
AcDbBlockEnd
  0
BLOCK
  5
73
330
70
100
AcDbEntity
  8
0
100
AcDbBlockBegin
  2
_BOXFILLED
 70
     0
 10
0.0
 20
0.0
 30
0.0
  3
_BOXFILLED
  1

  0
SOLID
  5
71
330
70
100
AcDbEntity
  8
0
 62
     0
100
AcDbTrace
 10
-0.5
 20
0.5
 30
0.0
 11
0.5
 21
0.5
 31
0.0
 12
-0.5
 22
-0.5
 32
0.0
 13
0.5
 23
-0.5
 33
0.0
  0
LINE
  5
72
330
70
100
AcDbEntity
  8
0
 62
     0
100
AcDbLine
 10
-0.5
 20
0.0
 30
0.0
 11
-1.0
 21
0.0
 31
0.0
  0
ENDBLK
  5
74
330
70
100
AcDbEntity
  8
0
100
AcDbBlockEnd
  0
BLOCK
  5
78
330
75
100
AcDbEntity
  8
0
100
AcDbBlockBegin
  2
_INTEGRAL
 70
     0
 10
0.0
 20
0.0
 30
0.0
  3
_INTEGRAL
  1

  0
ARC
  5
76
330
75
100
AcDbEntity
  8
0
 62
     0
100
AcDbCircle
 10
0.444888
 20
-0.0913346
 30
0.0
 40
0.4541666
100
AcDbArc
 50
101.9999999999999
 51
167.9999999999998
  0
ARC
  5
77
330
75
100
AcDbEntity
  8
0
 62
     0
100
AcDbCircle
 10
-0.444888
 20
0.0913346
 30
0.0
 40
0.4541666
100
AcDbArc
 50
281.9999999999997
 51
347.9999999999997
  0
ENDBLK
  5
79
330
75
100
AcDbEntity
  8
0
100
AcDbBlockEnd
  0
BLOCK
  5
7C
330
7A
100
AcDbEntity
  8
0
100
AcDbBlockBegin
  2
_OBLIQUE
 70
     0
 10
0.0
 20
0.0
 30
0.0
  3
_OBLIQUE
  1

  0
LINE
  5
7B
330
7A
100
AcDbEntity
  8
0
 62
     0
100
AcDbLine
 10
-0.5
 20
-0.5
 30
0.0
 11
0.5
 21
0.5
 31
0.0
  0
ENDBLK
  5
7D
330
7A
100
AcDbEntity
  8
0
100
AcDbBlockEnd
  0
BLOCK
  5
7F
330
7E
100
AcDbEntity
  8
0
100
AcDbBlockBegin
  2
_NONE
 70
     0
 10
0.0
 20
0.0
 30
0.0
  3
_NONE
  1

  0
ENDBLK
  5
80
330
7E
100
AcDbEntity
  8
0
100
AcDbBlockEnd
  0
BLOCK
  5
84
330
81
100
AcDbEntity
  8
0
100
AcDbBlockBegin
  2
MARK_OPEN
 70
     0
 10
0.0
 20
0.0
 30
0.0
  3
MARK_OPEN
  1

  0
LINE
  5
82
330
81
100
AcDbEntity
  8
0
 62
     0
100
AcDbLine
 10
0.0
 20
0.0
 30
0.0
 11
-1.0
 21
0.1666666666666667
 31
0.0
  0
LINE
  5
83
330
81
100
AcDbEntity
  8
0
 62
     0
100
AcDbLine
 10
0.0
 20
0.0
 30
0.0
 11
-1.0
 21
-0.1666666666666667
 31
0.0
  0
ENDBLK
  5
85
330
81
100
AcDbEntity
  8
0
100
AcDbBlockEnd
  0
BLOCK
  5
88
330
86
100
AcDbEntity
  8
0
100
AcDbBlockBegin
  2
MARK_ORIGIN
 70
     0
 10
0.0
 20
0.0
 30
0.0
  3
MARK_ORIGIN
  1

  0
CIRCLE
  5
87
330
86
100
AcDbEntity
  8
0
 62
     0
100
AcDbCircle
 10
0.0
 20
0.0
 30
0.0
 40
0.5
  0
ENDBLK
  5
89
330
86
100
AcDbEntity
  8
0
100
AcDbBlockEnd
  0
BLOCK
  5
8C
330
8A
100
AcDbEntity
  8
0
100
AcDbBlockBegin
  2
MARK_DOT
 70
     0
 10
0.0
 20
0.0
 30
0.0
  3
MARK_DOT
  1

  0
LWPOLYLINE
  5
8B
330
8A
100
AcDbEntity
  8
0
 62
     0
100
AcDbPolyline
 90
        2
 70
     1
 43
0.5
 10
-0.25
 20
0.0
 42
1.0
 10
0.25
 20
0.0
 42
1.0
  0
ENDBLK
  5
8D
330
8A
100
AcDbEntity
  8
0
100
AcDbBlockEnd
  0
BLOCK
  5
10E
330
10D
100
AcDbEntity
  8
0
100
AcDbBlockBegin
  2
Dim1
 70
     0
 10
0.0
 20
0.0
 30
0.0
  3
Dim1
  1

  0
LINE
  5
110
330
10D
100
AcDbEntity
  8
2
  6
Continuous
 62
     4
370
    30
100
AcDbLine
 10
1272.398442987393
 20
2437.383174866428
 30
0.0
 11
1272.398442987393
 21
2598.148908949995
 31
0.0
  0
LINE
  5
111
330
10D
100
AcDbEntity
  8
2
  6
Continuous
 62
     4
370
    30
100
AcDbLine
 10
632.3984429873917
 20
2427.383174866428
 30
0.0
 11
632.3984429873917
 21
2598.148908949995
 31
0.0
  0
LINE
  5
112
330
10D
100
AcDbEntity
  8
2
  6
Continuous
 62
     4
370
    30
100
AcDbLine
 10
1272.398442987393
 20
2588.148908949995
 30
0.0
 11
632.3984429873917
 21
2588.148908949995
 31
0.0
  0
MTEXT
  5
113
330
10D
100
AcDbEntity
  8
2
  6
Continuous
 62
     4
370
     9
100
AcDbMText
 10
952.3984429873926
 20
2588.148908949995
 30
0.0
 40
60.0
 41
756.5999999999999
 46
60.0
 71
     8
 72
     1
  1
640
  7
ＭＳ ゴシック
 73
     1
 44
1.0
1001
ACAD
1000
ACAD_MTEXT_DEFINED_HEIGHT_BEGIN
1070
    46
1040
60.0
1000
ACAD_MTEXT_DEFINED_HEIGHT_END
  0
INSERT
  5
114
330
10D
100
AcDbEntity
  8
2
  6
Continuous
 62
     4
370
    30
100
AcDbBlockReference
  2
_OPEN
 10
1272.398442987393
 20
2588.148908949995
 30
0.0
 41
15.0
 42
15.0
 43
15.0
 50
359.9999999999997
  0
INSERT
  5
115
330
10D
100
AcDbEntity
  8
2
  6
Continuous
 62
     4
370
    30
100
AcDbBlockReference
  2
_OPEN
 10
632.3984429873917
 20
2588.148908949995
 30
0.0
 41
15.0
 42
15.0
 43
15.0
 50
179.9999999999998
  0
ENDBLK
  5
10F
330
10D
100
AcDbEntity
  8
0
100
AcDbBlockEnd
  0
BLOCK
  5
118
330
117
100
AcDbEntity
  8
0
100
AcDbBlockBegin
  2
Dim2
 70
     0
 10
0.0
 20
0.0
 30
0.0
  3
Dim2
  1

  0
LINE
  5
11A
330
117
100
AcDbEntity
  8
2
  6
Continuous
 62
     4
370
    30
100
AcDbLine
 10
657.3984429873916
 20
794.1158338507155
 30
0.0
 11
657.3984429873898
 21
536.3865948731807
 31
0.0
  0
LINE
  5
11B
330
117
100
AcDbEntity
  8
2
  6
Continuous
 62
     4
370
    30
100
AcDbLine
 10
637.3984429873916
 20
807.3831748664277
 30
0.0
 11
637.3984429873898
 21
536.3865948731807
 31
0.0
  0
LINE
  5
11C
330
117
100
AcDbEntity
  8
2
  6
Continuous
 62
     4
370
    30
100
AcDbLine
 10
677.3984429873899
 20
546.3865948731807
 30
0.0
 11
535.6504748857815
 21
546.3865948731807
 31
0.0
  0
MTEXT
  5
11D
330
117
100
AcDbEntity
  8
2
  6
Continuous
 62
     4
370
     9
100
AcDbMText
 10
585.6504748857815
 20
546.3865948731807
 30
0.0
 40
60.0
 41
456.6
 46
60.0
 71
     9
 72
     1
  1
20
  7
ＭＳ ゴシック
 73
     1
 44
1.0
1001
ACAD
1000
ACAD_MTEXT_DEFINED_HEIGHT_BEGIN
1070
    46
1040
60.0
1000
ACAD_MTEXT_DEFINED_HEIGHT_END
  0
INSERT
  5
11E
330
117
100
AcDbEntity
  8
2
  6
Continuous
 62
     4
370
    30
100
AcDbBlockReference
  2
_OPEN
 10
657.3984429873899
 20
546.3865948731807
 30
0.0
 41
15.0
 42
15.0
 43
15.0
 50
179.9999999999995
  0
INSERT
  5
11F
330
117
100
AcDbEntity
  8
2
  6
Continuous
 62
     4
370
    30
100
AcDbBlockReference
  2
_OPEN
 10
637.3984429873899
 20
546.3865948731807
 30
0.0
 41
15.0
 42
15.0
 43
15.0
 50
359.9999999999997
  0
ENDBLK
  5
119
330
117
100
AcDbEntity
  8
0
100
AcDbBlockEnd
  0
BLOCK
  5
122
330
121
100
AcDbEntity
  8
0
100
AcDbBlockBegin
  2
Dim3
 70
     0
 10
0.0
 20
0.0
 30
0.0
  3
Dim3
  1

  0
LINE
  5
124
330
121
100
AcDbEntity
  8
2
  6
Continuous
 62
     4
370
    30
100
AcDbLine
 10
3252.031846357643
 20
977.3831748664278
 30
0.0
 11
3078.202874273828
 21
977.3831748664286
 31
0.0
  0
LINE
  5
125
330
121
100
AcDbEntity
  8
2
  6
Continuous
 62
     4
370
    30
100
AcDbLine
 10
3252.031846357642
 20
2292.383174866428
 30
0.0
 11
3078.202874273828
 21
2292.383174866428
 31
0.0
  0
LINE
  5
126
330
121
100
AcDbEntity
  8
2
  6
Continuous
 62
     4
370
    30
100
AcDbLine
 10
3088.202874273828
 20
977.3831748664286
 30
0.0
 11
3088.202874273828
 21
2292.383174866428
 31
0.0
  0
MTEXT
  5
127
330
121
100
AcDbEntity
  8
2
  6
Continuous
 62
     4
370
     9
100
AcDbMText
 10
3088.202874273828
 20
1634.883174866428
 30
0.0
 40
60.0
 41
905.7
 46
60.0
 71
     8
 72
     1
  1
1315
  7
ＭＳ ゴシック
 11
1.615544574432587E-15
 21
1.0
 31
0.0
 73
     1
 44
1.0
1001
ACAD
1000
ACAD_MTEXT_DEFINED_HEIGHT_BEGIN
1070
    46
1040
60.0
1000
ACAD_MTEXT_DEFINED_HEIGHT_END
  0
INSERT
  5
128
330
121
100
AcDbEntity
  8
2
  6
Continuous
 62
     4
370
    30
100
AcDbBlockReference
  2
_OPEN
 10
3088.202874273828
 20
977.3831748664286
 30
0.0
 41
15.0
 42
15.0
 43
15.0
 50
269.9999999999998
  0
INSERT
  5
129
330
121
100
AcDbEntity
  8
2
  6
Continuous
 62
     4
370
    30
100
AcDbBlockReference
  2
_OPEN
 10
3088.202874273828
 20
2292.383174866428
 30
0.0
 41
15.0
 42
15.0
 43
15.0
 50
89.99999999999991
  0
ENDBLK
  5
123
330
121
100
AcDbEntity
  8
0
100
AcDbBlockEnd
  0
BLOCK
  5
12C
330
12B
100
AcDbEntity
  8
0
100
AcDbBlockBegin
  2
Dim4
 70
     0
 10
0.0
 20
0.0
 30
0.0
  3
Dim4
  1

  0
LINE
  5
12E
330
12B
100
AcDbEntity
  8
2
  6
Continuous
 62
     4
370
    30
100
AcDbLine
 10
3252.031846357642
 20
2342.383174866428
 30
0.0
 11
3161.417807067816
 21
2342.383174866428
 31
0.0
  0
LINE
  5
12F
330
12B
100
AcDbEntity
  8
2
  6
Continuous
 62
     4
370
    30
100
AcDbLine
 10
3252.031846357642
 20
2417.383174866428
 30
0.0
 11
3161.417807067816
 21
2417.383174866428
 31
0.0
  0
LINE
  5
130
330
12B
100
AcDbEntity
  8
2
  6
Continuous
 62
     4
370
    30
100
AcDbLine
 10
3171.417807067816
 20
2322.383174866428
 30
0.0
 11
3171.417807067816
 21
2497.166152729925
 31
0.0
  0
MTEXT
  5
131
330
12B
100
AcDbEntity
  8
2
  6
Continuous
 62
     4
370
     9
100
AcDbMText
 10
3171.417807067816
 20
2447.166152729924
 30
0.0
 40
60.0
 41
503.1
 46
60.0
 71
     7
 72
     1
  1
75
  7
ＭＳ ゴシック
 11
1.615544574432587E-15
 21
1.0
 31
0.0
 73
     1
 44
1.0
1001
ACAD
1000
ACAD_MTEXT_DEFINED_HEIGHT_BEGIN
1070
    46
1040
60.0
1000
ACAD_MTEXT_DEFINED_HEIGHT_END
  0
INSERT
  5
132
330
12B
100
AcDbEntity
  8
2
  6
Continuous
 62
     4
370
    30
100
AcDbBlockReference
  2
_OPEN
 10
3171.417807067816
 20
2342.383174866428
 30
0.0
 41
15.0
 42
15.0
 43
15.0
 50
89.99999999999959
  0
INSERT
  5
133
330
12B
100
AcDbEntity
  8
2
  6
Continuous
 62
     4
370
    30
100
AcDbBlockReference
  2
_OPEN
 10
3171.417807067816
 20
2417.383174866428
 30
0.0
 41
15.0
 42
15.0
 43
15.0
 50
269.9999999999998
  0
ENDBLK
  5
12D
330
12B
100
AcDbEntity
  8
0
100
AcDbBlockEnd
  0
BLOCK
  5
147
330
146
100
AcDbEntity
  8
0
100
AcDbBlockBegin
  2
Dim5
 70
     0
 10
0.0
 20
0.0
 30
0.0
  3
Dim5
  1

  0
LINE
  5
149
330
146
100
AcDbEntity
  8
2
  6
Continuous
 62
     4
370
    30
100
AcDbLine
 10
1242.398442987391
 20
807.3831748664277
 30
0.0
 11
1242.398442987389
 21
430.3772408092516
 31
0.0
  0
LINE
  5
14A
330
146
100
AcDbEntity
  8
2
  6
Continuous
 62
     4
370
    30
100
AcDbLine
 10
637.3984429873916
 20
807.3831748664277
 30
0.0
 11
637.3984429873889
 21
430.3772408092516
 31
0.0
  0
LINE
  5
14B
330
146
100
AcDbEntity
  8
2
  6
Continuous
 62
     4
370
    30
100
AcDbLine
 10
1242.398442987389
 20
440.3772408092516
 30
0.0
 11
637.398442987389
 21
440.3772408092516
 31
0.0
  0
MTEXT
  5
14C
330
146
100
AcDbEntity
  8
2
  6
Continuous
 62
     4
370
     9
100
AcDbMText
 10
939.898442987389
 20
440.3772408092516
 30
0.0
 40
60.0
 41
756.5999999999999
 46
60.0
 71
     8
 72
     1
  1
605
  7
ＭＳ ゴシック
 73
     1
 44
1.0
1001
ACAD
1000
ACAD_MTEXT_DEFINED_HEIGHT_BEGIN
1070
    46
1040
60.0
1000
ACAD_MTEXT_DEFINED_HEIGHT_END
  0
INSERT
  5
14D
330
146
100
AcDbEntity
  8
2
  6
Continuous
 62
     4
370
    30
100
AcDbBlockReference
  2
_OPEN
 10
1242.398442987389
 20
440.3772408092516
 30
0.0
 41
15.0
 42
15.0
 43
15.0
 50
359.9999999999997
  0
INSERT
  5
14E
330
146
100
AcDbEntity
  8
2
  6
Continuous
 62
     4
370
    30
100
AcDbBlockReference
  2
_OPEN
 10
637.398442987389
 20
440.3772408092516
 30
0.0
 41
15.0
 42
15.0
 43
15.0
 50
179.9999999999998
  0
ENDBLK
  5
148
330
146
100
AcDbEntity
  8
0
100
AcDbBlockEnd
  0
BLOCK
  5
151
330
150
100
AcDbEntity
  8
0
100
AcDbBlockBegin
  2
Dim6
 70
     0
 10
0.0
 20
0.0
 30
0.0
  3
Dim6
  1

  0
LINE
  5
153
330
150
100
AcDbEntity
  8
2
  6
Continuous
 62
     4
370
    30
100
AcDbLine
 10
1222.398442987391
 20
786.5022437722034
 30
0.0
 11
1222.39844298739
 21
536.3865948731807
 31
0.0
  0
LINE
  5
154
330
150
100
AcDbEntity
  8
2
  6
Continuous
 62
     4
370
    30
100
AcDbLine
 10
657.3984429873916
 20
794.1158338507155
 30
0.0
 11
657.3984429873898
 21
536.3865948731807
 31
0.0
  0
LINE
  5
155
330
150
100
AcDbEntity
  8
2
  6
Continuous
 62
     4
370
    30
100
AcDbLine
 10
1222.39844298739
 20
546.3865948731807
 30
0.0
 11
657.3984429873899
 21
546.3865948731807
 31
0.0
  0
MTEXT
  5
156
330
150
100
AcDbEntity
  8
2
  6
Continuous
 62
     4
370
     9
100
AcDbMText
 10
939.8984429873899
 20
546.3865948731807
 30
0.0
 40
60.0
 41
806.3999999999999
 46
60.0
 71
     8
 72
     1
  1
565
  7
ＭＳ ゴシック
 73
     1
 44
1.0
1001
ACAD
1000
ACAD_MTEXT_DEFINED_HEIGHT_BEGIN
1070
    46
1040
60.0
1000
ACAD_MTEXT_DEFINED_HEIGHT_END
  0
INSERT
  5
157
330
150
100
AcDbEntity
  8
2
  6
Continuous
 62
     4
370
    30
100
AcDbBlockReference
  2
_OPEN
 10
1222.39844298739
 20
546.3865948731807
 30
0.0
 41
15.0
 42
15.0
 43
15.0
 50
359.9999999999997
  0
INSERT
  5
158
330
150
100
AcDbEntity
  8
2
  6
Continuous
 62
     4
370
    30
100
AcDbBlockReference
  2
_OPEN
 10
657.3984429873899
 20
546.3865948731807
 30
0.0
 41
15.0
 42
15.0
 43
15.0
 50
179.9999999999998
  0
ENDBLK
  5
152
330
150
100
AcDbEntity
  8
0
100
AcDbBlockEnd
  0
BLOCK
  5
15B
330
15A
100
AcDbEntity
  8
0
100
AcDbBlockBegin
  2
Dim7
 70
     0
 10
0.0
 20
0.0
 30
0.0
  3
Dim7
  1

  0
LINE
  5
15D
330
15A
100
AcDbEntity
  8
2
  6
Continuous
 62
     4
370
    30
100
AcDbLine
 10
1222.398442987391
 20
786.5022437722034
 30
0.0
 11
1222.398442987389
 21
536.3865948731807
 31
0.0
  0
LINE
  5
15E
330
15A
100
AcDbEntity
  8
2
  6
Continuous
 62
     4
370
    30
100
AcDbLine
 10
1242.398442987391
 20
807.3831748664277
 30
0.0
 11
1242.398442987389
 21
536.3865948731807
 31
0.0
  0
LINE
  5
15F
330
15A
100
AcDbEntity
  8
2
  6
Continuous
 62
     4
370
    30
100
AcDbLine
 10
1202.398442987389
 20
546.3865948731807
 30
0.0
 11
1337.521919709209
 21
546.3865948731807
 31
0.0
  0
MTEXT
  5
160
330
15A
100
AcDbEntity
  8
2
  6
Continuous
 62
     4
370
     9
100
AcDbMText
 10
1287.521919709209
 20
546.3865948731807
 30
0.0
 40
60.0
 41
456.6
 46
60.0
 71
     7
 72
     1
  1
20
  7
ＭＳ ゴシック
 73
     1
 44
1.0
1001
ACAD
1000
ACAD_MTEXT_DEFINED_HEIGHT_BEGIN
1070
    46
1040
60.0
1000
ACAD_MTEXT_DEFINED_HEIGHT_END
  0
INSERT
  5
161
330
15A
100
AcDbEntity
  8
2
  6
Continuous
 62
     4
370
    30
100
AcDbBlockReference
  2
_OPEN
 10
1222.398442987389
 20
546.3865948731807
 30
0.0
 41
15.0
 42
15.0
 43
15.0
 50
359.9999999999997
  0
INSERT
  5
162
330
15A
100
AcDbEntity
  8
2
  6
Continuous
 62
     4
370
    30
100
AcDbBlockReference
  2
_OPEN
 10
1242.398442987389
 20
546.3865948731807
 30
0.0
 41
15.0
 42
15.0
 43
15.0
 50
179.9999999999995
  0
ENDBLK
  5
15C
330
15A
100
AcDbEntity
  8
0
100
AcDbBlockEnd
  0
BLOCK
  5
16C
330
16B
100
AcDbEntity
  8
0
100
AcDbBlockBegin
  2
Dim8
 70
     0
 10
0.0
 20
0.0
 30
0.0
  3
Dim8
  1

  0
LINE
  5
16E
330
16B
100
AcDbEntity
  8
2
  6
Continuous
 62
     4
370
    30
100
AcDbLine
 10
3282.031846357643
 20
927.3831748664278
 30
0.0
 11
3161.417807067816
 21
927.3831748664282
 31
0.0
  0
LINE
  5
16F
330
16B
100
AcDbEntity
  8
2
  6
Continuous
 62
     4
370
    30
100
AcDbLine
 10
3252.031846357643
 20
977.3831748664278
 30
0.0
 11
3161.417807067816
 21
977.3831748664281
 31
0.0
  0
LINE
  5
170
330
16B
100
AcDbEntity
  8
2
  6
Continuous
 62
     4
370
    30
100
AcDbLine
 10
3171.417807067816
 20
907.3831748664282
 30
0.0
 11
3171.417807067816
 21
1072.870165426923
 31
0.0
  0
MTEXT
  5
171
330
16B
100
AcDbEntity
  8
2
  6
Continuous
 62
     4
370
     9
100
AcDbMText
 10
3171.417807067816
 20
1022.870165426923
 30
0.0
 40
60.0
 41
456.6
 46
60.0
 71
     7
 72
     1
  1
50
  7
ＭＳ ゴシック
 11
1.615544574432587E-15
 21
1.0
 31
0.0
 73
     1
 44
1.0
1001
ACAD
1000
ACAD_MTEXT_DEFINED_HEIGHT_BEGIN
1070
    46
1040
60.0
1000
ACAD_MTEXT_DEFINED_HEIGHT_END
  0
INSERT
  5
172
330
16B
100
AcDbEntity
  8
2
  6
Continuous
 62
     4
370
    30
100
AcDbBlockReference
  2
_OPEN
 10
3171.417807067816
 20
927.3831748664282
 30
0.0
 41
15.0
 42
15.0
 43
15.0
 50
89.99999999999959
  0
INSERT
  5
173
330
16B
100
AcDbEntity
  8
2
  6
Continuous
 62
     4
370
    30
100
AcDbBlockReference
  2
_OPEN
 10
3171.417807067816
 20
977.3831748664281
 30
0.0
 41
15.0
 42
15.0
 43
15.0
 50
269.9999999999998
  0
ENDBLK
  5
16D
330
16B
100
AcDbEntity
  8
0
100
AcDbBlockEnd
  0
BLOCK
  5
176
330
175
100
AcDbEntity
  8
0
100
AcDbBlockBegin
  2
Dim9
 70
     0
 10
0.0
 20
0.0
 30
0.0
  3
Dim9
  1

  0
LINE
  5
178
330
175
100
AcDbEntity
  8
2
  6
Continuous
 62
     4
370
    30
100
AcDbLine
 10
3282.031846357643
 20
827.3831748664278
 30
0.0
 11
3078.202874273828
 21
827.3831748664287
 31
0.0
  0
LINE
  5
179
330
175
100
AcDbEntity
  8
2
  6
Continuous
 62
     4
370
    30
100
AcDbLine
 10
3282.031846357643
 20
927.3831748664278
 30
0.0
 11
3078.202874273828
 21
927.3831748664287
 31
0.0
  0
LINE
  5
17A
330
175
100
AcDbEntity
  8
2
  6
Continuous
 62
     4
370
    30
100
AcDbLine
 10
3088.202874273828
 20
827.3831748664287
 30
0.0
 11
3088.202874273828
 21
927.3831748664287
 31
0.0
  0
MTEXT
  5
17B
330
175
100
AcDbEntity
  8
2
  6
Continuous
 62
     4
370
     9
100
AcDbMText
 10
3088.202874273828
 20
877.3831748664286
 30
0.0
 40
60.0
 41
606.0000000000001
 46
60.0
 71
     8
 72
     1
  1
100
  7
ＭＳ ゴシック
 11
1.615544574432587E-15
 21
1.0
 31
0.0
 73
     1
 44
1.0
1001
ACAD
1000
ACAD_MTEXT_DEFINED_HEIGHT_BEGIN
1070
    46
1040
60.0
1000
ACAD_MTEXT_DEFINED_HEIGHT_END
  0
INSERT
  5
17C
330
175
100
AcDbEntity
  8
2
  6
Continuous
 62
     4
370
    30
100
AcDbBlockReference
  2
_OPEN
 10
3088.202874273828
 20
827.3831748664287
 30
0.0
 41
15.0
 42
15.0
 43
15.0
 50
269.9999999999998
  0
INSERT
  5
17D
330
175
100
AcDbEntity
  8
2
  6
Continuous
 62
     4
370
    30
100
AcDbBlockReference
  2
_OPEN
 10
3088.202874273828
 20
927.3831748664287
 30
0.0
 41
15.0
 42
15.0
 43
15.0
 50
89.99999999999991
  0
ENDBLK
  5
177
330
175
100
AcDbEntity
  8
0
100
AcDbBlockEnd
  0
BLOCK
  5
201
330
200
100
AcDbEntity
  8
0
100
AcDbBlockBegin
  2
Dim10
 70
     0
 10
0.0
 20
0.0
 30
0.0
  3
Dim10
  1

  0
LINE
  5
203
330
200
100
AcDbEntity
  8
2
  6
Continuous
 62
     4
370
    30
100
AcDbLine
 10
2702.643800736045
 20
807.3831748664277
 30
0.0
 11
2702.643800736043
 21
536.3865948731807
 31
0.0
  0
LINE
  5
204
330
200
100
AcDbEntity
  8
2
  6
Continuous
 62
     4
370
    30
100
AcDbLine
 10
2607.643800736045
 20
788.8320517751251
 30
0.0
 11
2607.643800736043
 21
536.3865948731807
 31
0.0
  0
LINE
  5
205
330
200
100
AcDbEntity
  8
2
  6
Continuous
 62
     4
370
    30
100
AcDbLine
 10
2702.643800736043
 20
546.3865948731807
 30
0.0
 11
2607.643800736043
 21
546.3865948731807
 31
0.0
  0
MTEXT
  5
206
330
200
100
AcDbEntity
  8
2
  6
Continuous
 62
     4
370
     9
100
AcDbMText
 10
2655.143800736042
 20
546.3865948731807
 30
0.0
 40
60.0
 41
506.4
 46
60.0
 71
     8
 72
     1
  1
95
  7
ＭＳ ゴシック
 73
     1
 44
1.0
1001
ACAD
1000
ACAD_MTEXT_DEFINED_HEIGHT_BEGIN
1070
    46
1040
60.0
1000
ACAD_MTEXT_DEFINED_HEIGHT_END
  0
INSERT
  5
207
330
200
100
AcDbEntity
  8
2
  6
Continuous
 62
     4
370
    30
100
AcDbBlockReference
  2
_OPEN
 10
2702.643800736043
 20
546.3865948731807
 30
0.0
 41
15.0
 42
15.0
 43
15.0
 50
359.9999999999997
  0
INSERT
  5
208
330
200
100
AcDbEntity
  8
2
  6
Continuous
 62
     4
370
    30
100
AcDbBlockReference
  2
_OPEN
 10
2607.643800736043
 20
546.3865948731807
 30
0.0
 41
15.0
 42
15.0
 43
15.0
 50
179.9999999999998
  0
ENDBLK
  5
202
330
200
100
AcDbEntity
  8
0
100
AcDbBlockEnd
  0
BLOCK
  5
20B
330
20A
100
AcDbEntity
  8
0
100
AcDbBlockBegin
  2
*G26
 70
     1
 10
0.0
 20
0.0
 30
0.0
  3
*G26
  1

  0
LINE
  5
20D
330
20A
100
AcDbEntity
  8
2
  6
Continuous
 62
     4
370
    30
100
AcDbLine
 10
2623.343800736037
 20
3341.492822763077
 30
0.0
 11
2611.343800736041
 21
3334.564619532795
 31
0.0
  0
LINE
  5
20E
330
20A
100
AcDbEntity
  8
2
  6
Continuous
 62
     4
370
    30
100
AcDbLine
 10
2611.343800736041
 20
3334.564619532795
 30
0.0
 11
2611.343800736048
 21
3320.708213072243
 31
0.0
  0
LINE
  5
20F
330
20A
100
AcDbEntity
  8
2
  6
Continuous
 62
     4
370
    30
100
AcDbLine
 10
2611.343800736048
 20
3320.708213072243
 30
0.0
 11
2623.343800736052
 21
3313.780009841974
 31
0.0
  0
LINE
  5
210
330
20A
100
AcDbEntity
  8
2
  6
Continuous
 62
     4
370
    30
100
AcDbLine
 10
2623.343800736052
 20
3313.780009841974
 30
0.0
 11
2635.343800736048
 21
3320.708213072256
 31
0.0
  0
LINE
  5
211
330
20A
100
AcDbEntity
  8
2
  6
Continuous
 62
     4
370
    30
100
AcDbLine
 10
2635.343800736048
 20
3320.708213072256
 30
0.0
 11
2635.343800736041
 21
3334.564619532807
 31
0.0
  0
LINE
  5
212
330
20A
100
AcDbEntity
  8
2
  6
Continuous
 62
     4
370
    30
100
AcDbLine
 10
2635.343800736041
 20
3334.564619532807
 30
0.0
 11
2623.343800736037
 21
3341.492822763077
 31
0.0
  0
ENDBLK
  5
20C
330
20A
100
AcDbEntity
  8
0
100
AcDbBlockEnd
  0
BLOCK
  5
21B
330
21A
100
AcDbEntity
  8
0
100
AcDbBlockBegin
  2
*G27
 70
     1
 10
0.0
 20
0.0
 30
0.0
  3
*G27
  1

  0
LINE
  5
21D
330
21A
100
AcDbEntity
  8
2
  6
Continuous
 62
     4
370
    30
100
AcDbLine
 10
2623.343800736037
 20
3812.892822763076
 30
0.0
 11
2611.343800736041
 21
3805.964619532795
 31
0.0
  0
LINE
  5
21E
330
21A
100
AcDbEntity
  8
2
  6
Continuous
 62
     4
370
    30
100
AcDbLine
 10
2611.343800736041
 20
3805.964619532795
 30
0.0
 11
2611.343800736047
 21
3792.108213072244
 31
0.0
  0
LINE
  5
21F
330
21A
100
AcDbEntity
  8
2
  6
Continuous
 62
     4
370
    30
100
AcDbLine
 10
2611.343800736047
 20
3792.108213072244
 30
0.0
 11
2623.343800736051
 21
3785.180009841974
 31
0.0
  0
LINE
  5
220
330
21A
100
AcDbEntity
  8
2
  6
Continuous
 62
     4
370
    30
100
AcDbLine
 10
2623.343800736051
 20
3785.180009841974
 30
0.0
 11
2635.343800736047
 21
3792.108213072256
 31
0.0
  0
LINE
  5
221
330
21A
100
AcDbEntity
  8
2
  6
Continuous
 62
     4
370
    30
100
AcDbLine
 10
2635.343800736047
 20
3792.108213072256
 30
0.0
 11
2635.343800736041
 21
3805.964619532807
 31
0.0
  0
LINE
  5
222
330
21A
100
AcDbEntity
  8
2
  6
Continuous
 62
     4
370
    30
100
AcDbLine
 10
2635.343800736041
 20
3805.964619532807
 30
0.0
 11
2623.343800736037
 21
3812.892822763076
 31
0.0
  0
ENDBLK
  5
21C
330
21A
100
AcDbEntity
  8
0
100
AcDbBlockEnd
  0
BLOCK
  5
244
330
243
100
AcDbEntity
  8
0
100
AcDbBlockBegin
  2
Dim11
 70
     0
 10
0.0
 20
0.0
 30
0.0
  3
Dim11
  1

  0
LINE
  5
246
330
243
100
AcDbEntity
  8
2
  6
Continuous
 62
     4
370
    30
100
AcDbLine
 10
1652.643800736045
 20
827.3831748664278
 30
0.0
 11
1429.288375460877
 21
827.3831748664286
 31
0.0
  0
LINE
  5
247
330
243
100
AcDbEntity
  8
2
  6
Continuous
 62
     4
370
    30
100
AcDbLine
 10
1647.643800736045
 20
2417.383174866428
 30
0.0
 11
1429.288375460877
 21
2417.383174866429
 31
0.0
  0
LINE
  5
248
330
243
100
AcDbEntity
  8
2
  6
Continuous
 62
     4
370
    30
100
AcDbLine
 10
1439.288375460877
 20
827.3831748664286
 30
0.0
 11
1439.288375460877
 21
2417.383174866429
 31
0.0
  0
MTEXT
  5
249
330
243
100
AcDbEntity
  8
2
  6
Continuous
 62
     4
370
     9
100
AcDbMText
 10
1439.288375460877
 20
1622.383174866429
 30
0.0
 40
60.0
 41
955.8
 46
60.0
 71
     8
 72
     1
  1
1590
  7
ＭＳ ゴシック
 11
1.615544574432587E-15
 21
1.0
 31
0.0
 73
     1
 44
1.0
1001
ACAD
1000
ACAD_MTEXT_DEFINED_HEIGHT_BEGIN
1070
    46
1040
60.0
1000
ACAD_MTEXT_DEFINED_HEIGHT_END
  0
INSERT
  5
24A
330
243
100
AcDbEntity
  8
2
  6
Continuous
 62
     4
370
    30
100
AcDbBlockReference
  2
_OPEN
 10
1439.288375460877
 20
827.3831748664286
 30
0.0
 41
15.0
 42
15.0
 43
15.0
 50
269.9999999999998
  0
INSERT
  5
24B
330
243
100
AcDbEntity
  8
2
  6
Continuous
 62
     4
370
    30
100
AcDbBlockReference
  2
_OPEN
 10
1439.288375460877
 20
2417.383174866429
 30
0.0
 41
15.0
 42
15.0
 43
15.0
 50
89.99999999999991
  0
ENDBLK
  5
245
330
243
100
AcDbEntity
  8
0
100
AcDbBlockEnd
  0
BLOCK
  5
24E
330
24D
100
AcDbEntity
  8
0
100
AcDbBlockBegin
  2
Dim12
 70
     0
 10
0.0
 20
0.0
 30
0.0
  3
Dim12
  1

  0
LINE
  5
250
330
24D
100
AcDbEntity
  8
2
  6
Continuous
 62
     4
370
    30
100
AcDbLine
 10
1652.643800736045
 20
827.3831748664278
 30
0.0
 11
1542.546707740789
 21
827.3831748664277
 31
0.0
  0
LINE
  5
251
330
24D
100
AcDbEntity
  8
2
  6
Continuous
 62
     4
370
    30
100
AcDbLine
 10
1647.643800736045
 20
927.3831748664278
 30
0.0
 11
1542.546707740789
 21
927.3831748664277
 31
0.0
  0
LINE
  5
252
330
24D
100
AcDbEntity
  8
2
  6
Continuous
 62
     4
370
    30
100
AcDbLine
 10
1552.546707740789
 20
827.3831748664277
 30
0.0
 11
1552.546707740789
 21
927.3831748664277
 31
0.0
  0
MTEXT
  5
253
330
24D
100
AcDbEntity
  8
2
  6
Continuous
 62
     4
370
     9
100
AcDbMText
 10
1552.546707740789
 20
877.3831748664281
 30
0.0
 40
60.0
 41
606.0000000000001
 46
60.0
 71
     8
 72
     1
  1
100
  7
ＭＳ ゴシック
 11
1.615544574432587E-15
 21
1.0
 31
0.0
 73
     1
 44
1.0
1001
ACAD
1000
ACAD_MTEXT_DEFINED_HEIGHT_BEGIN
1070
    46
1040
60.0
1000
ACAD_MTEXT_DEFINED_HEIGHT_END
  0
INSERT
  5
254
330
24D
100
AcDbEntity
  8
2
  6
Continuous
 62
     4
370
    30
100
AcDbBlockReference
  2
_OPEN
 10
1552.546707740789
 20
827.3831748664277
 30
0.0
 41
15.0
 42
15.0
 43
15.0
 50
269.9999999999998
  0
INSERT
  5
255
330
24D
100
AcDbEntity
  8
2
  6
Continuous
 62
     4
370
    30
100
AcDbBlockReference
  2
_OPEN
 10
1552.546707740789
 20
927.3831748664277
 30
0.0
 41
15.0
 42
15.0
 43
15.0
 50
89.99999999999991
  0
ENDBLK
  5
24F
330
24D
100
AcDbEntity
  8
0
100
AcDbBlockEnd
  0
BLOCK
  5
25C
330
25B
100
AcDbEntity
  8
0
100
AcDbBlockBegin
  2
Dim13
 70
     0
 10
0.0
 20
0.0
 30
0.0
  3
Dim13
  1

  0
LINE
  5
25E
330
25B
100
AcDbEntity
  8
2
  6
Continuous
 62
     4
370
    30
100
AcDbLine
 10
1767.643800736045
 20
791.1062410193551
 30
0.0
 11
1767.643800736043
 21
536.3865948731807
 31
0.0
  0
LINE
  5
25F
330
25B
100
AcDbEntity
  8
2
  6
Continuous
 62
     4
370
    30
100
AcDbLine
 10
1672.643800736045
 20
807.3831748664277
 30
0.0
 11
1672.643800736042
 21
536.3865948731807
 31
0.0
  0
LINE
  5
260
330
25B
100
AcDbEntity
  8
2
  6
Continuous
 62
     4
370
    30
100
AcDbLine
 10
1767.643800736043
 20
546.3865948731807
 30
0.0
 11
1672.643800736042
 21
546.3865948731807
 31
0.0
  0
MTEXT
  5
261
330
25B
100
AcDbEntity
  8
2
  6
Continuous
 62
     4
370
     9
100
AcDbMText
 10
1720.143800736042
 20
546.3865948731807
 30
0.0
 40
60.0
 41
506.4
 46
60.0
 71
     8
 72
     1
  1
95
  7
ＭＳ ゴシック
 73
     1
 44
1.0
1001
ACAD
1000
ACAD_MTEXT_DEFINED_HEIGHT_BEGIN
1070
    46
1040
60.0
1000
ACAD_MTEXT_DEFINED_HEIGHT_END
  0
INSERT
  5
262
330
25B
100
AcDbEntity
  8
2
  6
Continuous
 62
     4
370
    30
100
AcDbBlockReference
  2
_OPEN
 10
1767.643800736043
 20
546.3865948731807
 30
0.0
 41
15.0
 42
15.0
 43
15.0
 50
359.9999999999997
  0
INSERT
  5
263
330
25B
100
AcDbEntity
  8
2
  6
Continuous
 62
     4
370
    30
100
AcDbBlockReference
  2
_OPEN
 10
1672.643800736042
 20
546.3865948731807
 30
0.0
 41
15.0
 42
15.0
 43
15.0
 50
179.9999999999998
  0
ENDBLK
  5
25D
330
25B
100
AcDbEntity
  8
0
100
AcDbBlockEnd
  0
BLOCK
  5
26A
330
269
100
AcDbEntity
  8
0
100
AcDbBlockBegin
  2
*G31
 70
     1
 10
0.0
 20
0.0
 30
0.0
  3
*G31
  1

  0
LINE
  5
26C
330
269
100
AcDbEntity
  8
2
  6
Continuous
 62
     4
370
    30
100
AcDbLine
 10
1751.943800736038
 20
3341.492822763077
 30
0.0
 11
1739.943800736041
 21
3334.564619532795
 31
0.0
  0
LINE
  5
26D
330
269
100
AcDbEntity
  8
2
  6
Continuous
 62
     4
370
    30
100
AcDbLine
 10
1739.943800736041
 20
3334.564619532795
 30
0.0
 11
1739.943800736048
 21
3320.708213072243
 31
0.0
  0
LINE
  5
26E
330
269
100
AcDbEntity
  8
2
  6
Continuous
 62
     4
370
    30
100
AcDbLine
 10
1739.943800736048
 20
3320.708213072243
 30
0.0
 11
1751.943800736051
 21
3313.780009841974
 31
0.0
  0
LINE
  5
26F
330
269
100
AcDbEntity
  8
2
  6
Continuous
 62
     4
370
    30
100
AcDbLine
 10
1751.943800736051
 20
3313.780009841974
 30
0.0
 11
1763.943800736048
 21
3320.708213072256
 31
0.0
  0
LINE
  5
270
330
269
100
AcDbEntity
  8
2
  6
Continuous
 62
     4
370
    30
100
AcDbLine
 10
1763.943800736048
 20
3320.708213072256
 30
0.0
 11
1763.943800736041
 21
3334.564619532807
 31
0.0
  0
LINE
  5
271
330
269
100
AcDbEntity
  8
2
  6
Continuous
 62
     4
370
    30
100
AcDbLine
 10
1763.943800736041
 20
3334.564619532807
 30
0.0
 11
1751.943800736038
 21
3341.492822763077
 31
0.0
  0
ENDBLK
  5
26B
330
269
100
AcDbEntity
  8
0
100
AcDbBlockEnd
  0
BLOCK
  5
277
330
276
100
AcDbEntity
  8
0
100
AcDbBlockBegin
  2
*G32
 70
     1
 10
0.0
 20
0.0
 30
0.0
  3
*G32
  1

  0
LINE
  5
279
330
276
100
AcDbEntity
  8
2
  6
Continuous
 62
     4
370
    30
100
AcDbLine
 10
1751.943800736038
 20
3812.892822763076
 30
0.0
 11
1739.943800736041
 21
3805.964619532795
 31
0.0
  0
LINE
  5
27A
330
276
100
AcDbEntity
  8
2
  6
Continuous
 62
     4
370
    30
100
AcDbLine
 10
1739.943800736041
 20
3805.964619532795
 30
0.0
 11
1739.943800736048
 21
3792.108213072244
 31
0.0
  0
LINE
  5
27B
330
276
100
AcDbEntity
  8
2
  6
Continuous
 62
     4
370
    30
100
AcDbLine
 10
1739.943800736048
 20
3792.108213072244
 30
0.0
 11
1751.943800736051
 21
3785.180009841974
 31
0.0
  0
LINE
  5
27C
330
276
100
AcDbEntity
  8
2
  6
Continuous
 62
     4
370
    30
100
AcDbLine
 10
1751.943800736051
 20
3785.180009841974
 30
0.0
 11
1763.943800736048
 21
3792.108213072256
 31
0.0
  0
LINE
  5
27D
330
276
100
AcDbEntity
  8
2
  6
Continuous
 62
     4
370
    30
100
AcDbLine
 10
1763.943800736048
 20
3792.108213072256
 30
0.0
 11
1763.943800736041
 21
3805.964619532807
 31
0.0
  0
LINE
  5
27E
330
276
100
AcDbEntity
  8
2
  6
Continuous
 62
     4
370
    30
100
AcDbLine
 10
1763.943800736041
 20
3805.964619532807
 30
0.0
 11
1751.943800736038
 21
3812.892822763076
 31
0.0
  0
ENDBLK
  5
278
330
276
100
AcDbEntity
  8
0
100
AcDbBlockEnd
  0
BLOCK
  5
29A
330
299
100
AcDbEntity
  8
0
100
AcDbBlockBegin
  2
Dim14
 70
     0
 10
0.0
 20
0.0
 30
0.0
  3
Dim14
  1

  0
LINE
  5
29C
330
299
100
AcDbEntity
  8
2
  6
Continuous
 62
     4
370
    30
100
AcDbLine
 10
1667.643800736045
 20
2437.383174866428
 30
0.0
 11
1667.643800736045
 21
2599.08206812358
 31
0.0
  0
LINE
  5
29D
330
299
100
AcDbEntity
  8
2
  6
Continuous
 62
     4
370
    30
100
AcDbLine
 10
2707.643800736045
 20
2437.383174866428
 30
0.0
 11
2707.643800736045
 21
2599.08206812358
 31
0.0
  0
LINE
  5
29E
330
299
100
AcDbEntity
  8
2
  6
Continuous
 62
     4
370
    30
100
AcDbLine
 10
1667.643800736045
 20
2589.08206812358
 30
0.0
 11
2707.643800736045
 21
2589.08206812358
 31
0.0
  0
MTEXT
  5
29F
330
299
100
AcDbEntity
  8
2
  6
Continuous
 62
     4
370
     9
100
AcDbMText
 10
2187.643800736045
 20
2589.08206812358
 30
0.0
 40
60.0
 41
906.0000000000001
 46
60.0
 71
     8
 72
     1
  1
1040
  7
ＭＳ ゴシック
 73
     1
 44
1.0
1001
ACAD
1000
ACAD_MTEXT_DEFINED_HEIGHT_BEGIN
1070
    46
1040
60.0
1000
ACAD_MTEXT_DEFINED_HEIGHT_END
  0
INSERT
  5
2A0
330
299
100
AcDbEntity
  8
2
  6
Continuous
 62
     4
370
    30
100
AcDbBlockReference
  2
_OPEN
 10
1667.643800736045
 20
2589.08206812358
 30
0.0
 41
15.0
 42
15.0
 43
15.0
 50
179.9999999999998
  0
INSERT
  5
2A1
330
299
100
AcDbEntity
  8
2
  6
Continuous
 62
     4
370
    30
100
AcDbBlockReference
  2
_OPEN
 10
2707.643800736045
 20
2589.08206812358
 30
0.0
 41
15.0
 42
15.0
 43
15.0
 50
359.9999999999997
  0
ENDBLK
  5
29B
330
299
100
AcDbEntity
  8
0
100
AcDbBlockEnd
  0
BLOCK
  5
2A4
330
2A3
100
AcDbEntity
  8
0
100
AcDbBlockBegin
  2
Dim15
 70
     0
 10
0.0
 20
0.0
 30
0.0
  3
Dim15
  1

  0
LINE
  5
2A6
330
2A3
100
AcDbEntity
  8
2
  6
Continuous
 62
     4
370
    30
100
AcDbLine
 10
2702.643800736045
 20
807.3831748664277
 30
0.0
 11
2702.643800736042
 21
430.3772408092516
 31
0.0
  0
LINE
  5
2A7
330
2A3
100
AcDbEntity
  8
2
  6
Continuous
 62
     4
370
    30
100
AcDbLine
 10
1672.643800736045
 20
807.3831748664277
 30
0.0
 11
1672.643800736042
 21
430.3772408092516
 31
0.0
  0
LINE
  5
2A8
330
2A3
100
AcDbEntity
  8
2
  6
Continuous
 62
     4
370
    30
100
AcDbLine
 10
2702.643800736042
 20
440.3772408092516
 30
0.0
 11
1672.643800736042
 21
440.3772408092516
 31
0.0
  0
MTEXT
  5
2A9
330
2A3
100
AcDbEntity
  8
2
  6
Continuous
 62
     4
370
     9
100
AcDbMText
 10
2187.643800736042
 20
440.3772408092516
 30
0.0
 40
60.0
 41
906.0000000000001
 46
60.0
 71
     8
 72
     1
  1
1030
  7
ＭＳ ゴシック
 73
     1
 44
1.0
1001
ACAD
1000
ACAD_MTEXT_DEFINED_HEIGHT_BEGIN
1070
    46
1040
60.0
1000
ACAD_MTEXT_DEFINED_HEIGHT_END
  0
INSERT
  5
2AA
330
2A3
100
AcDbEntity
  8
2
  6
Continuous
 62
     4
370
    30
100
AcDbBlockReference
  2
_OPEN
 10
2702.643800736042
 20
440.3772408092516
 30
0.0
 41
15.0
 42
15.0
 43
15.0
 50
359.9999999999997
  0
INSERT
  5
2AB
330
2A3
100
AcDbEntity
  8
2
  6
Continuous
 62
     4
370
    30
100
AcDbBlockReference
  2
_OPEN
 10
1672.643800736042
 20
440.3772408092516
 30
0.0
 41
15.0
 42
15.0
 43
15.0
 50
179.9999999999998
  0
ENDBLK
  5
2A5
330
2A3
100
AcDbEntity
  8
0
100
AcDbBlockEnd
  0
BLOCK
  5
2B0
330
2AF
100
AcDbEntity
  8
0
100
AcDbBlockBegin
  2
Dim16
 70
     0
 10
0.0
 20
0.0
 30
0.0
  3
Dim16
  1

  0
LINE
  5
2B2
330
2AF
100
AcDbEntity
  8
2
  6
Continuous
 62
     4
370
    30
100
AcDbLine
 10
2607.643800736045
 20
788.8320517751251
 30
0.0
 11
2607.643800736043
 21
536.3865948731807
 31
0.0
  0
LINE
  5
2B3
330
2AF
100
AcDbEntity
  8
2
  6
Continuous
 62
     4
370
    30
100
AcDbLine
 10
1767.643800736045
 20
791.1062410193551
 30
0.0
 11
1767.643800736042
 21
536.3865948731807
 31
0.0
  0
LINE
  5
2B4
330
2AF
100
AcDbEntity
  8
2
  6
Continuous
 62
     4
370
    30
100
AcDbLine
 10
2607.643800736043
 20
546.3865948731807
 30
0.0
 11
1767.643800736042
 21
546.3865948731807
 31
0.0
  0
MTEXT
  5
2B5
330
2AF
100
AcDbEntity
  8
2
  6
Continuous
 62
     4
370
     9
100
AcDbMText
 10
2187.643800736042
 20
546.3865948731807
 30
0.0
 40
60.0
 41
756.5999999999999
 46
60.0
 71
     8
 72
     1
  1
840
  7
ＭＳ ゴシック
 73
     1
 44
1.0
1001
ACAD
1000
ACAD_MTEXT_DEFINED_HEIGHT_BEGIN
1070
    46
1040
60.0
1000
ACAD_MTEXT_DEFINED_HEIGHT_END
  0
INSERT
  5
2B6
330
2AF
100
AcDbEntity
  8
2
  6
Continuous
 62
     4
370
    30
100
AcDbBlockReference
  2
_OPEN
 10
2607.643800736043
 20
546.3865948731807
 30
0.0
 41
15.0
 42
15.0
 43
15.0
 50
359.9999999999997
  0
INSERT
  5
2B7
330
2AF
100
AcDbEntity
  8
2
  6
Continuous
 62
     4
370
    30
100
AcDbBlockReference
  2
_OPEN
 10
1767.643800736042
 20
546.3865948731807
 30
0.0
 41
15.0
 42
15.0
 43
15.0
 50
179.9999999999998
  0
ENDBLK
  5
2B1
330
2AF
100
AcDbEntity
  8
0
100
AcDbBlockEnd
  0
BLOCK
  5
2E7
330
2E6
100
AcDbEntity
  8
0
100
AcDbBlockBegin
  2
Dim17
 70
     0
 10
0.0
 20
0.0
 30
0.0
  3
Dim17
  1

  0
LINE
  5
2E9
330
2E6
100
AcDbEntity
  8
2
  6
Continuous
 62
     4
370
    20
100
AcDbLine
 10
4383.163293725783
 20
827.3831748664277
 30
0.0
 11
4282.740350623426
 21
827.3831748664279
 31
0.0
  0
LINE
  5
2EA
330
2E6
100
AcDbEntity
  8
2
  6
Continuous
 62
     4
370
    20
100
AcDbLine
 10
4474.627049042037
 20
2517.383174866427
 30
0.0
 11
4282.740350623426
 21
2517.383174866428
 31
0.0
  0
LINE
  5
2EB
330
2E6
100
AcDbEntity
  8
2
  6
Continuous
 62
     4
370
    20
100
AcDbLine
 10
4292.740350623426
 20
827.3831748664279
 30
0.0
 11
4292.740350623426
 21
2517.383174866428
 31
0.0
  0
MTEXT
  5
2EC
330
2E6
100
AcDbEntity
  8
2
  6
Continuous
 62
     4
370
     9
100
AcDbMText
 10
4292.740350623426
 20
1672.383174866428
 30
0.0
 40
60.0
 41
955.8
 46
60.0
 71
     8
 72
     1
  1
1690
  7
ＭＳ ゴシック
 11
1.615544574432587E-15
 21
1.0
 31
0.0
 73
     1
 44
1.0
1001
ACAD
1000
ACAD_MTEXT_DEFINED_HEIGHT_BEGIN
1070
    46
1040
60.0
1000
ACAD_MTEXT_DEFINED_HEIGHT_END
  0
INSERT
  5
2ED
330
2E6
100
AcDbEntity
  8
2
  6
Continuous
 62
     4
370
    20
100
AcDbBlockReference
  2
_OPEN
 10
4292.740350623426
 20
827.3831748664279
 30
0.0
 41
15.0
 42
15.0
 43
15.0
 50
269.9999999999998
  0
INSERT
  5
2EE
330
2E6
100
AcDbEntity
  8
2
  6
Continuous
 62
     4
370
    20
100
AcDbBlockReference
  2
_OPEN
 10
4292.740350623426
 20
2517.383174866428
 30
0.0
 41
15.0
 42
15.0
 43
15.0
 50
89.99999999999991
  0
ENDBLK
  5
2E8
330
2E6
100
AcDbEntity
  8
0
100
AcDbBlockEnd
  0
BLOCK
  5
2F1
330
2F0
100
AcDbEntity
  8
0
100
AcDbBlockBegin
  2
Dim18
 70
     0
 10
0.0
 20
0.0
 30
0.0
  3
Dim18
  1

  0
LINE
  5
2F3
330
2F0
100
AcDbEntity
  8
2
  6
Continuous
 62
     4
370
    30
100
AcDbLine
 10
3927.031846357643
 20
827.3831748664275
 30
0.0
 11
4105.343090349455
 21
827.3831748664259
 31
0.0
  0
LINE
  5
2F4
330
2F0
100
AcDbEntity
  8
2
  6
Continuous
 62
     4
370
    30
100
AcDbLine
 10
3932.031846357643
 20
2407.383174866428
 30
0.0
 11
4105.343090349455
 21
2407.383174866427
 31
0.0
  0
LINE
  5
2F5
330
2F0
100
AcDbEntity
  8
2
  6
Continuous
 62
     4
370
    30
100
AcDbLine
 10
4095.343090349455
 20
827.383174866426
 30
0.0
 11
4095.343090349455
 21
2407.383174866427
 31
0.0
  0
MTEXT
  5
2F6
330
2F0
100
AcDbEntity
  8
2
  6
Continuous
 62
     4
370
     9
100
AcDbMText
 10
4095.343090349455
 20
1617.383174866426
 30
0.0
 40
60.0
 41
955.8
 46
60.0
 71
     8
 72
     1
  1
1580
  7
ＭＳ ゴシック
 11
1.615544574432587E-15
 21
1.0
 31
0.0
 73
     1
 44
1.0
1001
ACAD
1000
ACAD_MTEXT_DEFINED_HEIGHT_BEGIN
1070
    46
1040
60.0
1000
ACAD_MTEXT_DEFINED_HEIGHT_END
  0
INSERT
  5
2F7
330
2F0
100
AcDbEntity
  8
2
  6
Continuous
 62
     4
370
    30
100
AcDbBlockReference
  2
_OPEN
 10
4095.343090349455
 20
827.383174866426
 30
0.0
 41
15.0
 42
15.0
 43
15.0
 50
269.9999999999998
  0
INSERT
  5
2F8
330
2F0
100
AcDbEntity
  8
2
  6
Continuous
 62
     4
370
    30
100
AcDbBlockReference
  2
_OPEN
 10
4095.343090349455
 20
2407.383174866427
 30
0.0
 41
15.0
 42
15.0
 43
15.0
 50
89.99999999999991
  0
ENDBLK
  5
2F2
330
2F0
100
AcDbEntity
  8
0
100
AcDbBlockEnd
  0
BLOCK
  5
2FB
330
2FA
100
AcDbEntity
  8
0
100
AcDbBlockBegin
  2
Dim19
 70
     0
 10
0.0
 20
0.0
 30
0.0
  3
Dim19
  1

  0
LINE
  5
2FD
330
2FA
100
AcDbEntity
  8
2
  6
Continuous
 62
     4
370
    30
100
AcDbLine
 10
3932.031846357643
 20
2407.383174866428
 30
0.0
 11
4038.037154276395
 21
2407.383174866427
 31
0.0
  0
LINE
  5
2FE
330
2FA
100
AcDbEntity
  8
2
  6
Continuous
 62
     4
370
    30
100
AcDbLine
 10
3932.031846357643
 20
2342.383174866428
 30
0.0
 11
4038.037154276395
 21
2342.383174866427
 31
0.0
  0
LINE
  5
2FF
330
2FA
100
AcDbEntity
  8
2
  6
Continuous
 62
     4
370
    30
100
AcDbLine
 10
4028.037154276395
 20
2486.96503067248
 30
0.0
 11
4028.037154276395
 21
2322.383174866427
 31
0.0
  0
MTEXT
  5
300
330
2FA
100
AcDbEntity
  8
2
  6
Continuous
 62
     4
370
     9
100
AcDbMText
 10
4028.037154276395
 20
2436.965030672479
 30
0.0
 40
60.0
 41
506.4
 46
60.0
 71
     7
 72
     1
  1
65
  7
ＭＳ ゴシック
 11
1.615544574432587E-15
 21
1.0
 31
0.0
 73
     1
 44
1.0
1001
ACAD
1000
ACAD_MTEXT_DEFINED_HEIGHT_BEGIN
1070
    46
1040
60.0
1000
ACAD_MTEXT_DEFINED_HEIGHT_END
  0
INSERT
  5
301
330
2FA
100
AcDbEntity
  8
2
  6
Continuous
 62
     4
370
    30
100
AcDbBlockReference
  2
_OPEN
 10
4028.037154276395
 20
2407.383174866427
 30
0.0
 41
15.0
 42
15.0
 43
15.0
 50
269.9999999999998
  0
INSERT
  5
302
330
2FA
100
AcDbEntity
  8
2
  6
Continuous
 62
     4
370
    30
100
AcDbBlockReference
  2
_OPEN
 10
4028.037154276395
 20
2342.383174866427
 30
0.0
 41
15.0
 42
15.0
 43
15.0
 50
89.99999999999959
  0
ENDBLK
  5
2FC
330
2FA
100
AcDbEntity
  8
0
100
AcDbBlockEnd
  0
BLOCK
  5
308
330
307
100
AcDbEntity
  8
0
100
AcDbBlockBegin
  2
Dim20
 70
     0
 10
0.0
 20
0.0
 30
0.0
  3
Dim20
  1

  0
LINE
  5
30A
330
307
100
AcDbEntity
  8
2
  6
Continuous
 62
     4
370
    30
100
AcDbLine
 10
2352.643800736045
 20
3223.336416302525
 30
0.0
 11
2352.643800736042
 21
2879.446750162647
 31
0.0
  0
LINE
  5
30B
330
307
100
AcDbEntity
  8
2
  6
Continuous
 62
     4
370
    30
100
AcDbLine
 10
1667.643800736045
 20
3223.336416302526
 30
0.0
 11
1667.643800736042
 21
2879.446750162647
 31
0.0
  0
LINE
  5
30C
330
307
100
AcDbEntity
  8
2
  6
Continuous
 62
     4
370
    30
100
AcDbLine
 10
2352.643800736042
 20
2889.446750162647
 30
0.0
 11
1667.643800736042
 21
2889.446750162647
 31
0.0
  0
MTEXT
  5
30D
330
307
100
AcDbEntity
  8
2
  6
Continuous
 62
     4
370
     9
100
AcDbMText
 10
2010.143800736041
 20
2889.446750162647
 30
0.0
 40
60.0
 41
806.3999999999999
 46
60.0
 71
     8
 72
     1
  1
685
  7
ＭＳ ゴシック
 73
     1
 44
1.0
1001
ACAD
1000
ACAD_MTEXT_DEFINED_HEIGHT_BEGIN
1070
    46
1040
60.0
1000
ACAD_MTEXT_DEFINED_HEIGHT_END
  0
INSERT
  5
30E
330
307
100
AcDbEntity
  8
2
  6
Continuous
 62
     4
370
    30
100
AcDbBlockReference
  2
_OPEN
 10
2352.643800736042
 20
2889.446750162647
 30
0.0
 41
15.0
 42
15.0
 43
15.0
 50
359.9999999999997
  0
INSERT
  5
30F
330
307
100
AcDbEntity
  8
2
  6
Continuous
 62
     4
370
    30
100
AcDbBlockReference
  2
_OPEN
 10
1667.643800736042
 20
2889.446750162647
 30
0.0
 41
15.0
 42
15.0
 43
15.0
 50
179.9999999999998
  0
ENDBLK
  5
309
330
307
100
AcDbEntity
  8
0
100
AcDbBlockEnd
  0
BLOCK
  5
314
330
313
100
AcDbEntity
  8
0
100
AcDbBlockBegin
  2
Dim21
 70
     0
 10
0.0
 20
0.0
 30
0.0
  3
Dim21
  1

  0
LINE
  5
316
330
313
100
AcDbEntity
  8
2
  6
Continuous
 62
     4
370
    20
100
AcDbLine
 10
2358.643800736045
 20
2948.268819539052
 30
0.0
 11
2358.643800736045
 21
2943.38635716798
 31
0.0
  0
LINE
  5
317
330
313
100
AcDbEntity
  8
2
  6
Continuous
 62
     4
370
    20
100
AcDbLine
 10
2352.643800736045
 20
2946.504972146925
 30
0.0
 11
2352.643800736045
 21
2943.38635716798
 31
0.0
  0
LINE
  5
318
330
313
100
AcDbEntity
  8
2
  6
Continuous
 62
     4
370
    20
100
AcDbLine
 10
2358.643800736045
 20
2953.38635716798
 30
0.0
 11
2315.862927274287
 21
2953.38635716798
 31
0.0
  0
MTEXT
  5
319
330
313
100
AcDbEntity
  8
2
  6
Continuous
 62
     4
370
     9
100
AcDbMText
 10
2335.862927274287
 20
2953.38635716798
 30
0.0
 40
40.0
 41
137.6
 46
40.0
 71
     9
 72
     1
  1
6
  7
ＭＳ ゴシック
 73
     1
 44
1.0
1001
ACAD
1000
ACAD_MTEXT_DEFINED_HEIGHT_BEGIN
1070
    46
1040
40.0
1000
ACAD_MTEXT_DEFINED_HEIGHT_END
  0
INSERT
  5
31A
330
313
100
AcDbEntity
  8
2
  6
Continuous
 62
     4
370
    20
100
AcDbBlockReference
  2
_OPEN
 10
2358.643800736045
 20
2953.38635716798
 30
0.0
 41
15.0
 42
15.0
 43
15.0
 50
359.9999999999997
  0
INSERT
  5
31B
330
313
100
AcDbEntity
  8
2
  6
Continuous
 62
     4
370
    20
100
AcDbBlockReference
  2
_OPEN
 10
2352.643800736045
 20
2953.38635716798
 30
0.0
 41
15.0
 42
15.0
 43
15.0
 50
179.9999999999998
  0
ENDBLK
  5
315
330
313
100
AcDbEntity
  8
0
100
AcDbBlockEnd
  0
BLOCK
  5
322
330
321
100
AcDbEntity
  8
0
100
AcDbBlockBegin
  2
Dim22
 70
     0
 10
0.0
 20
0.0
 30
0.0
  3
Dim22
  1

  0
LINE
  5
324
330
321
100
AcDbEntity
  8
2
  6
Continuous
 62
     4
370
    30
100
AcDbLine
 10
5446.848548042769
 20
827.3831748664275
 30
0.0
 11
5587.611518346921
 21
827.3831748664262
 31
0.0
  0
LINE
  5
325
330
321
100
AcDbEntity
  8
2
  6
Continuous
 62
     4
370
    30
100
AcDbLine
 10
5391.848548042769
 20
1022.383174866427
 30
0.0
 11
5587.611518346921
 21
1022.383174866426
 31
0.0
  0
LINE
  5
326
330
321
100
AcDbEntity
  8
2
  6
Continuous
 62
     4
370
    30
100
AcDbLine
 10
5577.611518346921
 20
827.3831748664263
 30
0.0
 11
5577.611518346921
 21
1022.383174866426
 31
0.0
  0
MTEXT
  5
327
330
321
100
AcDbEntity
  8
2
  6
Continuous
 62
     4
370
     9
100
AcDbMText
 10
5577.611518346921
 20
924.8831748664263
 30
0.0
 40
60.0
 41
705.6
 46
60.0
 71
     8
 72
     1
  1
195
  7
ＭＳ ゴシック
 11
1.615544574432587E-15
 21
1.0
 31
0.0
 73
     1
 44
1.0
1001
ACAD
1000
ACAD_MTEXT_DEFINED_HEIGHT_BEGIN
1070
    46
1040
60.0
1000
ACAD_MTEXT_DEFINED_HEIGHT_END
  0
INSERT
  5
328
330
321
100
AcDbEntity
  8
2
  6
Continuous
 62
     4
370
    30
100
AcDbBlockReference
  2
_OPEN
 10
5577.611518346921
 20
827.3831748664263
 30
0.0
 41
15.0
 42
15.0
 43
15.0
 50
269.9999999999998
  0
INSERT
  5
329
330
321
100
AcDbEntity
  8
2
  6
Continuous
 62
     4
370
    30
100
AcDbBlockReference
  2
_OPEN
 10
5577.611518346921
 20
1022.383174866426
 30
0.0
 41
15.0
 42
15.0
 43
15.0
 50
89.99999999999991
  0
ENDBLK
  5
323
330
321
100
AcDbEntity
  8
0
100
AcDbBlockEnd
  0
BLOCK
  5
32C
330
32B
100
AcDbEntity
  8
0
100
AcDbBlockBegin
  2
Dim23
 70
     0
 10
0.0
 20
0.0
 30
0.0
  3
Dim23
  1

  0
LINE
  5
32E
330
32B
100
AcDbEntity
  8
2
  6
Continuous
 62
     4
370
    30
100
AcDbLine
 10
5431.848548042769
 20
1490.995580387091
 30
0.0
 11
5431.848548042769
 21
1620.264952147913
 31
0.0
  0
LINE
  5
32F
330
32B
100
AcDbEntity
  8
2
  6
Continuous
 62
     4
370
    30
100
AcDbLine
 10
5371.848548042769
 20
1442.383174866428
 30
0.0
 11
5371.848548042769
 21
1620.264952147913
 31
0.0
  0
LINE
  5
330
330
32B
100
AcDbEntity
  8
2
  6
Continuous
 62
     4
370
    30
100
AcDbLine
 10
5532.044164872865
 20
1610.264952147913
 30
0.0
 11
5351.848548042769
 21
1610.264952147913
 31
0.0
  0
MTEXT
  5
331
330
32B
100
AcDbEntity
  8
2
  6
Continuous
 62
     4
370
     9
100
AcDbMText
 10
5482.044164872865
 20
1610.264952147913
 30
0.0
 40
60.0
 41
456.6
 46
60.0
 71
     7
 72
     1
  1
60
  7
ＭＳ ゴシック
 73
     1
 44
1.0
1001
ACAD
1000
ACAD_MTEXT_DEFINED_HEIGHT_BEGIN
1070
    46
1040
60.0
1000
ACAD_MTEXT_DEFINED_HEIGHT_END
  0
INSERT
  5
332
330
32B
100
AcDbEntity
  8
2
  6
Continuous
 62
     4
370
    30
100
AcDbBlockReference
  2
_OPEN
 10
5431.848548042769
 20
1610.264952147913
 30
0.0
 41
15.0
 42
15.0
 43
15.0
 50
179.9999999999995
  0
INSERT
  5
333
330
32B
100
AcDbEntity
  8
2
  6
Continuous
 62
     4
370
    30
100
AcDbBlockReference
  2
_OPEN
 10
5371.848548042769
 20
1610.264952147913
 30
0.0
 41
15.0
 42
15.0
 43
15.0
 50
359.9999999999997
  0
ENDBLK
  5
32D
330
32B
100
AcDbEntity
  8
0
100
AcDbBlockEnd
  0
BLOCK
  5
338
330
337
100
AcDbEntity
  8
0
100
AcDbBlockBegin
  2
Dim24
 70
     0
 10
0.0
 20
0.0
 30
0.0
  3
Dim24
  1

  0
LINE
  5
33A
330
337
100
AcDbEntity
  8
2
  6
Continuous
 62
     4
370
    30
100
AcDbLine
 10
5391.848548042769
 20
1022.383174866427
 30
0.0
 11
5583.729232670383
 21
1022.383174866426
 31
0.0
  0
LINE
  5
33B
330
337
100
AcDbEntity
  8
2
  6
Continuous
 62
     4
370
    30
100
AcDbLine
 10
5391.848548042769
 20
1422.383174866427
 30
0.0
 11
5583.729232670383
 21
1422.383174866426
 31
0.0
  0
LINE
  5
33C
330
337
100
AcDbEntity
  8
2
  6
Continuous
 62
     4
370
    30
100
AcDbLine
 10
5573.729232670383
 20
1022.383174866426
 30
0.0
 11
5573.729232670383
 21
1422.383174866426
 31
0.0
  0
MTEXT
  5
33D
330
337
100
AcDbEntity
  8
2
  6
Continuous
 62
     4
370
     9
100
AcDbMText
 10
5573.729232670383
 20
1222.383174866426
 30
0.0
 40
60.0
 41
710.3999999999999
 46
60.0
 71
     8
 72
     1
  1
400
  7
ＭＳ ゴシック
 11
1.615544574432587E-15
 21
1.0
 31
0.0
 73
     1
 44
1.0
1001
ACAD
1000
ACAD_MTEXT_DEFINED_HEIGHT_BEGIN
1070
    46
1040
60.0
1000
ACAD_MTEXT_DEFINED_HEIGHT_END
  0
INSERT
  5
33E
330
337
100
AcDbEntity
  8
2
  6
Continuous
 62
     4
370
    30
100
AcDbBlockReference
  2
_OPEN
 10
5573.729232670383
 20
1022.383174866426
 30
0.0
 41
15.0
 42
15.0
 43
15.0
 50
269.9999999999998
  0
INSERT
  5
33F
330
337
100
AcDbEntity
  8
2
  6
Continuous
 62
     4
370
    30
100
AcDbBlockReference
  2
_OPEN
 10
5573.729232670383
 20
1422.383174866426
 30
0.0
 41
15.0
 42
15.0
 43
15.0
 50
89.99999999999991
  0
ENDBLK
  5
339
330
337
100
AcDbEntity
  8
0
100
AcDbBlockEnd
  0
BLOCK
  5
348
330
347
100
AcDbEntity
  8
0
100
AcDbBlockBegin
  2
Dim25
 70
     0
 10
0.0
 20
0.0
 30
0.0
  3
Dim25
  1

  0
LINE
  5
34A
330
347
100
AcDbEntity
  8
2
  6
Continuous
 62
     4
370
    30
100
AcDbLine
 10
5371.848548042769
 20
1442.383174866428
 30
0.0
 11
5371.848548042769
 21
1620.264952147913
 31
0.0
  0
LINE
  5
34B
330
347
100
AcDbEntity
  8
2
  6
Continuous
 62
     4
370
    30
100
AcDbLine
 10
4611.848548042769
 20
1442.383174866428
 30
0.0
 11
4611.848548042769
 21
1620.264952147913
 31
0.0
  0
LINE
  5
34C
330
347
100
AcDbEntity
  8
2
  6
Continuous
 62
     4
370
    30
100
AcDbLine
 10
5371.848548042769
 20
1610.264952147913
 30
0.0
 11
4611.848548042769
 21
1610.264952147913
 31
0.0
  0
MTEXT
  5
34D
330
347
100
AcDbEntity
  8
2
  6
Continuous
 62
     4
370
     9
100
AcDbMText
 10
4991.848548042769
 20
1610.264952147913
 30
0.0
 40
60.0
 41
753.3
 46
60.0
 71
     8
 72
     1
  1
760
  7
ＭＳ ゴシック
 73
     1
 44
1.0
1001
ACAD
1000
ACAD_MTEXT_DEFINED_HEIGHT_BEGIN
1070
    46
1040
60.0
1000
ACAD_MTEXT_DEFINED_HEIGHT_END
  0
INSERT
  5
34E
330
347
100
AcDbEntity
  8
2
  6
Continuous
 62
     4
370
    30
100
AcDbBlockReference
  2
_OPEN
 10
5371.848548042769
 20
1610.264952147913
 30
0.0
 41
15.0
 42
15.0
 43
15.0
 50
359.9999999999997
  0
INSERT
  5
34F
330
347
100
AcDbEntity
  8
2
  6
Continuous
 62
     4
370
    30
100
AcDbBlockReference
  2
_OPEN
 10
4611.848548042769
 20
1610.264952147913
 30
0.0
 41
15.0
 42
15.0
 43
15.0
 50
179.9999999999998
  0
ENDBLK
  5
349
330
347
100
AcDbEntity
  8
0
100
AcDbBlockEnd
  0
BLOCK
  5
380
330
37F
100
AcDbEntity
  8
0
100
AcDbBlockBegin
  2
*G45
 70
     1
 10
0.0
 20
0.0
 30
0.0
  3
*G45
  1

  0
INSERT
  5
3D1
330
37F
100
AcDbEntity
  8
1
100
AcDbBlockReference
  2
*G46
 10
0.0
 20
0.0
 30
0.0
  0
ENDBLK
  5
381
330
37F
100
AcDbEntity
  8
0
100
AcDbBlockEnd
  0
BLOCK
  5
383
330
382
100
AcDbEntity
  8
0
100
AcDbBlockBegin
  2
*G46
 70
     1
 10
0.0
 20
0.0
 30
0.0
  3
*G46
  1

  0
LINE
  5
385
330
382
100
AcDbEntity
  8
1
  6
Continuous
 62
   254
370
    20
100
AcDbLine
 10
2247.248411973915
 20
1593.383174866428
 30
0.0
 11
2246.648411973915
 21
1593.383174866428
 31
0.0
  0
LINE
  5
386
330
382
100
AcDbEntity
  8
1
  6
Continuous
 62
   254
370
    20
100
AcDbLine
 10
2247.248411973915
 20
1595.383174866428
 30
0.0
 11
2246.748411973915
 21
1595.383174866428
 31
0.0
  0
LINE
  5
387
330
382
100
AcDbEntity
  8
1
  6
Continuous
 62
   254
370
    20
100
AcDbLine
 10
2246.748411973915
 20
1595.383174866428
 30
0.0
 11
2246.748411973915
 21
1594.083174866427
 31
0.0
  0
LINE
  5
388
330
382
100
AcDbEntity
  8
1
  6
Continuous
 62
   254
370
    20
100
AcDbLine
 10
2245.848411973914
 20
1595.383174866428
 30
0.0
 11
2246.748411973915
 21
1594.083174866427
 31
0.0
  0
LINE
  5
389
330
382
100
AcDbEntity
  8
1
  6
Continuous
 62
   254
370
    20
100
AcDbLine
 10
2245.848411973914
 20
1595.383174866428
 30
0.0
 11
2245.248411973915
 21
1595.383174866428
 31
0.0
  0
LINE
  5
38A
330
382
100
AcDbEntity
  8
1
  6
Continuous
 62
   254
370
    20
100
AcDbLine
 10
2245.248411973915
 20
1595.383174866428
 30
0.0
 11
2245.248411973915
 21
1593.383174866428
 31
0.0
  0
LINE
  5
38B
330
382
100
AcDbEntity
  8
1
  6
Continuous
 62
   254
370
    20
100
AcDbLine
 10
2245.248411973915
 20
1593.383174866428
 30
0.0
 11
2245.748411973915
 21
1593.383174866428
 31
0.0
  0
LINE
  5
38C
330
382
100
AcDbEntity
  8
1
  6
Continuous
 62
   254
370
    20
100
AcDbLine
 10
2245.748411973915
 20
1593.383174866428
 30
0.0
 11
2245.748411973915
 21
1594.683174866428
 31
0.0
  0
LINE
  5
38D
330
382
100
AcDbEntity
  8
1
  6
Continuous
 62
   254
370
    20
100
AcDbLine
 10
2245.148411973915
 20
1593.383174866428
 30
0.0
 11
2245.148411973915
 21
1593.883174866428
 31
0.0
  0
LINE
  5
38E
330
382
100
AcDbEntity
  8
1
  6
Continuous
 62
   254
370
    20
100
AcDbLine
 10
2243.348411973914
 20
1594.583174866427
 30
0.0
 11
2243.348411973914
 21
1594.783174866428
 31
0.0
  0
LINE
  5
38F
330
382
100
AcDbEntity
  8
1
  6
Continuous
 62
   254
370
    20
100
AcDbLine
 10
2242.848411973914
 20
1594.583174866427
 30
0.0
 11
2243.348411973914
 21
1594.583174866427
 31
0.0
  0
LINE
  5
390
330
382
100
AcDbEntity
  8
1
  6
Continuous
 62
   254
370
    20
100
AcDbLine
 10
2242.848411973914
 20
1594.683174866428
 30
0.0
 11
2242.848411973914
 21
1594.583174866427
 31
0.0
  0
LINE
  5
391
330
382
100
AcDbEntity
  8
1
  6
Continuous
 62
   254
370
    20
100
AcDbLine
 10
2242.048411973914
 20
1594.883174866428
 30
0.0
 11
2242.648411973915
 21
1594.883174866428
 31
0.0
  0
LINE
  5
392
330
382
100
AcDbEntity
  8
1
  6
Continuous
 62
   254
370
    20
100
AcDbLine
 10
2241.848411973914
 20
1594.083174866427
 30
0.0
 11
2241.848411973914
 21
1594.683174866428
 31
0.0
  0
LINE
  5
393
330
382
100
AcDbEntity
  8
1
  6
Continuous
 62
   254
370
    20
100
AcDbLine
 10
2242.648411973915
 20
1593.883174866428
 30
0.0
 11
2242.048411973914
 21
1593.883174866428
 31
0.0
  0
LINE
  5
394
330
382
100
AcDbEntity
  8
1
  6
Continuous
 62
   254
370
    20
100
AcDbLine
 10
2242.348411973914
 20
1594.083174866427
 30
0.0
 11
2242.848411973914
 21
1594.083174866427
 31
0.0
  0
LINE
  5
395
330
382
100
AcDbEntity
  8
1
  6
Continuous
 62
   254
370
    20
100
AcDbLine
 10
2242.348411973914
 20
1594.483174866428
 30
0.0
 11
2242.348411973914
 21
1594.083174866427
 31
0.0
  0
LINE
  5
396
330
382
100
AcDbEntity
  8
1
  6
Continuous
 62
   254
370
    20
100
AcDbLine
 10
2243.448411973914
 20
1593.383174866428
 30
0.0
 11
2245.148411973915
 21
1593.383174866428
 31
0.0
  0
ARC
  5
397
330
382
100
AcDbEntity
  8
1
  6
Continuous
 62
   254
370
    20
100
AcDbCircle
 10
2242.748411973915
 20
1593.983174866428
 30
0.0
 40
0.5999999999999943
100
AcDbArc
 50
269.9999999999998
 51
0.0
  0
ARC
  5
398
330
382
100
AcDbEntity
  8
1
  6
Continuous
 62
   254
370
    20
100
AcDbCircle
 10
2241.948411973914
 20
1593.983174866428
 30
0.0
 40
0.5999999999999943
100
AcDbArc
 50
179.9999999999998
 51
269.9999999999998
  0
ARC
  5
399
330
382
100
AcDbEntity
  8
1
  6
Continuous
 62
   254
370
    20
100
AcDbCircle
 10
2242.648411973915
 20
1594.683174866428
 30
0.0
 40
0.2000000000000028
100
AcDbArc
 50
0.0
 51
89.99999999999991
  0
ARC
  5
39A
330
382
100
AcDbEntity
  8
1
  6
Continuous
 62
   254
370
    20
100
AcDbCircle
 10
2242.748411973915
 20
1594.783174866428
 30
0.0
 40
0.5999999999999943
100
AcDbArc
 50
0.0
 51
89.99999999999991
  0
LINE
  5
39B
330
382
100
AcDbEntity
  8
1
  6
Continuous
 62
   254
370
    20
100
AcDbLine
 10
2243.448411973914
 20
1595.383174866428
 30
0.0
 11
2243.448411973914
 21
1593.383174866428
 31
0.0
  0
LINE
  5
39C
330
382
100
AcDbEntity
  8
1
  6
Continuous
 62
   254
370
    20
100
AcDbLine
 10
2245.148411973915
 20
1595.383174866428
 30
0.0
 11
2243.448411973914
 21
1595.383174866428
 31
0.0
  0
LINE
  5
39D
330
382
100
AcDbEntity
  8
1
  6
Continuous
 62
   254
370
    20
100
AcDbLine
 10
2247.248411973915
 20
1595.383174866428
 30
0.0
 11
2247.248411973915
 21
1593.383174866428
 31
0.0
  0
LINE
  5
39E
330
382
100
AcDbEntity
  8
1
  6
Continuous
 62
   254
370
    20
100
AcDbLine
 10
2239.848411973914
 20
1594.483174866428
 30
0.0
 11
2240.548411973914
 21
1595.383174866428
 31
0.0
  0
LINE
  5
39F
330
382
100
AcDbEntity
  8
1
  6
Continuous
 62
   254
370
    20
100
AcDbLine
 10
2240.748411973915
 20
1593.383174866428
 30
0.0
 11
2241.248411973915
 21
1593.383174866428
 31
0.0
  0
LINE
  5
3A0
330
382
100
AcDbEntity
  8
1
  6
Continuous
 62
   254
370
    20
100
AcDbLine
 10
2240.548411973914
 20
1595.383174866428
 30
0.0
 11
2239.948411973914
 21
1595.383174866428
 31
0.0
  0
LINE
  5
3A1
330
382
100
AcDbEntity
  8
1
  6
Continuous
 62
   254
370
    20
100
AcDbLine
 10
2239.948411973914
 20
1595.383174866428
 30
0.0
 11
2239.248411973915
 21
1594.483174866428
 31
0.0
  0
ARC
  5
3A2
330
382
100
AcDbEntity
  8
1
  6
Continuous
 62
   254
370
    20
100
AcDbCircle
 10
2242.048411973914
 20
1594.083174866427
 30
0.0
 40
0.2000000000000028
100
AcDbArc
 50
179.9999999999998
 51
269.9999999999998
  0
LINE
  5
3A3
330
382
100
AcDbEntity
  8
1
  6
Continuous
 62
   254
370
    20
100
AcDbLine
 10
2241.248411973915
 20
1595.383174866428
 30
0.0
 11
2240.748411973915
 21
1595.383174866428
 31
0.0
  0
LINE
  5
3A4
330
382
100
AcDbEntity
  8
1
  6
Continuous
 62
   254
370
    20
100
AcDbLine
 10
2240.048411973914
 20
1593.383174866428
 30
0.0
 11
2240.648411973915
 21
1593.383174866428
 31
0.0
  0
ARC
  5
3A5
330
382
100
AcDbEntity
  8
1
  6
Continuous
 62
   254
370
    20
100
AcDbCircle
 10
2241.948411973914
 20
1594.783174866428
 30
0.0
 40
0.5999999999999943
100
AcDbArc
 50
89.99999999999991
 51
179.9999999999998
  0
LINE
  5
3A6
330
382
100
AcDbEntity
  8
1
  6
Continuous
 62
   254
370
    20
100
AcDbLine
 10
2240.648411973915
 20
1593.383174866428
 30
0.0
 11
2239.848411973914
 21
1594.483174866428
 31
0.0
  0
LINE
  5
3A7
330
382
100
AcDbEntity
  8
1
  6
Continuous
 62
   254
370
    20
100
AcDbLine
 10
2241.248411973915
 20
1593.383174866428
 30
0.0
 11
2241.248411973915
 21
1595.383174866428
 31
0.0
  0
LINE
  5
3A8
330
382
100
AcDbEntity
  8
1
  6
Continuous
 62
   254
370
    20
100
AcDbLine
 10
2239.248411973915
 20
1595.383174866428
 30
0.0
 11
2238.748411973915
 21
1595.383174866428
 31
0.0
  0
LINE
  5
3A9
330
382
100
AcDbEntity
  8
1
  6
Continuous
 62
   254
370
    20
100
AcDbLine
 10
2239.248411973915
 20
1594.483174866428
 30
0.0
 11
2240.048411973914
 21
1593.383174866428
 31
0.0
  0
LINE
  5
3AA
330
382
100
AcDbEntity
  8
1
  6
Continuous
 62
   254
370
    20
100
AcDbLine
 10
2238.060411973915
 20
1593.683174866428
 30
0.0
 11
2238.168411973915
 21
1593.383174866428
 31
0.0
  0
LINE
  5
3AB
330
382
100
AcDbEntity
  8
1
  6
Continuous
 62
   254
370
    20
100
AcDbLine
 10
2243.948411973914
 20
1593.883174866428
 30
0.0
 11
2243.948411973914
 21
1594.183174866428
 31
0.0
  0
LINE
  5
3AC
330
382
100
AcDbEntity
  8
1
  6
Continuous
 62
   254
370
    20
100
AcDbLine
 10
2245.148411973915
 20
1593.883174866428
 30
0.0
 11
2243.948411973914
 21
1593.883174866428
 31
0.0
  0
LINE
  5
3AD
330
382
100
AcDbEntity
  8
1
  6
Continuous
 62
   254
370
    20
100
AcDbLine
 10
2237.648411973915
 20
1594.827619866428
 30
0.0
 11
2237.887611973915
 21
1594.163174866428
 31
0.0
  0
LINE
  5
3AE
330
382
100
AcDbEntity
  8
1
  6
Continuous
 62
   254
370
    20
100
AcDbLine
 10
2238.668411973915
 20
1593.383174866428
 30
0.0
 11
2238.168411973915
 21
1593.383174866428
 31
0.0
  0
LINE
  5
3AF
330
382
100
AcDbEntity
  8
1
  6
Continuous
 62
   254
370
    20
100
AcDbLine
 10
2237.648411973915
 20
1594.827619866428
 30
0.0
 11
2237.409211973915
 21
1594.163174866428
 31
0.0
  0
ARC
  5
3B0
330
382
100
AcDbEntity
  8
1
  6
Continuous
 62
   254
370
    20
100
AcDbCircle
 10
2242.648411973915
 20
1594.083174866427
 30
0.0
 40
0.2000000000000028
100
AcDbArc
 50
269.9999999999998
 51
0.0
  0
LINE
  5
3B1
330
382
100
AcDbEntity
  8
1
  6
Continuous
 62
   254
370
    20
100
AcDbLine
 10
2239.248411973915
 20
1593.383174866428
 30
0.0
 11
2239.248411973915
 21
1595.383174866428
 31
0.0
  0
LINE
  5
3B2
330
382
100
AcDbEntity
  8
1
  6
Continuous
 62
   254
370
    20
100
AcDbLine
 10
2236.628411973914
 20
1593.383174866428
 30
0.0
 11
2237.128411973914
 21
1593.383174866428
 31
0.0
  0
LINE
  5
3B3
330
382
100
AcDbEntity
  8
1
  6
Continuous
 62
   254
370
    20
100
AcDbLine
 10
2237.348411973914
 20
1595.383174866428
 30
0.0
 11
2237.948411973914
 21
1595.383174866428
 31
0.0
  0
LINE
  5
3B4
330
382
100
AcDbEntity
  8
1
  6
Continuous
 62
   254
370
    20
100
AcDbLine
 10
2237.948411973914
 20
1595.383174866428
 30
0.0
 11
2238.668411973915
 21
1593.383174866428
 31
0.0
  0
LINE
  5
3B5
330
382
100
AcDbEntity
  8
1
  6
Continuous
 62
   254
370
    20
100
AcDbLine
 10
2237.348411973914
 20
1595.383174866428
 30
0.0
 11
2236.628411973914
 21
1593.383174866428
 31
0.0
  0
LINE
  5
3B6
330
382
100
AcDbEntity
  8
1
  6
Continuous
 62
   254
370
    20
100
AcDbLine
 10
2240.748411973915
 20
1595.383174866428
 30
0.0
 11
2240.748411973915
 21
1593.383174866428
 31
0.0
  0
LINE
  5
3B7
330
382
100
AcDbEntity
  8
1
  6
Continuous
 62
   254
370
    20
100
AcDbLine
 10
2245.748411973915
 20
1594.683174866428
 30
0.0
 11
2246.648411973915
 21
1593.383174866428
 31
0.0
  0
LINE
  5
3B8
330
382
100
AcDbEntity
  8
1
  6
Continuous
 62
   254
370
    20
100
AcDbLine
 10
2237.409211973915
 20
1594.163174866428
 30
0.0
 11
2237.887611973915
 21
1594.163174866428
 31
0.0
  0
LINE
  5
3B9
330
382
100
AcDbEntity
  8
1
  6
Continuous
 62
   254
370
    20
100
AcDbLine
 10
2237.236411973915
 20
1593.683174866428
 30
0.0
 11
2237.128411973914
 21
1593.383174866428
 31
0.0
  0
LINE
  5
3BA
330
382
100
AcDbEntity
  8
1
  6
Continuous
 62
   254
370
    20
100
AcDbLine
 10
2238.060411973915
 20
1593.683174866428
 30
0.0
 11
2237.236411973915
 21
1593.683174866428
 31
0.0
  0
LINE
  5
3BB
330
382
100
AcDbEntity
  8
1
  6
Continuous
 62
   254
370
    20
100
AcDbLine
 10
2242.748411973915
 20
1595.383174866428
 30
0.0
 11
2241.948411973914
 21
1595.383174866428
 31
0.0
  0
LINE
  5
3BC
330
382
100
AcDbEntity
  8
1
  6
Continuous
 62
   254
370
    20
100
AcDbLine
 10
2237.148411973915
 20
1594.943174866428
 30
0.0
 11
2237.148411973915
 21
1595.383174866428
 31
0.0
  0
LINE
  5
3BD
330
382
100
AcDbEntity
  8
1
  6
Continuous
 62
   254
370
    20
100
AcDbLine
 10
2236.448411973914
 20
1594.943174866428
 30
0.0
 11
2237.148411973915
 21
1594.943174866428
 31
0.0
  0
LINE
  5
3BE
330
382
100
AcDbEntity
  8
1
  6
Continuous
 62
   254
370
    20
100
AcDbLine
 10
2236.448411973914
 20
1593.383174866428
 30
0.0
 11
2236.448411973914
 21
1594.943174866428
 31
0.0
  0
LINE
  5
3BF
330
382
100
AcDbEntity
  8
1
  6
Continuous
 62
   254
370
    20
100
AcDbLine
 10
2235.948411973914
 20
1593.383174866428
 30
0.0
 11
2236.448411973914
 21
1593.383174866428
 31
0.0
  0
LINE
  5
3C0
330
382
100
AcDbEntity
  8
1
  6
Continuous
 62
   254
370
    20
100
AcDbLine
 10
2235.948411973914
 20
1594.943174866428
 30
0.0
 11
2235.948411973914
 21
1593.383174866428
 31
0.0
  0
LINE
  5
3C1
330
382
100
AcDbEntity
  8
1
  6
Continuous
 62
   254
370
    20
100
AcDbLine
 10
2235.248411973915
 20
1594.943174866428
 30
0.0
 11
2235.948411973914
 21
1594.943174866428
 31
0.0
  0
LINE
  5
3C2
330
382
100
AcDbEntity
  8
1
  6
Continuous
 62
   254
370
    20
100
AcDbLine
 10
2235.248411973915
 20
1595.383174866428
 30
0.0
 11
2235.248411973915
 21
1594.943174866428
 31
0.0
  0
LINE
  5
3C3
330
382
100
AcDbEntity
  8
1
  6
Continuous
 62
   254
370
    20
100
AcDbLine
 10
2237.148411973915
 20
1595.383174866428
 30
0.0
 11
2235.248411973915
 21
1595.383174866428
 31
0.0
  0
LINE
  5
3C4
330
382
100
AcDbEntity
  8
1
  6
Continuous
 62
   254
370
    20
100
AcDbLine
 10
2238.748411973915
 20
1593.383174866428
 30
0.0
 11
2239.248411973915
 21
1593.383174866428
 31
0.0
  0
LINE
  5
3C5
330
382
100
AcDbEntity
  8
1
  6
Continuous
 62
   254
370
    20
100
AcDbLine
 10
2238.748411973915
 20
1595.383174866428
 30
0.0
 11
2238.748411973915
 21
1593.383174866428
 31
0.0
  0
LINE
  5
3C6
330
382
100
AcDbEntity
  8
1
  6
Continuous
 62
   254
370
    20
100
AcDbLine
 10
2241.348411973914
 20
1594.783174866428
 30
0.0
 11
2241.348411973914
 21
1593.983174866428
 31
0.0
  0
ARC
  5
3C7
330
382
100
AcDbEntity
  8
1
  6
Continuous
 62
   254
370
    20
100
AcDbCircle
 10
2242.048411973914
 20
1594.683174866428
 30
0.0
 40
0.2000000000000028
100
AcDbArc
 50
89.99999999999991
 51
179.9999999999998
  0
LINE
  5
3C8
330
382
100
AcDbEntity
  8
1
  6
Continuous
 62
   254
370
    20
100
AcDbLine
 10
2241.948411973914
 20
1593.383174866428
 30
0.0
 11
2242.748411973915
 21
1593.383174866428
 31
0.0
  0
LINE
  5
3C9
330
382
100
AcDbEntity
  8
1
  6
Continuous
 62
   254
370
    20
100
AcDbLine
 10
2243.948411973914
 20
1594.183174866428
 30
0.0
 11
2245.048411973914
 21
1594.183174866428
 31
0.0
  0
LINE
  5
3CA
330
382
100
AcDbEntity
  8
1
  6
Continuous
 62
   254
370
    20
100
AcDbLine
 10
2245.048411973914
 20
1594.183174866428
 30
0.0
 11
2245.048411973914
 21
1594.633174866428
 31
0.0
  0
LINE
  5
3CB
330
382
100
AcDbEntity
  8
1
  6
Continuous
 62
   254
370
    20
100
AcDbLine
 10
2245.048411973914
 20
1594.633174866428
 30
0.0
 11
2243.948411973914
 21
1594.633174866428
 31
0.0
  0
LINE
  5
3CC
330
382
100
AcDbEntity
  8
1
  6
Continuous
 62
   254
370
    20
100
AcDbLine
 10
2243.948411973914
 20
1594.633174866428
 30
0.0
 11
2243.948411973914
 21
1594.943174866428
 31
0.0
  0
LINE
  5
3CD
330
382
100
AcDbEntity
  8
1
  6
Continuous
 62
   254
370
    20
100
AcDbLine
 10
2243.948411973914
 20
1594.943174866428
 30
0.0
 11
2245.148411973915
 21
1594.943174866428
 31
0.0
  0
LINE
  5
3CE
330
382
100
AcDbEntity
  8
1
  6
Continuous
 62
   254
370
    20
100
AcDbLine
 10
2245.148411973915
 20
1594.943174866428
 30
0.0
 11
2245.148411973915
 21
1595.383174866428
 31
0.0
  0
LINE
  5
3CF
330
382
100
AcDbEntity
  8
1
  6
Continuous
 62
   254
370
    20
100
AcDbLine
 10
2243.348411973914
 20
1593.983174866428
 30
0.0
 11
2243.348411973914
 21
1594.483174866428
 31
0.0
  0
LINE
  5
3D0
330
382
100
AcDbEntity
  8
1
  6
Continuous
 62
   254
370
    20
100
AcDbLine
 10
2243.348411973914
 20
1594.483174866428
 30
0.0
 11
2242.348411973914
 21
1594.483174866428
 31
0.0
  0
ENDBLK
  5
384
330
382
100
AcDbEntity
  8
0
100
AcDbBlockEnd
  0
BLOCK
  5
3E4
330
3E3
100
AcDbEntity
  8
0
100
AcDbBlockBegin
  2
Dim26
 70
     0
 10
0.0
 20
0.0
 30
0.0
  3
Dim26
  1

  0
LINE
  5
3E6
330
3E3
100
AcDbEntity
  8
2
  6
Continuous
 62
     4
370
    20
100
AcDbLine
 10
2707.643800736045
 20
3235.746393887492
 30
0.0
 11
2707.643800736042
 21
2879.446750162647
 31
0.0
  0
LINE
  5
3E7
330
3E3
100
AcDbEntity
  8
2
  6
Continuous
 62
     4
370
    20
100
AcDbLine
 10
2358.643800736045
 20
3195.615650369791
 30
0.0
 11
2358.643800736043
 21
2879.446750162647
 31
0.0
  0
LINE
  5
3E8
330
3E3
100
AcDbEntity
  8
2
  6
Continuous
 62
     4
370
    20
100
AcDbLine
 10
2707.643800736042
 20
2889.446750162647
 30
0.0
 11
2358.643800736043
 21
2889.446750162647
 31
0.0
  0
MTEXT
  5
3E9
330
3E3
100
AcDbEntity
  8
2
  6
Continuous
 62
     4
370
     9
100
AcDbMText
 10
2533.143800736042
 20
2889.446750162647
 30
0.0
 40
60.0
 41
805.5
 46
60.0
 71
     8
 72
     1
  1
349
  7
ＭＳ ゴシック
 73
     1
 44
1.0
1001
ACAD
1000
ACAD_MTEXT_DEFINED_HEIGHT_BEGIN
1070
    46
1040
60.0
1000
ACAD_MTEXT_DEFINED_HEIGHT_END
  0
INSERT
  5
3EA
330
3E3
100
AcDbEntity
  8
2
  6
Continuous
 62
     4
370
    20
100
AcDbBlockReference
  2
_OPEN
 10
2707.643800736042
 20
2889.446750162647
 30
0.0
 41
15.0
 42
15.0
 43
15.0
 50
359.9999999999997
  0
INSERT
  5
3EB
330
3E3
100
AcDbEntity
  8
2
  6
Continuous
 62
     4
370
    20
100
AcDbBlockReference
  2
_OPEN
 10
2358.643800736043
 20
2889.446750162647
 30
0.0
 41
15.0
 42
15.0
 43
15.0
 50
179.9999999999998
  0
ENDBLK
  5
3E5
330
3E3
100
AcDbEntity
  8
0
100
AcDbBlockEnd
  0
BLOCK
  5
3EE
330
3ED
100
AcDbEntity
  8
0
100
AcDbBlockBegin
  2
*G48
 70
     1
 10
0.0
 20
0.0
 30
0.0
  3
*G48
  1

  0
MTEXT
  5
3F0
330
3ED
100
AcDbEntity
  8
1
  6
Continuous
 62
   254
370
     9
100
AcDbMText
 10
4689.383135364602
 20
409.9590490929588
 30
0.0
 40
40.0
 41
227.4609769152001
 46
40.0
 71
     7
 72
     1
  1
{\fHG丸ｺﾞｼｯｸM-PRO|b1;\W0.875000;\T1.440576;（　　）}
 73
     1
 44
1.0
1001
ACAD
1000
ACAD_MTEXT_DEFINED_HEIGHT_BEGIN
1070
    46
1040
40.0
1000
ACAD_MTEXT_DEFINED_HEIGHT_END
  0
MTEXT
  5
3F1
330
3ED
100
AcDbEntity
  8
1
  6
Continuous
 62
   254
370
     9
100
AcDbMText
 10
4868.655635768509
 20
306.8392147538818
 30
0.0
 40
30.0
 41
113.421644906175
 46
30.0
 71
     7
 72
     1
  1
{\f@HG丸ｺﾞｼｯｸM-PRO|b1;\W1.166667;\T0.750000;図番}
  7
T_STANDARD
 11
6.123233995736766E-17
 21
-1.0
 31
0.0
 73
     1
 44
1.0
1001
ACAD
1000
ACAD_MTEXT_DEFINED_HEIGHT_BEGIN
1070
    46
1040
30.0
1000
ACAD_MTEXT_DEFINED_HEIGHT_END
  0
MTEXT
  5
3F2
330
3ED
100
AcDbEntity
  8
1
  6
Continuous
 62
   254
370
     9
100
AcDbMText
 10
4868.706698730672
 20
489.9294958737485
 30
0.0
 40
30.0
 41
174.16127476035
 46
30.0
 71
     7
 72
     1
  1
{\f@HG丸ｺﾞｼｯｸM-PRO|b1;\W1.166667;\T0.750000;名　称}
  7
T_STANDARD
 11
6.123233995736766E-17
 21
-1.0
 31
0.0
 73
     1
 44
1.0
1001
ACAD
1000
ACAD_MTEXT_DEFINED_HEIGHT_BEGIN
1070
    46
1040
30.0
1000
ACAD_MTEXT_DEFINED_HEIGHT_END
  0
MTEXT
  5
3F3
330
3ED
100
AcDbEntity
  8
1
  6
Continuous
 62
   254
370
     9
100
AcDbMText
 10
4868.69910488435
 20
618.5248070263826
 30
0.0
 40
30.0
 41
114.93875497335
 46
30.0
 71
     7
 72
     1
  1
{\f@HG丸ｺﾞｼｯｸM-PRO|b1;\W0.766667;\T0.750000;納入先}
  7
T_STANDARD
 11
6.123233995736766E-17
 21
-1.0
 31
0.0
 73
     1
 44
1.0
1001
ACAD
1000
ACAD_MTEXT_DEFINED_HEIGHT_BEGIN
1070
    46
1040
30.0
1000
ACAD_MTEXT_DEFINED_HEIGHT_END
  0
MTEXT
  5
3F4
330
3ED
100
AcDbEntity
  8
1
  6
Continuous
 62
   254
370
     9
100
AcDbMText
 10
4601.153339059298
 20
340.2162304774704
 30
0.0
 40
40.0
 41
264.5389
 46
40.0
 71
     7
 72
     1
  1
{\fHG丸ｺﾞｼｯｸM-PRO|b1;\T0.750000;第三角法}
 73
     1
 44
1.0
1001
ACAD
1000
ACAD_MTEXT_DEFINED_HEIGHT_BEGIN
1070
    46
1040
40.0
1000
ACAD_MTEXT_DEFINED_HEIGHT_END
  0
MTEXT
  5
3F5
330
3ED
100
AcDbEntity
  8
1
  6
Continuous
 62
   254
370
     9
100
AcDbMText
 10
4266.207005959486
 20
396.2061672881948
 30
0.0
 40
32.0
 41
99.97367999999999
 46
32.0
 71
     7
 72
     1
  1
{\f@HG丸ｺﾞｼｯｸM-PRO|b1;\T0.750000;工番}
  7
T_STANDARD
 11
6.123233995736766E-17
 21
-1.0
 31
0.0
 73
     1
 44
1.0
1001
ACAD
1000
ACAD_MTEXT_DEFINED_HEIGHT_BEGIN
1070
    46
1040
32.0
1000
ACAD_MTEXT_DEFINED_HEIGHT_END
  0
MTEXT
  5
3F6
330
3ED
100
AcDbEntity
  8
1
  6
Continuous
 62
   254
370
     9
100
AcDbMText
 10
4275.210142120455
 20
410.1324700227162
 30
0.0
 40
40.0
 41
126.1031
 46
40.0
 71
     7
 72
     1
  1
{\fHG丸ｺﾞｼｯｸM-PRO|b1;\T0.750000;日付}
 73
     1
 44
1.0
1001
ACAD
1000
ACAD_MTEXT_DEFINED_HEIGHT_BEGIN
1070
    46
1040
40.0
1000
ACAD_MTEXT_DEFINED_HEIGHT_END
  0
MTEXT
  5
3F7
330
3ED
100
AcDbEntity
  8
1
  6
Continuous
 62
   254
370
     9
100
AcDbMText
 10
4725.210162237017
 20
575.1324288955113
 30
0.0
 40
40.0
 41
133.1463
 46
40.0
 71
     7
 72
     1
  1
{\fHG丸ｺﾞｼｯｸM-PRO|b1;\T0.750000;尺度}
 73
     1
 44
1.0
1001
ACAD
1000
ACAD_MTEXT_DEFINED_HEIGHT_BEGIN
1070
    46
1040
40.0
1000
ACAD_MTEXT_DEFINED_HEIGHT_END
  0
MTEXT
  5
3F8
330
3ED
100
AcDbEntity
  8
1
  6
Continuous
 62
   254
370
     9
100
AcDbMText
 10
4575.210171177714
 20
575.1324288955113
 30
0.0
 40
40.0
 41
130.8175
 46
40.0
 71
     7
 72
     1
  1
{\fHG丸ｺﾞｼｯｸM-PRO|b1;\T0.750000;製図}
 73
     1
 44
1.0
1001
ACAD
1000
ACAD_MTEXT_DEFINED_HEIGHT_BEGIN
1070
    46
1040
40.0
1000
ACAD_MTEXT_DEFINED_HEIGHT_END
  0
MTEXT
  5
3F9
330
3ED
100
AcDbEntity
  8
1
  6
Continuous
 62
   254
370
     9
100
AcDbMText
 10
4425.210164472192
 20
575.1324288955113
 30
0.0
 40
40.0
 41
131.7263
 46
40.0
 71
     7
 72
     1
  1
{\fHG丸ｺﾞｼｯｸM-PRO|b1;\T0.750000;検図}
 73
     1
 44
1.0
1001
ACAD
1000
ACAD_MTEXT_DEFINED_HEIGHT_BEGIN
1070
    46
1040
40.0
1000
ACAD_MTEXT_DEFINED_HEIGHT_END
  0
MTEXT
  5
3FA
330
3ED
100
AcDbEntity
  8
1
  6
Continuous
 62
   254
370
     9
100
AcDbMText
 10
4275.210142120455
 20
575.1324288955113
 30
0.0
 40
40.0
 41
132.2943
 46
40.0
 71
     7
 72
     1
  1
{\fHG丸ｺﾞｼｯｸM-PRO|b1;\T0.750000;承認}
 73
     1
 44
1.0
1001
ACAD
1000
ACAD_MTEXT_DEFINED_HEIGHT_BEGIN
1070
    46
1040
40.0
1000
ACAD_MTEXT_DEFINED_HEIGHT_END
  0
MTEXT
  5
3FB
330
3ED
100
AcDbEntity
  8
1
  6
Continuous
 62
   254
370
     9
100
AcDbMText
 10
3758.333910855918
 20
502.6477236675403
 30
0.0
 40
40.0
 41
323.9587999999999
 46
40.0
 71
     7
 72
     1
  1
{\f@HG丸ｺﾞｼｯｸM-PRO|b1;\T0.750000;訂　　　正}
  7
T_STANDARD
 11
6.123233995736766E-17
 21
-1.0
 31
0.0
 73
     1
 44
1.0
1001
ACAD
1000
ACAD_MTEXT_DEFINED_HEIGHT_BEGIN
1070
    46
1040
40.0
1000
ACAD_MTEXT_DEFINED_HEIGHT_END
  0
MTEXT
  5
3FC
330
3ED
100
AcDbEntity
  8
1
  6
Continuous
 62
   254
370
     9
100
AcDbMText
 10
5698.253976083384
 20
552.2864275646555
 30
0.0
 40
60.0
 41
40.57141234285714
 46
60.0
 71
     8
 72
     1
  1
{\fＦＡ 隷書Ｍ;\W0.833333;\T0.750000;殿}
 73
     1
 44
1.0
1001
ACAD
1000
ACAD_MTEXT_DEFINED_HEIGHT_BEGIN
1070
    46
1040
60.0
1000
ACAD_MTEXT_DEFINED_HEIGHT_END
  0
LINE
  5
3FD
330
3ED
100
AcDbEntity
  8
1
  6
Continuous
 62
   254
370
    50
100
AcDbLine
 10
3746.525755263907
 20
622.2342772206232
 30
0.0
 11
3746.525755263907
 21
217.234285714286
 31
0.0
  0
LINE
  5
3FE
330
3ED
100
AcDbEntity
  8
1
  6
Continuous
 62
   254
370
    50
100
AcDbLine
 10
4241.525694467169
 20
217.234285714286
 30
0.0
 11
4241.525694467169
 21
622.2342772206232
 31
0.0
  0
LINE
  5
3FF
330
3ED
100
AcDbEntity
  8
1
  6
Continuous
 62
   254
370
    50
100
AcDbLine
 10
4241.525694467169
 20
322.2342794557974
 30
0.0
 11
5746.525714285714
 21
322.2342794557974
 31
0.0
  0
LINE
  5
400
330
3ED
100
AcDbEntity
  8
1
  6
Continuous
 62
   254
370
    50
100
AcDbLine
 10
4691.525714583737
 20
457.234318347829
 30
0.0
 11
4241.525694467169
 21
457.234318347829
 31
0.0
  0
LINE
  5
401
330
3ED
100
AcDbEntity
  8
1
  6
Continuous
 62
   254
370
    50
100
AcDbLine
 10
4241.525694467169
 20
402.2342590412075
 30
0.0
 11
4841.525689996821
 21
402.2342590412075
 31
0.0
  0
LINE
  5
402
330
3ED
100
AcDbEntity
  8
1
  6
Continuous
 62
   254
370
    50
100
AcDbLine
 10
3746.525755263907
 20
622.2342772206232
 30
0.0
 11
5746.525714285714
 21
622.2342772206232
 31
0.0
  0
LINE
  5
403
330
3ED
100
AcDbEntity
  8
1
  6
Continuous
 62
   254
370
    50
100
AcDbLine
 10
4841.525689996821
 20
622.2342772206232
 30
0.0
 11
4841.525689996821
 21
217.234285714286
 31
0.0
  0
LINE
  5
404
330
3ED
100
AcDbEntity
  8
1
  6
Continuous
 62
   254
370
    50
100
AcDbLine
 10
4691.525714583737
 20
622.2342772206232
 30
0.0
 11
4691.525714583737
 21
402.2342590412075
 31
0.0
  0
LINE
  5
405
330
3ED
100
AcDbEntity
  8
1
  6
Continuous
 62
   254
370
    50
100
AcDbLine
 10
5746.525714285714
 20
542.2342506965572
 30
0.0
 11
4841.525689996821
 21
542.2342506965572
 31
0.0
  0
LINE
  5
406
330
3ED
100
AcDbEntity
  8
1
  6
Continuous
 62
   254
370
    20
100
AcDbLine
 10
3906.525698788506
 20
217.234285714286
 30
0.0
 11
3906.525698788506
 21
622.2342772206232
 31
0.0
  0
LINE
  5
407
330
3ED
100
AcDbEntity
  8
1
  6
Continuous
 62
   254
370
    20
100
AcDbLine
 10
3806.525704748971
 20
217.234285714286
 30
0.0
 11
3806.525704748971
 21
622.2342772206232
 31
0.0
  0
LINE
  5
408
330
3ED
100
AcDbEntity
  8
1
  6
Continuous
 62
   254
370
    20
100
AcDbLine
 10
4241.525694467169
 20
569.7342959960863
 30
0.0
 11
3806.525704748971
 21
569.7342959960863
 31
0.0
  0
LINE
  5
409
330
3ED
100
AcDbEntity
  8
1
  6
Continuous
 62
   254
370
    20
100
AcDbLine
 10
4241.525694467169
 20
519.7342989763195
 30
0.0
 11
3806.525704748971
 21
519.7342989763195
 31
0.0
  0
LINE
  5
40A
330
3ED
100
AcDbEntity
  8
1
  6
Continuous
 62
   254
370
    20
100
AcDbLine
 10
4241.525694467169
 20
469.7342393716747
 30
0.0
 11
3806.525704748971
 21
469.7342393716747
 31
0.0
  0
LINE
  5
40B
330
3ED
100
AcDbEntity
  8
1
  6
Continuous
 62
   254
370
    20
100
AcDbLine
 10
4241.525694467169
 20
419.7342736443454
 30
0.0
 11
3806.525704748971
 21
419.7342736443454
 31
0.0
  0
LINE
  5
40C
330
3ED
100
AcDbEntity
  8
1
  6
Continuous
 62
   254
370
    20
100
AcDbLine
 10
4241.525694467169
 20
369.7342453321382
 30
0.0
 11
3806.525704748971
 21
369.7342453321382
 31
0.0
  0
LINE
  5
40D
330
3ED
100
AcDbEntity
  8
1
  6
Continuous
 62
   254
370
    20
100
AcDbLine
 10
4241.525694467169
 20
319.7342952510282
 30
0.0
 11
3806.525704748971
 21
319.7342952510282
 31
0.0
  0
LINE
  5
40E
330
3ED
100
AcDbEntity
  8
1
  6
Continuous
 62
   254
370
    20
100
AcDbLine
 10
4241.525694467169
 20
569.7342959960863
 30
0.0
 11
4841.525689996821
 21
569.7342959960863
 31
0.0
  0
LINE
  5
40F
330
3ED
100
AcDbEntity
  8
1
  6
Continuous
 62
   254
370
    20
100
AcDbLine
 10
4391.525716818912
 20
622.2342772206232
 30
0.0
 11
4391.525716818912
 21
402.2342590412075
 31
0.0
  0
LINE
  5
410
330
3ED
100
AcDbEntity
  8
1
  6
Continuous
 62
   254
370
    20
100
AcDbLine
 10
4926.525716222865
 20
622.2342772206232
 30
0.0
 11
4926.525716222865
 21
217.234285714286
 31
0.0
  0
LINE
  5
411
330
3ED
100
AcDbEntity
  8
1
  6
Continuous
 62
   254
370
    20
100
AcDbLine
 10
4926.525716222865
 20
457.234318347829
 30
0.0
 11
5746.525714285714
 21
457.234318347829
 31
0.0
  0
LINE
  5
412
330
3ED
100
AcDbEntity
  8
1
  6
Continuous
 62
   254
370
    20
100
AcDbLine
 10
4541.525723524433
 20
402.2342590412075
 30
0.0
 11
4541.525723524433
 21
322.2342794557974
 31
0.0
  0
LINE
  5
413
330
3ED
100
AcDbEntity
  8
1
  6
Continuous
 62
   254
370
    20
100
AcDbLine
 10
4541.525723524433
 20
622.2342772206232
 30
0.0
 11
4541.525723524433
 21
457.234318347829
 31
0.0
  0
LINE
  5
414
330
3ED
100
AcDbEntity
  8
1
  6
Continuous
 62
   254
370
    20
100
AcDbLine
 10
4321.525720991236
 20
402.2342590412075
 30
0.0
 11
4321.525720991236
 21
322.2342794557974
 31
0.0
  0
LINE
  5
415
330
3ED
100
AcDbEntity
  8
1
  6
Continuous
 62
   254
370
    20
100
AcDbLine
 10
4241.525694467169
 20
269.7342669388229
 30
0.0
 11
3806.525704748971
 21
269.7342669388229
 31
0.0
  0
LINE
  5
416
330
3ED
100
AcDbEntity
  8
1
  6
Continuous
 62
   254
370
    50
100
AcDbLine
 10
5746.525714285714
 20
217.2342857142851
 30
0.0
 11
5746.525714285714
 21
3977.234303627609
 31
0.0
  0
LINE
  5
417
330
3ED
100
AcDbEntity
  8
1
  6
Continuous
 62
   254
370
    50
100
AcDbLine
 10
416.6200824857169
 20
3977.234303627609
 30
0.0
 11
416.6200824857169
 21
217.2342857142851
 31
0.0
  0
LINE
  5
418
330
3ED
100
AcDbEntity
  8
1
  6
Continuous
 62
   254
370
    50
100
AcDbLine
 10
5746.525714285714
 20
3977.234303627609
 30
0.0
 11
416.6200824857169
 21
3977.234303627609
 31
0.0
  0
LINE
  5
419
330
3ED
100
AcDbEntity
  8
1
  6
Continuous
 62
   254
370
    50
100
AcDbLine
 10
416.6200824857169
 20
217.2342857142851
 30
0.0
 11
5746.525714285714
 21
217.2342857142851
 31
0.0
  0
MTEXT
  5
41A
330
3ED
100
AcDbEntity
  8
1
  6
Continuous
 62
   254
370
     9
100
AcDbMText
 10
4282.037081647364
 20
235.5323191790742
 30
0.0
 40
60.0
 41
657.29702864835
 46
60.0
 71
     7
 72
     1
  1
{\fHG丸ｺﾞｼｯｸM-PRO|b1;\W0.666667;\T0.750000;株式会社　桜　電　社}
 73
     1
 44
1.0
1001
ACAD
1000
ACAD_MTEXT_DEFINED_HEIGHT_BEGIN
1070
    46
1040
60.0
1000
ACAD_MTEXT_DEFINED_HEIGHT_END
  0
ENDBLK
  5
3EF
330
3ED
100
AcDbEntity
  8
0
100
AcDbBlockEnd
  0
ENDSEC
  0
SECTION
  2
ENTITIES
  0
MTEXT
  5
AF
330
1F
100
AcDbEntity
  8
1
  6
Continuous
 62
   254
370
     9
100
AcDbMText
 10
4731.28765476652
 20
490.0752436999608
 30
0.0
 40
40.0
 41
112.6947746512
 46
40.0
 71
     7
 72
     1
  1
{\fＭＳ ゴシック;\T0.775244;1/10}
 73
     1
 44
1.0
1001
ACAD
1000
ACAD_MTEXT_DEFINED_HEIGHT_BEGIN
1070
    46
1040
40.0
1000
ACAD_MTEXT_DEFINED_HEIGHT_END
  0
MTEXT
  5
B0
330
1F
100
AcDbEntity
  8
1
  6
Continuous
 62
   254
370
     9
100
AcDbMText
 10
3832.939524553988
 20
225.2702934712836
 30
0.0
 40
40.0
 41
60.5843
 46
40.0
 71
     7
 72
     1
  1
{\fＭＳ ゴシック;\T0.750000;XO}
 73
     1
 44
1.0
1001
ACAD
1000
ACAD_MTEXT_DEFINED_HEIGHT_BEGIN
1070
    46
1040
40.0
1000
ACAD_MTEXT_DEFINED_HEIGHT_END
  0
LINE
  5
B1
330
1F
100
AcDbEntity
  8
2
  6
HIDDEN
 62
     4
370
    30
100
AcDbLine
 10
3857.031846357643
 20
927.3831748664277
 30
0.0
 11
3857.031846357643
 21
827.3831748664277
 31
0.0
  0
LINE
  5
B2
330
1F
100
AcDbEntity
  8
2
  6
HIDDEN
 62
     4
370
    30
100
AcDbLine
 10
3863.031846357643
 20
921.3831748664277
 30
0.0
 11
3863.031846357643
 21
833.3831748664277
 31
0.0
  0
LINE
  5
B3
330
1F
100
AcDbEntity
  8
2
  6
Continuous
 62
     4
370
    30
100
AcDbLine
 10
5426.848548042768
 20
921.3831748664277
 30
0.0
 11
5382.848548042769
 21
921.3831748664277
 31
0.0
  0
LINE
  5
B4
330
1F
100
AcDbEntity
  8
2
  6
Continuous
 62
     4
370
    30
100
AcDbLine
 10
3897.031846357643
 20
2292.383174866428
 30
0.0
 11
3847.031846357643
 21
2292.383174866428
 31
0.0
  0
LINE
  5
B5
330
1F
100
AcDbEntity
  8
2
  6
Continuous
 62
     4
370
    30
100
AcDbLine
 10
3868.150151081905
 20
2292.383174866428
 30
0.0
 11
3847.031846357642
 21
2292.383174866428
 31
0.0
  0
LINE
  5
B6
330
1F
100
AcDbEntity
  8
2
  6
Continuous
 62
     4
370
    30
100
AcDbLine
 10
5426.848548042769
 20
921.3831748664277
 30
0.0
 11
5382.848548042769
 21
921.3831748664277
 31
0.0
  0
LINE
  5
B7
330
1F
100
AcDbEntity
  8
2
  6
Continuous
 62
     4
370
    30
100
AcDbLine
 10
3872.031846357643
 20
2292.383174866428
 30
0.0
 11
3317.031846357644
 21
2292.383174866428
 31
0.0
  0
LINE
  5
B8
330
1F
100
AcDbEntity
  8
2
  6
Continuous
 62
     4
370
    30
100
AcDbLine
 10
3287.031846357642
 20
2342.383174866428
 30
0.0
 11
3897.031846357643
 21
2342.383174866428
 31
0.0
  0
LINE
  5
B9
330
1F
100
AcDbEntity
  8
2
  6
Continuous
 62
     4
370
    30
100
AcDbLine
 10
3912.031846357643
 20
2342.383174866428
 30
0.0
 11
3897.031846357643
 21
2342.383174866428
 31
0.0
  0
LINE
  5
BA
330
1F
100
AcDbEntity
  8
2
  6
Continuous
 62
     4
370
    30
100
AcDbLine
 10
3287.031846357642
 20
2342.383174866428
 30
0.0
 11
3272.031846357643
 21
2342.383174866428
 31
0.0
  0
LINE
  5
BB
330
1F
100
AcDbEntity
  8
2
  6
Continuous
 62
     4
370
    30
100
AcDbLine
 10
3912.031846357643
 20
1467.383174866428
 30
0.0
 11
3912.031846357643
 21
2292.383174866428
 31
0.0
  0
LINE
  5
BC
330
1F
100
AcDbEntity
  8
2
  6
Continuous
 62
     4
370
    30
100
AcDbLine
 10
3872.031846357643
 20
2292.383174866428
 30
0.0
 11
3912.031846357643
 21
2292.383174866428
 31
0.0
  0
LINE
  5
BD
330
1F
100
AcDbEntity
  8
2
  6
Continuous
 62
     4
370
    30
100
AcDbLine
 10
3272.031846357642
 20
2417.383174866428
 30
0.0
 11
3272.031846357642
 21
2342.383174866428
 31
0.0
  0
LINE
  5
BE
330
1F
100
AcDbEntity
  8
2
  6
Continuous
 62
     4
370
    30
100
AcDbLine
 10
3912.031846357643
 20
2342.383174866428
 30
0.0
 11
3912.031846357643
 21
2407.383174866428
 31
0.0
  0
LINE
  5
BF
330
1F
100
AcDbEntity
  8
2
  6
Continuous
 62
     4
370
    30
100
AcDbLine
 10
3912.031846357643
 20
2407.383174866428
 30
0.0
 11
3272.031846357643
 21
2417.383174866428
 31
0.0
  0
LINE
  5
C0
330
1F
100
AcDbEntity
  8
2
  6
Continuous
 62
     4
370
    30
100
AcDbLine
 10
3907.031846357643
 20
827.3831748664277
 30
0.0
 11
3907.031846357643
 21
927.3831748664277
 31
0.0
  0
LINE
  5
C1
330
1F
100
AcDbEntity
  8
2
  6
Continuous
 62
     4
370
    30
100
AcDbLine
 10
5382.848548042769
 20
833.3831748664277
 30
0.0
 11
5426.848548042769
 21
833.3831748664277
 31
0.0
  0
LINE
  5
C2
330
1F
100
AcDbEntity
  8
2
  6
Continuous
 62
     4
370
    30
100
AcDbLine
 10
5382.848548042769
 20
921.3831748664277
 30
0.0
 11
5382.848548042769
 21
833.3831748664277
 31
0.0
  0
LINE
  5
C3
330
1F
100
AcDbEntity
  8
2
  6
Continuous
 62
     4
370
    30
100
AcDbLine
 10
5376.848548042769
 20
927.3831748664277
 30
0.0
 11
5376.848548042769
 21
827.3831748664277
 31
0.0
  0
LINE
  5
C4
330
1F
100
AcDbEntity
  8
2
  6
Continuous
 62
     4
370
    30
100
AcDbLine
 10
5426.848548042769
 20
927.3831748664277
 30
0.0
 11
5426.848548042769
 21
827.3831748664277
 31
0.0
  0
LINE
  5
C5
330
1F
100
AcDbEntity
  8
2
  6
Continuous
 62
     4
370
    30
100
AcDbLine
 10
5431.848548042769
 20
2417.383174866428
 30
0.0
 11
5431.848548042769
 21
2342.383174866428
 31
0.0
  0
LINE
  5
C6
330
1F
100
AcDbEntity
  8
2
  6
Continuous
 62
     4
370
    30
100
AcDbLine
 10
5431.848548042769
 20
2292.383174866428
 30
0.0
 11
5431.848548042769
 21
2285.383174866428
 31
0.0
  0
LINE
  5
C7
330
1F
100
AcDbEntity
  8
2
  6
Continuous
 62
     4
370
    30
100
AcDbLine
 10
5382.848548042769
 20
833.3831748664277
 30
0.0
 11
5426.848548042768
 21
833.3831748664277
 31
0.0
  0
LINE
  5
C8
330
1F
100
AcDbEntity
  8
2
  6
Continuous
 62
     4
370
    30
100
AcDbLine
 10
672.3984429873917
 20
2292.383174866428
 30
0.0
 11
1227.398442987391
 21
2292.383174866428
 31
0.0
  0
LINE
  5
C9
330
1F
100
AcDbEntity
  8
2
  6
Continuous
 62
     4
370
    30
100
AcDbLine
 10
1257.398442987393
 20
2342.383174866428
 30
0.0
 11
647.3984429873917
 21
2342.383174866428
 31
0.0
  0
LINE
  5
CA
330
1F
100
AcDbEntity
  8
2
  6
Continuous
 62
     4
370
    30
100
AcDbLine
 10
676.2801382631296
 20
2292.383174866428
 30
0.0
 11
697.3984429873926
 21
2292.383174866428
 31
0.0
  0
LINE
  5
CB
330
1F
100
AcDbEntity
  8
2
  6
Continuous
 62
     4
370
    30
100
AcDbLine
 10
647.3984429873917
 20
2292.383174866428
 30
0.0
 11
697.3984429873917
 21
2292.383174866428
 31
0.0
  0
LINE
  5
CC
330
1F
100
AcDbEntity
  8
2
  6
Continuous
 62
     4
370
    30
100
AcDbLine
 10
632.3984429873917
 20
2342.383174866428
 30
0.0
 11
647.3984429873917
 21
2342.383174866428
 31
0.0
  0
LINE
  5
CD
330
1F
100
AcDbEntity
  8
2
  6
Continuous
 62
     4
370
    30
100
AcDbLine
 10
1257.398442987393
 20
2342.383174866428
 30
0.0
 11
1272.398442987392
 21
2342.383174866428
 31
0.0
  0
LINE
  5
CE
330
1F
100
AcDbEntity
  8
2
  6
Continuous
 62
     4
370
    30
100
AcDbLine
 10
632.3984429873917
 20
1467.383174866428
 30
0.0
 11
632.3984429873917
 21
2292.383174866428
 31
0.0
  0
LINE
  5
CF
330
1F
100
AcDbEntity
  8
2
  6
Continuous
 62
     4
370
    30
100
AcDbLine
 10
672.3984429873917
 20
2292.383174866428
 30
0.0
 11
632.3984429873917
 21
2292.383174866428
 31
0.0
  0
LINE
  5
D0
330
1F
100
AcDbEntity
  8
2
  6
Continuous
 62
     4
370
    30
100
AcDbLine
 10
1272.398442987393
 20
2417.383174866428
 30
0.0
 11
1272.398442987393
 21
2342.383174866428
 31
0.0
  0
LINE
  5
D1
330
1F
100
AcDbEntity
  8
2
  6
Continuous
 62
     4
370
    30
100
AcDbLine
 10
632.3984429873917
 20
2342.383174866428
 30
0.0
 11
632.3984429873917
 21
2407.383174866428
 31
0.0
  0
LINE
  5
D2
330
1F
100
AcDbEntity
  8
2
  6
Continuous
 62
     4
370
    30
100
AcDbLine
 10
632.3984429873917
 20
2407.383174866428
 30
0.0
 11
1272.398442987392
 21
2417.383174866428
 31
0.0
  0
LINE
  5
D3
330
1F
100
AcDbEntity
  8
2
  6
Continuous
 62
     4
370
    30
100
AcDbLine
 10
672.3984429873917
 20
978.3831748664277
 30
0.0
 11
632.3984429873917
 21
978.3831748664277
 31
0.0
  0
LINE
  5
D4
330
1F
100
AcDbEntity
  8
2
  6
Continuous
 62
     4
370
    30
100
AcDbLine
 10
632.3984429873917
 20
978.3831748664277
 30
0.0
 11
632.3984429873917
 21
1027.383174866428
 31
0.0
  0
LINE
  5
D5
330
1F
100
AcDbEntity
  8
2
  6
HIDDEN
 62
     4
370
    30
100
AcDbLine
 10
681.3984429873917
 20
921.3831748664277
 30
0.0
 11
681.3984429873917
 21
833.3831748664277
 31
0.0
  0
LINE
  5
D6
330
1F
100
AcDbEntity
  8
2
  6
HIDDEN
 62
     4
370
    30
100
AcDbLine
 10
687.3984429873917
 20
927.3831748664277
 30
0.0
 11
687.3984429873917
 21
827.3831748664277
 31
0.0
  0
LINE
  5
D7
330
1F
100
AcDbEntity
  8
2
  6
Continuous
 62
     4
370
    30
100
AcDbLine
 10
637.3984429873917
 20
827.3831748664277
 30
0.0
 11
637.3984429873917
 21
927.3831748664277
 31
0.0
  0
LINE
  5
D8
330
1F
100
AcDbEntity
  8
2
  6
Continuous
 62
     4
370
    30
100
AcDbLine
 10
657.3984429873917
 20
848.92081706677
 30
0.0
 11
657.3984429873917
 21
814.115833850716
 31
0.0
  0
LINE
  5
D9
330
1F
100
AcDbEntity
  8
2
  6
DOT
 62
     4
370
    30
100
AcDbLine
 10
3312.031846357644
 20
2292.383174866428
 30
0.0
 11
3312.031846357644
 21
2277.383174866428
 31
0.0
  0
LINE
  5
DA
330
1F
100
AcDbEntity
  8
2
  6
Continuous
 62
     4
370
    30
100
AcDbLine
 10
3272.031846357644
 20
2292.383174866428
 30
0.0
 11
3312.031846357644
 21
2292.383174866428
 31
0.0
  0
LINE
  5
DB
330
1F
100
AcDbEntity
  8
2
  6
DOT
 62
     4
370
    30
100
AcDbLine
 10
1232.398442987391
 20
2292.383174866428
 30
0.0
 11
1232.398442987391
 21
2277.383174866428
 31
0.0
  0
LINE
  5
DC
330
1F
100
AcDbEntity
  8
2
  6
Continuous
 62
     4
370
    30
100
AcDbLine
 10
3317.031846357644
 20
2292.383174866428
 30
0.0
 11
3317.031846357644
 21
2254.383174866429
 31
0.0
  0
LINE
  5
DD
330
1F
100
AcDbEntity
  8
2
  6
Continuous
 62
     4
370
    30
100
AcDbLine
 10
1232.398442987391
 20
978.3831748664277
 30
0.0
 11
1232.398442987391
 21
993.3831748664277
 31
0.0
  0
LINE
  5
DE
330
1F
100
AcDbEntity
  8
2
  6
Continuous
 62
     4
370
    30
100
AcDbLine
 10
1272.398442987391
 20
978.3831748664277
 30
0.0
 11
1232.398442987391
 21
978.3831748664277
 31
0.0
  0
LINE
  5
DF
330
1F
100
AcDbEntity
  8
2
  6
Continuous
 62
     4
370
    30
100
AcDbLine
 10
1272.398442987393
 20
2292.383174866428
 30
0.0
 11
1272.398442987391
 21
978.3831748664277
 31
0.0
  0
LINE
  5
E0
330
1F
100
AcDbEntity
  8
2
  6
Continuous
 62
     4
370
    30
100
AcDbLine
 10
5431.848548042769
 20
978.439120674256
 30
0.0
 11
5431.848548042769
 21
2285.383174866428
 31
0.0
  0
LINE
  5
E1
330
1F
100
AcDbEntity
  8
2
  6
DOT
 62
     4
370
    30
100
AcDbLine
 10
1227.398442987391
 20
1016.083174866427
 30
0.0
 11
1227.398442987391
 21
978.3831748664277
 31
0.0
  0
LINE
  5
E2
330
1F
100
AcDbEntity
  8
2
  6
DOT
 62
     4
370
    30
100
AcDbLine
 10
1227.398442987391
 20
2292.383174866428
 30
0.0
 11
1227.398442987391
 21
2254.383174866429
 31
0.0
  0
LINE
  5
E3
330
1F
100
AcDbEntity
  8
2
  6
Continuous
 62
     4
370
    30
100
AcDbLine
 10
5431.848548042769
 20
927.3831748664277
 30
0.0
 11
5431.848548042769
 21
978.3831748664277
 31
0.0
  0
LINE
  5
E4
330
1F
100
AcDbEntity
  8
2
  6
Continuous
 62
     4
370
    30
100
AcDbLine
 10
5426.848548042769
 20
927.3831748664277
 30
0.0
 11
5431.848548042769
 21
927.3831748664277
 31
0.0
  0
LINE
  5
E5
330
1F
100
AcDbEntity
  8
2
  6
Continuous
 62
     4
370
    30
100
AcDbLine
 10
3907.031846357643
 20
927.3831748664277
 30
0.0
 11
3912.031846357643
 21
927.3831748664277
 31
0.0
  0
LINE
  5
E6
330
1F
100
AcDbEntity
  8
2
  6
Continuous
 62
     4
370
    30
100
AcDbLine
 10
1227.398442987391
 20
978.3831748664277
 30
0.0
 11
1227.398442987391
 21
927.3831748664277
 31
0.0
  0
LINE
  5
E7
330
1F
100
AcDbEntity
  8
2
  6
Continuous
 62
     4
370
    30
100
AcDbLine
 10
632.3984429873917
 20
927.3831748664277
 30
0.0
 11
632.3984429873917
 21
978.3831748664277
 31
0.0
  0
LINE
  5
E8
330
1F
100
AcDbEntity
  8
2
  6
Continuous
 62
     4
370
    30
100
AcDbLine
 10
637.3984429873917
 20
927.3831748664277
 30
0.0
 11
632.3984429873917
 21
927.3831748664277
 31
0.0
  0
LINE
  5
E9
330
1F
100
AcDbEntity
  8
2
  6
Continuous
 62
     4
370
    30
100
AcDbLine
 10
1272.398442987393
 20
2292.383174866428
 30
0.0
 11
1232.398442987391
 21
2292.383174866428
 31
0.0
  0
LINE
  5
EA
330
1F
100
AcDbEntity
  8
2
  6
Continuous
 62
     4
370
    30
100
AcDbLine
 10
1232.398442987391
 20
2292.383174866428
 30
0.0
 11
1232.398442987391
 21
978.3831748664277
 31
0.0
  0
LINE
  5
EB
330
1F
100
AcDbEntity
  8
2
  6
Continuous
 62
     4
370
    30
100
AcDbLine
 10
1227.398442987391
 20
978.3831748664277
 30
0.0
 11
1227.398442987391
 21
2292.383174866428
 31
0.0
  0
LINE
  5
EC
330
1F
100
AcDbEntity
  8
2
  6
Continuous
 62
     4
370
    30
100
AcDbLine
 10
632.3984429873917
 20
1027.383174866428
 30
0.0
 11
632.3984429873917
 21
1467.383174866428
 31
0.0
  0
LINE
  5
ED
330
1F
100
AcDbEntity
  8
2
  6
DOT
 62
     4
370
    30
100
AcDbLine
 10
2122.215144672518
 20
806.4407192404813
 30
0.0
 11
2122.215144672518
 21
847.376125636624
 31
0.0
  0
LINE
  5
EE
330
1F
100
AcDbEntity
  8
2
  6
DOT
 62
     4
370
    30
100
AcDbLine
 10
1127.398442987392
 20
812.9154716683568
 30
0.0
 11
1127.398442987392
 21
853.850878064499
 31
0.0
  0
INSERT
  5
EF
330
1F
100
AcDbEntity
  8
2
  6
Continuous
 62
     4
370
    30
100
AcDbBlockReference
  2
_OPEN
 10
2030.531356418878
 20
820.5681746930479
 30
0.0
 41
20.0
 42
20.0
 43
20.0
 50
134.5888490462678
  0
POLYLINE
  5
F0
330
1F
100
AcDbEntity
  8
2
  6
Continuous
 62
     4
370
    30
100
AcDb2dPolyline
 66
     1
 10
0.0
 20
0.0
 30
0.0
  0
VERTEX
  5
F1
330
F0
100
AcDbEntity
  8
2
  6
Continuous
 62
     4
370
    30
100
AcDbVertex
100
AcDb2dVertex
 10
2030.531356418878
 20
820.5681746930479
 30
0.0
  0
VERTEX
  5
F2
330
F0
100
AcDbEntity
  8
2
  6
Continuous
 62
     4
370
    30
100
AcDbVertex
100
AcDb2dVertex
 10
2185.065197225348
 20
663.800414596443
 30
0.0
  0
VERTEX
  5
F3
330
F0
100
AcDbEntity
  8
2
  6
Continuous
 62
     4
370
    30
100
AcDbVertex
100
AcDb2dVertex
 10
2365.065197225347
 20
663.800414596443
 30
0.0
  0
SEQEND
  5
F4
330
F0
100
AcDbEntity
  8
2
  6
Continuous
 62
     4
370
    30
  0
MTEXT
  5
F5
330
1F
100
AcDbEntity
  8
2
  6
Continuous
 62
     4
370
     9
100
AcDbMText
 10
2185.065197225348
 20
663.800414596443
 30
0.0
 40
60.0
 41
279.9032999999999
 46
60.0
 71
     7
 72
     1
  1
{\fＭＳ ゴシック;\T0.750000;通線口}
 73
     1
 44
1.0
1001
ACAD
1000
ACAD_MTEXT_DEFINED_HEIGHT_BEGIN
1070
    46
1040
60.0
1000
ACAD_MTEXT_DEFINED_HEIGHT_END
  0
INSERT
  5
F6
330
1F
100
AcDbEntity
  8
2
  6
Continuous
 62
     4
370
    30
100
AcDbBlockReference
  2
_OPEN
 10
1137.989615462361
 20
820.1413708262651
 30
0.0
 41
20.0
 42
20.0
 43
20.0
 50
149.1388073379463
  0
POLYLINE
  5
F7
330
1F
100
AcDbEntity
  8
2
  6
Continuous
 62
     4
370
    30
100
AcDb2dPolyline
 66
     1
 10
0.0
 20
0.0
 30
0.0
  0
VERTEX
  5
F8
330
F7
100
AcDbEntity
  8
2
  6
Continuous
 62
     4
370
    30
100
AcDbVertex
100
AcDb2dVertex
 10
1137.989615462361
 20
820.1413708262651
 30
0.0
  0
VERTEX
  5
F9
330
F7
100
AcDbEntity
  8
2
  6
Continuous
 62
     4
370
    30
100
AcDbVertex
100
AcDb2dVertex
 10
1310.88662730163
 20
716.8236312146526
 30
0.0
  0
VERTEX
  5
FA
330
F7
100
AcDbEntity
  8
2
  6
Continuous
 62
     4
370
    30
100
AcDbVertex
100
AcDb2dVertex
 10
1490.88662730163
 20
716.8236312146526
 30
0.0
  0
SEQEND
  5
FB
330
F7
100
AcDbEntity
  8
2
  6
Continuous
 62
     4
370
    30
  0
MTEXT
  5
FC
330
1F
100
AcDbEntity
  8
2
  6
Continuous
 62
     4
370
     9
100
AcDbMText
 10
1310.88662730163
 20
716.8236312146526
 30
0.0
 40
60.0
 41
279.9032999999999
 46
60.0
 71
     7
 72
     1
  1
{\fＭＳ ゴシック;\T0.750000;通線口}
 73
     1
 44
1.0
1001
ACAD
1000
ACAD_MTEXT_DEFINED_HEIGHT_BEGIN
1070
    46
1040
60.0
1000
ACAD_MTEXT_DEFINED_HEIGHT_END
  0
LINE
  5
FD
330
1F
100
AcDbEntity
  8
2
  6
Continuous
 62
     4
370
    30
100
AcDbLine
 10
3342.031846357642
 20
2342.383174866428
 30
0.0
 11
3342.031846357642
 21
2292.383174866428
 31
0.0
  0
LINE
  5
FE
330
1F
100
AcDbEntity
  8
2
  6
Continuous
 62
     4
370
    30
100
AcDbLine
 10
3842.031846357643
 20
2342.383174866428
 30
0.0
 11
3842.031846357643
 21
2292.383174866428
 31
0.0
  0
LINE
  5
FF
330
1F
100
AcDbEntity
  8
2
  6
Continuous
 62
     4
370
    30
100
AcDbLine
 10
5366.848548042769
 20
2342.383174866428
 30
0.0
 11
5366.848548042769
 21
2292.383174866428
 31
0.0
  0
LINE
  5
100
330
1F
100
AcDbEntity
  8
2
  6
Continuous
 62
     4
370
    30
100
AcDbLine
 10
1202.398442987393
 20
2342.383174866428
 30
0.0
 11
1202.398442987393
 21
2292.383174866428
 31
0.0
  0
LINE
  5
101
330
1F
100
AcDbEntity
  8
2
  6
Continuous
 62
     4
370
    30
100
AcDbLine
 10
702.3984429873917
 20
2342.383174866428
 30
0.0
 11
702.3984429873917
 21
2292.383174866428
 31
0.0
  0
LINE
  5
102
330
1F
100
AcDbEntity
  8
2
  6
DOT
 62
     4
370
    30
100
AcDbLine
 10
2271.681039021317
 20
3881.036416302526
 30
0.0
 11
2273.981039021317
 21
3881.036416302526
 31
0.0
  0
LINE
  5
103
330
1F
100
AcDbEntity
  8
2
  6
Continuous
 62
     4
370
    30
100
AcDbLine
 10
3312.031846357644
 20
977.3831748664277
 30
0.0
 11
3312.031846357644
 21
993.3831748664277
 31
0.0
  0
LINE
  5
104
330
1F
100
AcDbEntity
  8
2
  6
Continuous
 62
     4
370
    30
100
AcDbLine
 10
3272.031846357644
 20
977.3831748664277
 30
0.0
 11
3312.031846357644
 21
977.3831748664277
 31
0.0
  0
LINE
  5
105
330
1F
100
AcDbEntity
  8
2
  6
Continuous
 62
     4
370
    30
100
AcDbLine
 10
3272.031846357642
 20
2292.383174866428
 30
0.0
 11
3272.031846357644
 21
977.3831748664277
 31
0.0
  0
LINE
  5
106
330
1F
100
AcDbEntity
  8
2
  6
Continuous
 62
     4
370
    30
100
AcDbLine
 10
3312.031846357644
 20
2292.383174866428
 30
0.0
 11
3312.031846357644
 21
977.3831748664277
 31
0.0
  0
LINE
  5
107
330
1F
100
AcDbEntity
  8
2
  6
Continuous
 62
     4
370
    30
100
AcDbLine
 10
3317.031846357644
 20
977.3831748664277
 30
0.0
 11
3317.031846357644
 21
927.3831748664277
 31
0.0
  0
LINE
  5
108
330
1F
100
AcDbEntity
  8
2
  6
Continuous
 62
     4
370
    30
100
AcDbLine
 10
3912.031846357643
 20
927.3831748664277
 30
0.0
 11
3912.031846357643
 21
977.3831748664277
 31
0.0
  0
LINE
  5
109
330
1F
100
AcDbEntity
  8
2
  6
Continuous
 62
     4
370
    30
100
AcDbLine
 10
3317.031846357644
 20
2254.383174866429
 30
0.0
 11
3317.031846357644
 21
977.3831748664277
 31
0.0
  0
LINE
  5
10A
330
1F
100
AcDbEntity
  8
2
  6
Continuous
 62
     4
370
    30
100
AcDbLine
 10
3912.031846357643
 20
977.3831748664277
 30
0.0
 11
3912.031846357643
 21
1032.383174866428
 31
0.0
  0
LINE
  5
10B
330
1F
100
AcDbEntity
  8
2
  6
Continuous
 62
     4
370
    30
100
AcDbLine
 10
3912.031846357643
 20
1032.383174866428
 30
0.0
 11
3912.031846357643
 21
1467.383174866428
 31
0.0
  0
DIMENSION
  5
116
330
1F
100
AcDbEntity
  8
2
  6
Continuous
 62
     4
370
    30
100
AcDbDimension
  2
Dim1
 10
632.3984429873917
 20
2588.148908949995
 30
0.0
 11
952.3984429873926
 21
2588.148908949995
 31
0.0
 70
   160
  1
<>
 71
     8
 42
-1.0
 73
     0
 74
     0
 75
     0
  3
Standard
100
AcDbAlignedDimension
 13
1272.398442987393
 23
2417.383174866428
 33
0.0
 14
632.3984429873917
 24
2407.383174866428
 34
0.0
 50
179.9999999999998
100
AcDbRotatedDimension
1001
ACAD
1000
DSTYLE
1002
{
1070
   279
1070
     1
1070
   340
1005
10C
1070
   140
1040
60.0
1070
    40
1040
1.0
1070
   147
1040
0.0
1070
    76
1070
     0
1070
    75
1070
     0
1070
   344
1005
51
1070
   343
1005
51
1070
   173
1070
     1
1070
   289
1070
     2
1070
   288
1070
     1
1070
    77
1070
     1
1070
   172
1070
     1
1070
   174
1070
     0
1070
    74
1070
     0
1070
    73
1070
     0
1070
   284
1070
     8
1070
    78
1070
     8
1070
    42
1040
20.0
1070
    44
1040
10.0
1070
    43
1040
10.0
1070
   271
1070
     2
1070
    41
1040
15.0
1002
}
  0
DIMENSION
  5
120
330
1F
100
AcDbEntity
  8
2
  6
Continuous
 62
     4
370
    30
100
AcDbDimension
  2
Dim2
 10
637.3984429873899
 20
546.3865948731807
 30
0.0
 11
560.6504748857815
 21
546.3865948731807
 31
0.0
 70
   160
  1
<>
 71
     8
 42
-1.0
 73
     0
 74
     0
 75
     0
  3
Standard
100
AcDbAlignedDimension
 13
657.3984429873917
 23
814.1158338507155
 33
0.0
 14
637.3984429873917
 24
827.3831748664277
 34
0.0
 50
179.9999999999998
100
AcDbRotatedDimension
1001
ACAD
1000
DSTYLE
1002
{
1070
   279
1070
     1
1070
   340
1005
10C
1070
   140
1040
60.0
1070
    40
1040
1.0
1070
   147
1040
0.0
1070
    76
1070
     0
1070
    75
1070
     0
1070
   344
1005
51
1070
   343
1005
51
1070
   173
1070
     1
1070
   289
1070
     2
1070
   288
1070
     1
1070
    77
1070
     1
1070
   172
1070
     1
1070
   174
1070
     0
1070
    74
1070
     0
1070
    73
1070
     0
1070
   284
1070
     8
1070
    78
1070
     8
1070
    42
1040
20.0
1070
    44
1040
10.0
1070
    43
1040
10.0
1070
   271
1070
     2
1070
    41
1040
15.0
1002
}
  0
DIMENSION
  5
12A
330
1F
100
AcDbEntity
  8
2
  6
Continuous
 62
     4
370
    30
100
AcDbDimension
  2
Dim3
 10
3088.202874273828
 20
2292.383174866428
 30
0.0
 11
3088.202874273828
 21
1634.883174866428
 31
0.0
 70
   160
  1
<>
 71
     8
 42
-1.0
 73
     0
 74
     0
 75
     0
  3
Standard
100
AcDbAlignedDimension
 13
3272.031846357643
 23
977.3831748664277
 33
0.0
 14
3272.031846357642
 24
2292.383174866428
 34
0.0
 50
89.99999999999991
100
AcDbRotatedDimension
1001
ACAD
1000
DSTYLE
1002
{
1070
   279
1070
     1
1070
   340
1005
10C
1070
   140
1040
60.0
1070
    40
1040
1.0
1070
   147
1040
0.0
1070
    76
1070
     0
1070
    75
1070
     0
1070
   344
1005
51
1070
   343
1005
51
1070
   173
1070
     1
1070
   289
1070
     2
1070
   288
1070
     1
1070
    77
1070
     1
1070
   172
1070
     1
1070
   174
1070
     0
1070
    74
1070
     0
1070
    73
1070
     0
1070
   284
1070
     8
1070
    78
1070
     8
1070
    42
1040
20.0
1070
    44
1040
10.0
1070
    43
1040
10.0
1070
   271
1070
     2
1070
    41
1040
15.0
1002
}
  0
DIMENSION
  5
134
330
1F
100
AcDbEntity
  8
2
  6
Continuous
 62
     4
370
    30
100
AcDbDimension
  2
Dim4
 10
3171.417807067816
 20
2417.383174866428
 30
0.0
 11
3171.417807067816
 21
2472.166152729924
 31
0.0
 70
   160
  1
<>
 71
     8
 42
-1.0
 73
     0
 74
     0
 75
     0
  3
Standard
100
AcDbAlignedDimension
 13
3272.031846357642
 23
2342.383174866428
 33
0.0
 14
3272.031846357642
 24
2417.383174866428
 34
0.0
 50
89.99999999999991
100
AcDbRotatedDimension
1001
ACAD
1000
DSTYLE
1002
{
1070
   279
1070
     1
1070
   340
1005
10C
1070
   140
1040
60.0
1070
    40
1040
1.0
1070
   147
1040
0.0
1070
    76
1070
     0
1070
    75
1070
     0
1070
   344
1005
51
1070
   343
1005
51
1070
   173
1070
     1
1070
   289
1070
     2
1070
   288
1070
     1
1070
    77
1070
     1
1070
   172
1070
     1
1070
   174
1070
     0
1070
    74
1070
     0
1070
    73
1070
     0
1070
   284
1070
     8
1070
    78
1070
     8
1070
    42
1040
20.0
1070
    44
1040
10.0
1070
    43
1040
10.0
1070
   271
1070
     2
1070
    41
1040
15.0
1002
}
  0
MTEXT
  5
135
330
1F
100
AcDbEntity
  8
2
  6
DOT
 62
     4
370
     9
100
AcDbMText
 10
4953.721238206628
 20
1119.949070782183
 30
0.0
 40
60.0
 41
230.3416578633
 46
60.0
 71
     7
 72
     1
  1
{\fＭＳ ゴシック;\W0.833333;\T0.750000;点検口}
 73
     1
 44
1.0
1001
ACAD
1000
ACAD_MTEXT_DEFINED_HEIGHT_BEGIN
1070
    46
1040
60.0
1000
ACAD_MTEXT_DEFINED_HEIGHT_END
  0
INSERT
  5
136
330
1F
100
AcDbEntity
  8
2
  6
Continuous
 62
     4
370
    30
100
AcDbBlockReference
  2
_OPEN
 10
3568.118603427266
 20
2315.423888091407
 30
0.0
 41
20.0
 42
20.0
 43
20.0
 50
238.6913050423755
  0
POLYLINE
  5
137
330
1F
100
AcDbEntity
  8
2
  6
Continuous
 62
     4
370
    30
100
AcDb2dPolyline
 66
     1
 10
0.0
 20
0.0
 30
0.0
  0
VERTEX
  5
138
330
137
100
AcDbEntity
  8
2
  6
Continuous
 62
     4
370
    30
100
AcDbVertex
100
AcDb2dVertex
 10
3568.118603427266
 20
2315.423888091407
 30
0.0
  0
VERTEX
  5
139
330
137
100
AcDbEntity
  8
2
  6
Continuous
 62
     4
370
    30
100
AcDbVertex
100
AcDb2dVertex
 10
3803.385952687757
 20
2702.238450093631
 30
0.0
  0
VERTEX
  5
13A
330
137
100
AcDbEntity
  8
2
  6
Continuous
 62
     4
370
    30
100
AcDbVertex
100
AcDb2dVertex
 10
3953.385952687757
 20
2702.238450093631
 30
0.0
  0
SEQEND
  5
13B
330
137
100
AcDbEntity
  8
2
  6
Continuous
 62
     4
370
    30
  0
MTEXT
  5
13C
330
1F
100
AcDbEntity
  8
2
  6
Continuous
 62
     4
370
     9
100
AcDbMText
 10
3803.385952687757
 20
2702.238450093631
 30
0.0
 40
60.0
 41
232.8976568409
 46
60.0
 71
     7
 72
     1
  1
{\fＭＳ ゴシック;\W0.833333;\T0.750000;排風口}
 73
     1
 44
1.0
1001
ACAD
1000
ACAD_MTEXT_DEFINED_HEIGHT_BEGIN
1070
    46
1040
60.0
1000
ACAD_MTEXT_DEFINED_HEIGHT_END
  0
MTEXT
  5
13D
330
1F
100
AcDbEntity
  8
1
  6
Continuous
 62
   254
370
     9
100
AcDbMText
 10
4405.453798311195
 20
411.3295407734674
 30
0.0
 40
40.0
 41
283.5686897112
 46
40.0
 71
     7
 72
     1
  1
{\fＭＳ ゴシック;\T0.760398;2008.03.24}
 73
     1
 44
1.0
1001
ACAD
1000
ACAD_MTEXT_DEFINED_HEIGHT_BEGIN
1070
    46
1040
40.0
1000
ACAD_MTEXT_DEFINED_HEIGHT_END
  0
MTEXT
  5
13E
330
1F
100
AcDbEntity
  8
1
  6
Continuous
 62
   254
370
     9
100
AcDbMText
 10
3924.403967204871
 20
222.8501816726409
 30
0.0
 40
40.0
 41
283.5686897112
 46
40.0
 71
     7
 72
     1
  1
{\fＭＳ ゴシック;\T0.760398;2008.03.24}
 73
     1
 44
1.0
1001
ACAD
1000
ACAD_MTEXT_DEFINED_HEIGHT_BEGIN
1070
    46
1040
40.0
1000
ACAD_MTEXT_DEFINED_HEIGHT_END
  0
LINE
  5
13F
330
1F
100
AcDbEntity
  8
2
  6
HIDDEN
 62
     4
370
    30
100
AcDbLine
 10
1198.398442987392
 20
921.3831748664277
 30
0.0
 11
1198.398442987392
 21
833.3831748664277
 31
0.0
  0
LINE
  5
140
330
1F
100
AcDbEntity
  8
2
  6
HIDDEN
 62
     4
370
    30
100
AcDbLine
 10
1192.398442987392
 20
927.3831748664277
 30
0.0
 11
1192.398442987392
 21
827.3831748664277
 31
0.0
  0
LINE
  5
141
330
1F
100
AcDbEntity
  8
2
  6
Continuous
 62
     4
370
    30
100
AcDbLine
 10
637.3984429873917
 20
833.3831748664277
 30
0.0
 11
1242.398442987392
 21
833.3831748664277
 31
0.0
  0
LINE
  5
142
330
1F
100
AcDbEntity
  8
2
  6
Continuous
 62
     4
370
    30
100
AcDbLine
 10
1242.398442987392
 20
921.3831748664277
 30
0.0
 11
637.3984429873917
 21
921.3831748664277
 31
0.0
  0
LINE
  5
143
330
1F
100
AcDbEntity
  8
2
  6
Continuous
 62
     4
370
    30
100
AcDbLine
 10
1242.398442987392
 20
827.3831748664277
 30
0.0
 11
637.3984429873917
 21
827.3831748664277
 31
0.0
  0
LINE
  5
144
330
1F
100
AcDbEntity
  8
2
  6
Continuous
 62
     4
370
    30
100
AcDbLine
 10
1242.398442987392
 20
927.3831748664277
 30
0.0
 11
1242.398442987392
 21
827.3831748664277
 31
0.0
  0
LINE
  5
145
330
1F
100
AcDbEntity
  8
2
  6
Continuous
 62
     4
370
    30
100
AcDbLine
 10
1222.398442987392
 20
849.8107172058169
 30
0.0
 11
1222.398442987392
 21
806.5022437722039
 31
0.0
  0
DIMENSION
  5
14F
330
1F
100
AcDbEntity
  8
2
  6
Continuous
 62
     4
370
    30
100
AcDbDimension
  2
Dim5
 10
637.398442987389
 20
440.3772408092516
 30
0.0
 11
939.898442987389
 21
440.3772408092516
 31
0.0
 70
   160
  1
<>
 71
     8
 42
-1.0
 73
     0
 74
     0
 75
     0
  3
Standard
100
AcDbAlignedDimension
 13
1242.398442987392
 23
827.3831748664277
 33
0.0
 14
637.3984429873917
 24
827.3831748664277
 34
0.0
 50
179.9999999999998
100
AcDbRotatedDimension
1001
ACAD
1000
DSTYLE
1002
{
1070
   279
1070
     1
1070
   340
1005
10C
1070
   140
1040
60.0
1070
    40
1040
1.0
1070
   147
1040
0.0
1070
    76
1070
     0
1070
    75
1070
     0
1070
   344
1005
51
1070
   343
1005
51
1070
   173
1070
     1
1070
   289
1070
     2
1070
   288
1070
     1
1070
    77
1070
     1
1070
   172
1070
     1
1070
   174
1070
     0
1070
    74
1070
     0
1070
    73
1070
     0
1070
   284
1070
     8
1070
    78
1070
     8
1070
    42
1040
20.0
1070
    44
1040
10.0
1070
    43
1040
10.0
1070
   271
1070
     2
1070
    41
1040
15.0
1002
}
  0
DIMENSION
  5
159
330
1F
100
AcDbEntity
  8
2
  6
Continuous
 62
     4
370
    30
100
AcDbDimension
  2
Dim6
 10
657.3984429873899
 20
546.3865948731807
 30
0.0
 11
939.8984429873899
 21
546.3865948731807
 31
0.0
 70
   160
  1
<>
 71
     8
 42
-1.0
 73
     0
 74
     0
 75
     0
  3
Standard
100
AcDbAlignedDimension
 13
1222.398442987392
 23
806.5022437722034
 33
0.0
 14
657.3984429873917
 24
814.1158338507155
 34
0.0
 50
179.9999999999998
100
AcDbRotatedDimension
1001
ACAD
1000
DSTYLE
1002
{
1070
   279
1070
     1
1070
   340
1005
10C
1070
   140
1040
60.0
1070
    40
1040
1.0
1070
   147
1040
0.0
1070
    76
1070
     0
1070
    75
1070
     0
1070
   344
1005
51
1070
   343
1005
51
1070
   173
1070
     1
1070
   289
1070
     2
1070
   288
1070
     1
1070
    77
1070
     1
1070
   172
1070
     1
1070
   174
1070
     0
1070
    74
1070
     0
1070
    73
1070
     0
1070
   284
1070
     8
1070
    78
1070
     8
1070
    42
1040
20.0
1070
    44
1040
10.0
1070
    43
1040
10.0
1070
   271
1070
     2
1070
    41
1040
15.0
1002
}
  0
DIMENSION
  5
163
330
1F
100
AcDbEntity
  8
2
  6
Continuous
 62
     4
370
    30
100
AcDbDimension
  2
Dim7
 10
1242.398442987389
 20
546.3865948731807
 30
0.0
 11
1312.521919709209
 21
546.3865948731807
 31
0.0
 70
   160
  1
<>
 71
     8
 42
-1.0
 73
     0
 74
     0
 75
     0
  3
Standard
100
AcDbAlignedDimension
 13
1222.398442987392
 23
806.5022437722034
 33
0.0
 14
1242.398442987392
 24
827.3831748664277
 34
0.0
100
AcDbRotatedDimension
1001
ACAD
1000
DSTYLE
1002
{
1070
   279
1070
     1
1070
   340
1005
10C
1070
   140
1040
60.0
1070
    40
1040
1.0
1070
   147
1040
0.0
1070
    76
1070
     0
1070
    75
1070
     0
1070
   344
1005
51
1070
   343
1005
51
1070
   173
1070
     1
1070
   289
1070
     2
1070
   288
1070
     1
1070
    77
1070
     1
1070
   172
1070
     1
1070
   174
1070
     0
1070
    74
1070
     0
1070
    73
1070
     0
1070
   284
1070
     8
1070
    78
1070
     8
1070
    42
1040
20.0
1070
    44
1040
10.0
1070
    43
1040
10.0
1070
   271
1070
     2
1070
    41
1040
15.0
1002
}
  0
LINE
  5
164
330
1F
100
AcDbEntity
  8
2
  6
Continuous
 62
     4
370
    30
100
AcDbLine
 10
637.3984429873917
 20
927.3831748664277
 30
0.0
 11
1242.398442987392
 21
927.3831748664277
 31
0.0
  0
LINE
  5
165
330
1F
100
AcDbEntity
  8
2
  6
HIDDEN
 62
     4
370
    30
100
AcDbLine
 10
3352.031846357643
 20
927.3831748664277
 30
0.0
 11
3352.031846357643
 21
827.3831748664277
 31
0.0
  0
LINE
  5
166
330
1F
100
AcDbEntity
  8
2
  6
HIDDEN
 62
     4
370
    30
100
AcDbLine
 10
3346.031846357643
 20
921.3831748664277
 30
0.0
 11
3346.031846357643
 21
833.3831748664277
 31
0.0
  0
LINE
  5
167
330
1F
100
AcDbEntity
  8
2
  6
Continuous
 62
     4
370
    30
100
AcDbLine
 10
3907.031846357643
 20
833.3831748664277
 30
0.0
 11
3302.031846357643
 21
833.3831748664277
 31
0.0
  0
LINE
  5
168
330
1F
100
AcDbEntity
  8
2
  6
Continuous
 62
     4
370
    30
100
AcDbLine
 10
3302.031846357643
 20
921.3831748664277
 30
0.0
 11
3907.031846357643
 21
921.3831748664277
 31
0.0
  0
LINE
  5
169
330
1F
100
AcDbEntity
  8
2
  6
Continuous
 62
     4
370
    30
100
AcDbLine
 10
3302.031846357643
 20
827.3831748664277
 30
0.0
 11
3907.031846357643
 21
827.3831748664277
 31
0.0
  0
LINE
  5
16A
330
1F
100
AcDbEntity
  8
2
  6
Continuous
 62
     4
370
    30
100
AcDbLine
 10
3302.031846357643
 20
927.3831748664277
 30
0.0
 11
3302.031846357643
 21
827.3831748664277
 31
0.0
  0
DIMENSION
  5
174
330
1F
100
AcDbEntity
  8
2
  6
Continuous
 62
     4
370
    30
100
AcDbDimension
  2
Dim8
 10
3171.417807067816
 20
977.3831748664281
 30
0.0
 11
3171.417807067816
 21
1047.870165426923
 31
0.0
 70
   160
  1
<>
 71
     8
 42
-1.0
 73
     0
 74
     0
 75
     0
  3
Standard
100
AcDbAlignedDimension
 13
3302.031846357643
 23
927.3831748664277
 33
0.0
 14
3272.031846357643
 24
977.3831748664277
 34
0.0
 50
89.99999999999991
100
AcDbRotatedDimension
1001
ACAD
1000
DSTYLE
1002
{
1070
   279
1070
     1
1070
   340
1005
10C
1070
   140
1040
60.0
1070
    40
1040
1.0
1070
   147
1040
0.0
1070
    76
1070
     0
1070
    75
1070
     0
1070
   344
1005
51
1070
   343
1005
51
1070
   173
1070
     1
1070
   289
1070
     2
1070
   288
1070
     1
1070
    77
1070
     1
1070
   172
1070
     1
1070
   174
1070
     0
1070
    74
1070
     0
1070
    73
1070
     0
1070
   284
1070
     8
1070
    78
1070
     8
1070
    42
1040
20.0
1070
    44
1040
10.0
1070
    43
1040
10.0
1070
   271
1070
     2
1070
    41
1040
15.0
1002
}
  0
DIMENSION
  5
17E
330
1F
100
AcDbEntity
  8
2
  6
Continuous
 62
     4
370
    30
100
AcDbDimension
  2
Dim9
 10
3088.202874273828
 20
927.3831748664287
 30
0.0
 11
3088.202874273828
 21
877.3831748664286
 31
0.0
 70
   160
  1
<>
 71
     8
 42
-1.0
 73
     0
 74
     0
 75
     0
  3
Standard
100
AcDbAlignedDimension
 13
3302.031846357643
 23
827.3831748664277
 33
0.0
 14
3302.031846357643
 24
927.3831748664277
 34
0.0
 50
89.99999999999991
100
AcDbRotatedDimension
1001
ACAD
1000
DSTYLE
1002
{
1070
   279
1070
     1
1070
   340
1005
10C
1070
   140
1040
60.0
1070
    40
1040
1.0
1070
   147
1040
0.0
1070
    76
1070
     0
1070
    75
1070
     0
1070
   344
1005
51
1070
   343
1005
51
1070
   173
1070
     1
1070
   289
1070
     2
1070
   288
1070
     1
1070
    77
1070
     1
1070
   172
1070
     1
1070
   174
1070
     0
1070
    74
1070
     0
1070
    73
1070
     0
1070
   284
1070
     8
1070
    78
1070
     8
1070
    42
1040
20.0
1070
    44
1040
10.0
1070
    43
1040
10.0
1070
   271
1070
     2
1070
    41
1040
15.0
1002
}
  0
LINE
  5
17F
330
1F
100
AcDbEntity
  8
2
  6
Continuous
 62
     4
370
    30
100
AcDbLine
 10
3907.031846357643
 20
927.3831748664277
 30
0.0
 11
3302.031846357643
 21
927.3831748664277
 31
0.0
  0
LINE
  5
180
330
1F
100
AcDbEntity
  8
2
  6
DASHDOT
 62
     4
370
    20
100
AcDbLine
 10
2492.943800736045
 20
3506.527551177808
 30
0.0
 11
2492.943800736045
 21
3279.495587707502
 31
0.0
  0
LINE
  5
181
330
1F
100
AcDbEntity
  8
2
  6
DASHDOT
 62
     4
370
    20
100
AcDbLine
 10
2394.41257426085
 20
3403.336416302525
 30
0.0
 11
2604.701767563728
 21
3403.336416302525
 31
0.0
  0
INSERT
  5
182
330
1F
100
AcDbEntity
  8
2
  6
Continuous
 62
     4
370
    30
100
AcDbBlockReference
  2
_OPEN
 10
2492.943800736045
 20
3403.336416302525
 30
0.0
 41
20.0
 42
20.0
 43
20.0
 50
223.8032379153443
  0
POLYLINE
  5
183
330
1F
100
AcDbEntity
  8
2
  6
Continuous
 62
     4
370
    30
100
AcDb2dPolyline
 66
     1
 10
0.0
 20
0.0
 30
0.0
  0
VERTEX
  5
184
330
183
100
AcDbEntity
  8
2
  6
Continuous
 62
     4
370
    30
100
AcDbVertex
100
AcDb2dVertex
 10
2492.943800736045
 20
3403.336416302525
 30
0.0
  0
VERTEX
  5
185
330
183
100
AcDbEntity
  8
2
  6
Continuous
 62
     4
370
    30
100
AcDbVertex
100
AcDb2dVertex
 10
2727.661212463941
 20
3628.447785506004
 30
0.0
  0
VERTEX
  5
186
330
183
100
AcDbEntity
  8
2
  6
Continuous
 62
     4
370
    30
100
AcDbVertex
100
AcDb2dVertex
 10
3087.66121246394
 20
3628.447785506004
 30
0.0
  0
SEQEND
  5
187
330
183
100
AcDbEntity
  8
2
  6
Continuous
 62
     4
370
    30
  0
MTEXT
  5
188
330
1F
100
AcDbEntity
  8
2
  6
Continuous
 62
     4
370
     9
100
AcDbMText
 10
2727.661212463941
 20
3628.447785506004
 30
0.0
 40
60.0
 41
570.25425
 46
60.0
 71
     7
 72
     1
  1
{\fＭＳ ゴシック;\T0.750000;排気ガス出口}
 73
     1
 44
1.0
1001
ACAD
1000
ACAD_MTEXT_DEFINED_HEIGHT_BEGIN
1070
    46
1040
60.0
1000
ACAD_MTEXT_DEFINED_HEIGHT_END
  0
LINE
  5
189
330
1F
100
AcDbEntity
  8
2
  6
Continuous
 62
     4
370
    30
100
AcDbLine
 10
700.6984429873919
 20
2408.945674866428
 30
0.0
 11
700.6984429873919
 21
2411.945674866428
 31
0.0
  0
LINE
  5
18A
330
1F
100
AcDbEntity
  8
2
  6
Continuous
 62
     4
370
    30
100
AcDbLine
 10
700.6984429873919
 20
2411.945674866428
 30
0.0
 11
732.6984429873919
 21
2411.945674866428
 31
0.0
  0
LINE
  5
18B
330
1F
100
AcDbEntity
  8
2
  6
Continuous
 62
     4
370
    30
100
AcDbLine
 10
732.6984429873919
 20
2411.945674866428
 30
0.0
 11
732.6984429873919
 21
2408.945674866428
 31
0.0
  0
LINE
  5
18C
330
1F
100
AcDbEntity
  8
2
  6
DASHDOT
 62
     4
370
    30
100
AcDbLine
 10
716.6984429873919
 20
2435.334799922832
 30
0.0
 11
716.6984429873919
 21
2402.463426885448
 31
0.0
  0
LINE
  5
18D
330
1F
100
AcDbEntity
  8
2
  6
Continuous
 62
     4
370
    30
100
AcDbLine
 10
706.0913989250439
 20
2423.945674866428
 30
0.0
 11
727.0907478327981
 21
2423.945674866428
 31
0.0
  0
LINE
  5
18E
330
1F
100
AcDbEntity
  8
2
  6
Continuous
 62
     4
370
    30
100
AcDbLine
 10
730.554849447939
 20
2422.445674866428
 30
0.0
 11
730.554849447939
 21
2411.945674866428
 31
0.0
  0
LINE
  5
18F
330
1F
100
AcDbEntity
  8
2
  6
Continuous
 62
     4
370
    30
100
AcDbLine
 10
702.8420365268357
 20
2411.945674866428
 30
0.0
 11
702.8420365268357
 21
2422.445674866434
 31
0.0
  0
ARC
  5
190
330
1F
100
AcDbEntity
  8
2
  6
Continuous
 62
     4
370
    30
100
AcDbCircle
 10
727.0907478327981
 20
2419.212173296899
 30
0.0
 40
4.73872687545605
100
AcDbArc
 50
43.02807185329995
 51
136.9719281466068
  0
ARC
  5
191
330
1F
100
AcDbEntity
  8
2
  6
Continuous
 62
     4
370
    30
100
AcDbCircle
 10
716.6984429873974
 20
2407.195674866422
 30
0.0
 40
16.75000000000669
100
AcDbArc
 50
65.56730232054929
 51
114.4326976794507
  0
ARC
  5
192
330
1F
100
AcDbEntity
  8
2
  6
Continuous
 62
     4
370
    30
100
AcDbCircle
 10
706.3061381419784
 20
2419.211045843514
 30
0.0
 40
4.739496272380388
100
AcDbArc
 50
43.03803549238896
 51
136.9619645076185
  0
LINE
  5
193
330
1F
100
AcDbEntity
  8
2
  6
Continuous
 62
     4
370
    30
100
AcDbLine
 10
723.6266462176745
 20
2423.945674866428
 30
0.0
 11
723.6266462176745
 21
2411.945674866428
 31
0.0
  0
LINE
  5
194
330
1F
100
AcDbEntity
  8
2
  6
Continuous
 62
     4
370
    30
100
AcDbLine
 10
709.7702397571202
 20
2423.945674866428
 30
0.0
 11
709.7702397571202
 21
2411.945674866428
 31
0.0
  0
LINE
  5
195
330
1F
100
AcDbEntity
  8
2
  6
Continuous
 62
     4
370
    30
100
AcDbLine
 10
730.554849447939
 20
2411.945674866428
 30
0.0
 11
702.8420365268357
 21
2411.945674866428
 31
0.0
  0
LINE
  5
196
330
1F
100
AcDbEntity
  8
2
  6
Continuous
 62
     4
370
    30
100
AcDbLine
 10
1172.098442987392
 20
2415.820674866428
 30
0.0
 11
1172.098442987392
 21
2418.820674866428
 31
0.0
  0
LINE
  5
197
330
1F
100
AcDbEntity
  8
2
  6
Continuous
 62
     4
370
    30
100
AcDbLine
 10
1172.098442987392
 20
2418.820674866428
 30
0.0
 11
1204.098442987392
 21
2418.820674866428
 31
0.0
  0
LINE
  5
198
330
1F
100
AcDbEntity
  8
2
  6
Continuous
 62
     4
370
    30
100
AcDbLine
 10
1204.098442987392
 20
2418.820674866428
 30
0.0
 11
1204.098442987392
 21
2415.820674866428
 31
0.0
  0
LINE
  5
199
330
1F
100
AcDbEntity
  8
2
  6
DASHDOT
 62
     4
370
    30
100
AcDbLine
 10
1188.098442987392
 20
2442.209799922832
 30
0.0
 11
1188.098442987392
 21
2409.338426885448
 31
0.0
  0
LINE
  5
19A
330
1F
100
AcDbEntity
  8
2
  6
Continuous
 62
     4
370
    30
100
AcDbLine
 10
1177.491398925045
 20
2430.820674866428
 30
0.0
 11
1198.490747832799
 21
2430.820674866428
 31
0.0
  0
LINE
  5
19B
330
1F
100
AcDbEntity
  8
2
  6
Continuous
 62
     4
370
    30
100
AcDbLine
 10
1201.95484944794
 20
2429.320674866428
 30
0.0
 11
1201.95484944794
 21
2418.820674866428
 31
0.0
  0
LINE
  5
19C
330
1F
100
AcDbEntity
  8
2
  6
Continuous
 62
     4
370
    30
100
AcDbLine
 10
1174.242036526837
 20
2418.820674866428
 30
0.0
 11
1174.242036526837
 21
2429.320674866434
 31
0.0
  0
ARC
  5
19D
330
1F
100
AcDbEntity
  8
2
  6
Continuous
 62
     4
370
    30
100
AcDbCircle
 10
1198.490747832799
 20
2426.087173296899
 30
0.0
 40
4.73872687545605
100
AcDbArc
 50
43.02807185329995
 51
136.9719281466068
  0
ARC
  5
19E
330
1F
100
AcDbEntity
  8
2
  6
Continuous
 62
     4
370
    30
100
AcDbCircle
 10
1188.098442987399
 20
2414.070674866422
 30
0.0
 40
16.75000000000669
100
AcDbArc
 50
65.5673023205521
 51
114.4326976794507
  0
ARC
  5
19F
330
1F
100
AcDbEntity
  8
2
  6
Continuous
 62
     4
370
    30
100
AcDbCircle
 10
1177.706138141979
 20
2426.086045843514
 30
0.0
 40
4.739496272380388
100
AcDbArc
 50
43.03803549238146
 51
136.961964507611
  0
LINE
  5
1A0
330
1F
100
AcDbEntity
  8
2
  6
Continuous
 62
     4
370
    30
100
AcDbLine
 10
1195.026646217675
 20
2430.820674866428
 30
0.0
 11
1195.026646217675
 21
2418.820674866428
 31
0.0
  0
LINE
  5
1A1
330
1F
100
AcDbEntity
  8
2
  6
Continuous
 62
     4
370
    30
100
AcDbLine
 10
1181.170239757122
 20
2430.820674866428
 30
0.0
 11
1181.170239757122
 21
2418.820674866428
 31
0.0
  0
LINE
  5
1A2
330
1F
100
AcDbEntity
  8
2
  6
Continuous
 62
     4
370
    30
100
AcDbLine
 10
1201.95484944794
 20
2418.820674866428
 30
0.0
 11
1174.242036526837
 21
2418.820674866428
 31
0.0
  0
LINE
  5
1A3
330
1F
100
AcDbEntity
  8
2
  6
Continuous
 62
     4
370
    30
100
AcDbLine
 10
3340.331846357642
 20
2415.820674866428
 30
0.0
 11
3340.331846357642
 21
2418.820674866428
 31
0.0
  0
LINE
  5
1A4
330
1F
100
AcDbEntity
  8
2
  6
Continuous
 62
     4
370
    30
100
AcDbLine
 10
3340.331846357642
 20
2418.820674866428
 30
0.0
 11
3372.331846357642
 21
2418.820674866428
 31
0.0
  0
LINE
  5
1A5
330
1F
100
AcDbEntity
  8
2
  6
Continuous
 62
     4
370
    30
100
AcDbLine
 10
3372.331846357642
 20
2418.820674866428
 30
0.0
 11
3372.331846357642
 21
2415.820674866428
 31
0.0
  0
LINE
  5
1A6
330
1F
100
AcDbEntity
  8
2
  6
DASHDOT
 62
     4
370
    30
100
AcDbLine
 10
3356.331846357642
 20
2442.209799922832
 30
0.0
 11
3356.331846357642
 21
2409.338426885448
 31
0.0
  0
LINE
  5
1A7
330
1F
100
AcDbEntity
  8
2
  6
Continuous
 62
     4
370
    30
100
AcDbLine
 10
3345.724802295295
 20
2430.820674866428
 30
0.0
 11
3366.724151203049
 21
2430.820674866428
 31
0.0
  0
LINE
  5
1A8
330
1F
100
AcDbEntity
  8
2
  6
Continuous
 62
     4
370
    30
100
AcDbLine
 10
3370.18825281819
 20
2429.320674866428
 30
0.0
 11
3370.18825281819
 21
2418.820674866428
 31
0.0
  0
LINE
  5
1A9
330
1F
100
AcDbEntity
  8
2
  6
Continuous
 62
     4
370
    30
100
AcDbLine
 10
3342.475439897087
 20
2418.820674866428
 30
0.0
 11
3342.475439897087
 21
2429.320674866434
 31
0.0
  0
ARC
  5
1AA
330
1F
100
AcDbEntity
  8
2
  6
Continuous
 62
     4
370
    30
100
AcDbCircle
 10
3366.724151203049
 20
2426.087173296899
 30
0.0
 40
4.73872687545605
100
AcDbArc
 50
43.02807185329995
 51
136.9719281466068
  0
ARC
  5
1AB
330
1F
100
AcDbEntity
  8
2
  6
Continuous
 62
     4
370
    30
100
AcDbCircle
 10
3356.331846357648
 20
2414.070674866422
 30
0.0
 40
16.75000000000669
100
AcDbArc
 50
65.5673023205507
 51
114.4326976794507
  0
ARC
  5
1AC
330
1F
100
AcDbEntity
  8
2
  6
Continuous
 62
     4
370
    30
100
AcDbCircle
 10
3345.939541512229
 20
2426.086045843514
 30
0.0
 40
4.739496272380388
100
AcDbArc
 50
43.03803549238521
 51
136.9619645076148
  0
LINE
  5
1AD
330
1F
100
AcDbEntity
  8
2
  6
Continuous
 62
     4
370
    30
100
AcDbLine
 10
3363.260049587925
 20
2430.820674866428
 30
0.0
 11
3363.260049587925
 21
2418.820674866428
 31
0.0
  0
LINE
  5
1AE
330
1F
100
AcDbEntity
  8
2
  6
Continuous
 62
     4
370
    30
100
AcDbLine
 10
3349.403643127371
 20
2430.820674866428
 30
0.0
 11
3349.403643127371
 21
2418.820674866428
 31
0.0
  0
LINE
  5
1AF
330
1F
100
AcDbEntity
  8
2
  6
Continuous
 62
     4
370
    30
100
AcDbLine
 10
3370.18825281819
 20
2418.820674866428
 30
0.0
 11
3342.475439897087
 21
2418.820674866428
 31
0.0
  0
LINE
  5
1B0
330
1F
100
AcDbEntity
  8
2
  6
Continuous
 62
     4
370
    30
100
AcDbLine
 10
3811.731846357643
 20
2408.945674866428
 30
0.0
 11
3811.731846357643
 21
2411.945674866428
 31
0.0
  0
LINE
  5
1B1
330
1F
100
AcDbEntity
  8
2
  6
Continuous
 62
     4
370
    30
100
AcDbLine
 10
3811.731846357643
 20
2411.945674866428
 30
0.0
 11
3843.731846357643
 21
2411.945674866428
 31
0.0
  0
LINE
  5
1B2
330
1F
100
AcDbEntity
  8
2
  6
Continuous
 62
     4
370
    30
100
AcDbLine
 10
3843.731846357643
 20
2411.945674866428
 30
0.0
 11
3843.731846357643
 21
2408.945674866428
 31
0.0
  0
LINE
  5
1B3
330
1F
100
AcDbEntity
  8
2
  6
DASHDOT
 62
     4
370
    30
100
AcDbLine
 10
3827.731846357643
 20
2435.334799922832
 30
0.0
 11
3827.731846357643
 21
2402.463426885448
 31
0.0
  0
LINE
  5
1B4
330
1F
100
AcDbEntity
  8
2
  6
Continuous
 62
     4
370
    30
100
AcDbLine
 10
3817.124802295295
 20
2423.945674866428
 30
0.0
 11
3838.124151203049
 21
2423.945674866428
 31
0.0
  0
LINE
  5
1B5
330
1F
100
AcDbEntity
  8
2
  6
Continuous
 62
     4
370
    30
100
AcDbLine
 10
3841.58825281819
 20
2422.445674866428
 30
0.0
 11
3841.58825281819
 21
2411.945674866428
 31
0.0
  0
LINE
  5
1B6
330
1F
100
AcDbEntity
  8
2
  6
Continuous
 62
     4
370
    30
100
AcDbLine
 10
3813.875439897087
 20
2411.945674866428
 30
0.0
 11
3813.875439897087
 21
2422.445674866434
 31
0.0
  0
ARC
  5
1B7
330
1F
100
AcDbEntity
  8
2
  6
Continuous
 62
     4
370
    30
100
AcDbCircle
 10
3838.124151203049
 20
2419.212173296899
 30
0.0
 40
4.73872687545605
100
AcDbArc
 50
43.02807185329995
 51
136.9719281466068
  0
ARC
  5
1B8
330
1F
100
AcDbEntity
  8
2
  6
Continuous
 62
     4
370
    30
100
AcDbCircle
 10
3827.731846357649
 20
2407.195674866422
 30
0.0
 40
16.75000000000669
100
AcDbArc
 50
65.5673023205507
 51
114.4326976794507
  0
ARC
  5
1B9
330
1F
100
AcDbEntity
  8
2
  6
Continuous
 62
     4
370
    30
100
AcDbCircle
 10
3817.33954151223
 20
2419.211045843514
 30
0.0
 40
4.739496272380388
100
AcDbArc
 50
43.03803549238521
 51
136.9619645076148
  0
LINE
  5
1BA
330
1F
100
AcDbEntity
  8
2
  6
Continuous
 62
     4
370
    30
100
AcDbLine
 10
3834.660049587926
 20
2423.945674866428
 30
0.0
 11
3834.660049587926
 21
2411.945674866428
 31
0.0
  0
LINE
  5
1BB
330
1F
100
AcDbEntity
  8
2
  6
Continuous
 62
     4
370
    30
100
AcDbLine
 10
3820.803643127372
 20
2423.945674866428
 30
0.0
 11
3820.803643127372
 21
2411.945674866428
 31
0.0
  0
LINE
  5
1BC
330
1F
100
AcDbEntity
  8
2
  6
Continuous
 62
     4
370
    30
100
AcDbLine
 10
3841.58825281819
 20
2411.945674866428
 30
0.0
 11
3813.875439897087
 21
2411.945674866428
 31
0.0
  0
LINE
  5
1BD
330
1F
100
AcDbEntity
  8
2
  6
Continuous
 62
     4
370
    30
100
AcDbLine
 10
5331.548548042769
 20
2407.383174866428
 30
0.0
 11
5331.548548042769
 21
2410.383174866428
 31
0.0
  0
LINE
  5
1BE
330
1F
100
AcDbEntity
  8
2
  6
Continuous
 62
     4
370
    30
100
AcDbLine
 10
5331.548548042769
 20
2410.383174866428
 30
0.0
 11
5363.548548042769
 21
2410.383174866428
 31
0.0
  0
LINE
  5
1BF
330
1F
100
AcDbEntity
  8
2
  6
Continuous
 62
     4
370
    30
100
AcDbLine
 10
5363.548548042769
 20
2410.383174866428
 30
0.0
 11
5363.548548042769
 21
2407.383174866428
 31
0.0
  0
LINE
  5
1C0
330
1F
100
AcDbEntity
  8
2
  6
DASHDOT
 62
     4
370
    30
100
AcDbLine
 10
5347.548548042769
 20
2433.772299922832
 30
0.0
 11
5347.548548042769
 21
2400.900926885448
 31
0.0
  0
LINE
  5
1C1
330
1F
100
AcDbEntity
  8
2
  6
Continuous
 62
     4
370
    30
100
AcDbLine
 10
5336.941503980422
 20
2422.383174866428
 30
0.0
 11
5357.940852888175
 21
2422.383174866428
 31
0.0
  0
LINE
  5
1C2
330
1F
100
AcDbEntity
  8
2
  6
Continuous
 62
     4
370
    30
100
AcDbLine
 10
5361.404954503316
 20
2420.883174866428
 30
0.0
 11
5361.404954503316
 21
2410.383174866428
 31
0.0
  0
LINE
  5
1C3
330
1F
100
AcDbEntity
  8
2
  6
Continuous
 62
     4
370
    30
100
AcDbLine
 10
5333.692141582213
 20
2410.383174866428
 30
0.0
 11
5333.692141582213
 21
2420.883174866434
 31
0.0
  0
ARC
  5
1C4
330
1F
100
AcDbEntity
  8
2
  6
Continuous
 62
     4
370
    30
100
AcDbCircle
 10
5357.940852888175
 20
2417.649673296899
 30
0.0
 40
4.73872687545605
100
AcDbArc
 50
43.02807185329995
 51
136.9719281466068
  0
ARC
  5
1C5
330
1F
100
AcDbEntity
  8
2
  6
Continuous
 62
     4
370
    30
100
AcDbCircle
 10
5347.548548042775
 20
2405.633174866422
 30
0.0
 40
16.75000000000669
100
AcDbArc
 50
65.5673023205521
 51
114.4326976794536
  0
ARC
  5
1C6
330
1F
100
AcDbEntity
  8
2
  6
Continuous
 62
     4
370
    30
100
AcDbCircle
 10
5337.156243197355
 20
2417.648545843514
 30
0.0
 40
4.739496272380388
100
AcDbArc
 50
43.03803549238896
 51
136.961964507611
  0
LINE
  5
1C7
330
1F
100
AcDbEntity
  8
2
  6
Continuous
 62
     4
370
    30
100
AcDbLine
 10
5354.476751273051
 20
2422.383174866428
 30
0.0
 11
5354.476751273051
 21
2410.383174866428
 31
0.0
  0
LINE
  5
1C8
330
1F
100
AcDbEntity
  8
2
  6
Continuous
 62
     4
370
    30
100
AcDbLine
 10
5340.620344812497
 20
2422.383174866428
 30
0.0
 11
5340.620344812497
 21
2410.383174866428
 31
0.0
  0
LINE
  5
1C9
330
1F
100
AcDbEntity
  8
2
  6
Continuous
 62
     4
370
    30
100
AcDbLine
 10
5361.404954503316
 20
2410.383174866428
 30
0.0
 11
5333.692141582213
 21
2410.383174866428
 31
0.0
  0
CIRCLE
  5
1CA
330
1F
100
AcDbEntity
  8
2
  6
Continuous
 62
     4
370
    20
100
AcDbCircle
 10
2492.943800736045
 20
3403.336416302525
 30
0.0
 40
69.9
  0
LINE
  5
1CB
330
1F
100
AcDbEntity
  8
2
  6
Continuous
 62
     4
370
    20
100
AcDbLine
 10
2423.043800736045
 20
2517.383174866428
 30
0.0
 11
2562.843800736045
 21
2517.383174866428
 31
0.0
  0
LINE
  5
1CC
330
1F
100
AcDbEntity
  8
2
  6
Continuous
 62
     4
370
    20
100
AcDbLine
 10
2457.943800736045
 20
2422.383174866428
 30
0.0
 11
2457.943800736045
 21
2417.383174866428
 31
0.0
  0
LINE
  5
1CD
330
1F
100
AcDbEntity
  8
2
  6
Continuous
 62
     4
370
    20
100
AcDbLine
 10
2527.943800736045
 20
2422.383174866427
 30
0.0
 11
2527.943800736045
 21
2417.383174866428
 31
0.0
  0
LINE
  5
1CE
330
1F
100
AcDbEntity
  8
2
  6
DOT
 62
     4
370
    20
100
AcDbLine
 10
2457.943800736045
 20
2422.383174866428
 30
0.0
 11
2457.943800736045
 21
2427.383174866428
 31
0.0
  0
LINE
  5
1CF
330
1F
100
AcDbEntity
  8
2
  6
DOT
 62
     4
370
    20
100
AcDbLine
 10
2457.943800736045
 20
2427.383174866428
 30
0.0
 11
2527.943800736045
 21
2427.383174866428
 31
0.0
  0
LINE
  5
1D0
330
1F
100
AcDbEntity
  8
2
  6
DOT
 62
     4
370
    20
100
AcDbLine
 10
2527.943800736045
 20
2427.383174866428
 30
0.0
 11
2527.943800736045
 21
2422.383174866427
 31
0.0
  0
LINE
  5
1D1
330
1F
100
AcDbEntity
  8
2
  6
Continuous
 62
     4
370
    20
100
AcDbLine
 10
2562.843800736045
 20
2517.383174866428
 30
0.0
 11
2562.843800736045
 21
2422.383174866428
 31
0.0
  0
LINE
  5
1D2
330
1F
100
AcDbEntity
  8
2
  6
Continuous
 62
     4
370
    20
100
AcDbLine
 10
2423.043800736045
 20
2422.383174866428
 30
0.0
 11
2423.043800736045
 21
2517.383174866428
 31
0.0
  0
LINE
  5
1D3
330
1F
100
AcDbEntity
  8
2
  6
Continuous
 62
     4
370
    20
100
AcDbLine
 10
2562.843800736045
 20
2422.383174866428
 30
0.0
 11
2423.043800736045
 21
2422.383174866428
 31
0.0
  0
LINE
  5
1D4
330
1F
100
AcDbEntity
  8
2
  6
DASHDOT
 62
     4
370
    20
100
AcDbLine
 10
2492.943800736045
 20
2560.254411294296
 30
0.0
 11
2492.943800736045
 21
2372.735385419123
 31
0.0
  0
LINE
  5
1D5
330
1F
100
AcDbEntity
  8
2
  6
Continuous
 62
     4
370
    20
100
AcDbLine
 10
3362.131846357642
 20
2517.383174866428
 30
0.0
 11
3501.931846357642
 21
2517.383174866428
 31
0.0
  0
LINE
  5
1D6
330
1F
100
AcDbEntity
  8
2
  6
Continuous
 62
     4
370
    20
100
AcDbLine
 10
3397.031846357642
 20
2422.383174866428
 30
0.0
 11
3397.031846357642
 21
2417.383174866428
 31
0.0
  0
LINE
  5
1D7
330
1F
100
AcDbEntity
  8
2
  6
Continuous
 62
     4
370
    20
100
AcDbLine
 10
3467.031846357642
 20
2422.383174866427
 30
0.0
 11
3467.031846357642
 21
2417.383174866428
 31
0.0
  0
LINE
  5
1D8
330
1F
100
AcDbEntity
  8
2
  6
DOT
 62
     4
370
    20
100
AcDbLine
 10
3397.031846357642
 20
2422.383174866428
 30
0.0
 11
3397.031846357642
 21
2427.383174866428
 31
0.0
  0
LINE
  5
1D9
330
1F
100
AcDbEntity
  8
2
  6
DOT
 62
     4
370
    20
100
AcDbLine
 10
3397.031846357642
 20
2427.383174866428
 30
0.0
 11
3467.031846357642
 21
2427.383174866428
 31
0.0
  0
LINE
  5
1DA
330
1F
100
AcDbEntity
  8
2
  6
DOT
 62
     4
370
    20
100
AcDbLine
 10
3467.031846357642
 20
2427.383174866428
 30
0.0
 11
3467.031846357642
 21
2422.383174866427
 31
0.0
  0
LINE
  5
1DB
330
1F
100
AcDbEntity
  8
2
  6
Continuous
 62
     4
370
    20
100
AcDbLine
 10
3501.931846357642
 20
2517.383174866428
 30
0.0
 11
3501.931846357642
 21
2422.383174866428
 31
0.0
  0
LINE
  5
1DC
330
1F
100
AcDbEntity
  8
2
  6
Continuous
 62
     4
370
    20
100
AcDbLine
 10
3362.131846357642
 20
2422.383174866428
 30
0.0
 11
3362.131846357642
 21
2517.383174866428
 31
0.0
  0
LINE
  5
1DD
330
1F
100
AcDbEntity
  8
2
  6
Continuous
 62
     4
370
    20
100
AcDbLine
 10
3501.931846357642
 20
2422.383174866428
 30
0.0
 11
3362.131846357642
 21
2422.383174866428
 31
0.0
  0
LINE
  5
1DE
330
1F
100
AcDbEntity
  8
2
  6
DASHDOT
 62
     4
370
    20
100
AcDbLine
 10
3432.031846357642
 20
2560.254411294296
 30
0.0
 11
3432.031846357642
 21
2372.735385419123
 31
0.0
  0
LINE
  5
1DF
330
1F
100
AcDbEntity
  8
2
  6
Continuous
 62
     4
370
    20
100
AcDbLine
 10
1042.498442987393
 20
2517.383174866428
 30
0.0
 11
1182.298442987392
 21
2517.383174866428
 31
0.0
  0
LINE
  5
1E0
330
1F
100
AcDbEntity
  8
2
  6
Continuous
 62
     4
370
    20
100
AcDbLine
 10
1077.398442987393
 20
2422.383174866428
 30
0.0
 11
1077.398442987393
 21
2417.383174866428
 31
0.0
  0
LINE
  5
1E1
330
1F
100
AcDbEntity
  8
2
  6
Continuous
 62
     4
370
    20
100
AcDbLine
 10
1147.398442987393
 20
2422.383174866427
 30
0.0
 11
1147.398442987393
 21
2417.383174866428
 31
0.0
  0
LINE
  5
1E2
330
1F
100
AcDbEntity
  8
2
  6
DOT
 62
     4
370
    20
100
AcDbLine
 10
1077.398442987393
 20
2422.383174866428
 30
0.0
 11
1077.398442987393
 21
2427.383174866428
 31
0.0
  0
LINE
  5
1E3
330
1F
100
AcDbEntity
  8
2
  6
DOT
 62
     4
370
    20
100
AcDbLine
 10
1077.398442987393
 20
2427.383174866428
 30
0.0
 11
1147.398442987393
 21
2427.383174866428
 31
0.0
  0
LINE
  5
1E4
330
1F
100
AcDbEntity
  8
2
  6
DOT
 62
     4
370
    20
100
AcDbLine
 10
1147.398442987393
 20
2427.383174866428
 30
0.0
 11
1147.398442987393
 21
2422.383174866427
 31
0.0
  0
LINE
  5
1E5
330
1F
100
AcDbEntity
  8
2
  6
Continuous
 62
     4
370
    20
100
AcDbLine
 10
1182.298442987392
 20
2517.383174866428
 30
0.0
 11
1182.298442987392
 21
2422.383174866428
 31
0.0
  0
LINE
  5
1E6
330
1F
100
AcDbEntity
  8
2
  6
Continuous
 62
     4
370
    20
100
AcDbLine
 10
1042.498442987393
 20
2422.383174866428
 30
0.0
 11
1042.498442987393
 21
2517.383174866428
 31
0.0
  0
LINE
  5
1E7
330
1F
100
AcDbEntity
  8
2
  6
Continuous
 62
     4
370
    20
100
AcDbLine
 10
1182.298442987392
 20
2422.383174866428
 30
0.0
 11
1042.498442987393
 21
2422.383174866428
 31
0.0
  0
LINE
  5
1E8
330
1F
100
AcDbEntity
  8
2
  6
DASHDOT
 62
     4
370
    20
100
AcDbLine
 10
1112.398442987393
 20
2560.254411294296
 30
0.0
 11
1112.398442987393
 21
2372.735385419123
 31
0.0
  0
MTEXT
  5
1E9
330
1F
100
AcDbEntity
  8
1
  6
Continuous
 62
   254
370
     9
100
AcDbMText
 10
3832.939524553988
 20
277.7702746958214
 30
0.0
 40
40.0
 41
58.85130442360001
 46
40.0
 71
     7
 72
     1
  1
{\fＭＳ ゴシック;\T1.023271;X1}
 73
     1
 44
1.0
1001
ACAD
1000
ACAD_MTEXT_DEFINED_HEIGHT_BEGIN
1070
    46
1040
40.0
1000
ACAD_MTEXT_DEFINED_HEIGHT_END
  0
MTEXT
  5
1EA
330
1F
100
AcDbEntity
  8
1
  6
Continuous
 62
   254
370
     9
100
AcDbMText
 10
3924.403967204871
 20
275.3501628971787
 30
0.0
 40
40.0
 41
283.4302800676
 46
40.0
 71
     7
 72
     1
  1
{\fＭＳ ゴシック;\T0.764429;2008.04.26}
 73
     1
 44
1.0
1001
ACAD
1000
ACAD_MTEXT_DEFINED_HEIGHT_BEGIN
1070
    46
1040
40.0
1000
ACAD_MTEXT_DEFINED_HEIGHT_END
  0
LINE
  5
1EB
330
1F
100
AcDbEntity
  8
2
  6
DOT
 62
     4
370
    30
100
AcDbLine
 10
1192.398442987392
 20
812.9154716683568
 30
0.0
 11
1192.398442987392
 21
853.850878064499
 31
0.0
  0
LINE
  5
1EC
330
1F
100
AcDbEntity
  8
2
  6
DOT
 62
     4
370
    30
100
AcDbLine
 10
1127.398442987392
 20
853.850878064499
 30
0.0
 11
1192.398442987392
 21
812.9154716683568
 31
0.0
  0
LINE
  5
1ED
330
1F
100
AcDbEntity
  8
2
  6
DOT
 62
     4
370
    30
100
AcDbLine
 10
1192.398442987392
 20
853.850878064499
 30
0.0
 11
1127.398442987392
 21
812.9154716683568
 31
0.0
  0
LINE
  5
1EE
330
1F
100
AcDbEntity
  8
2
  6
Continuous
 62
     4
370
    30
100
AcDbLine
 10
2707.643800736045
 20
2342.383174866428
 30
0.0
 11
2707.643800736045
 21
2417.383174866428
 31
0.0
  0
LINE
  5
1EF
330
1F
100
AcDbEntity
  8
2
  6
Continuous
 62
     4
370
    30
100
AcDbLine
 10
2637.643800736045
 20
2342.383174866428
 30
0.0
 11
2637.643800736045
 21
2291.383174866428
 31
0.0
  0
LINE
  5
1F0
330
1F
100
AcDbEntity
  8
2
  6
Continuous
 62
     4
370
    30
100
AcDbLine
 10
2658.643800736045
 20
833.3831748664277
 30
0.0
 11
2702.643800736045
 21
833.3831748664277
 31
0.0
  0
LINE
  5
1F1
330
1F
100
AcDbEntity
  8
2
  6
Continuous
 62
     4
370
    30
100
AcDbLine
 10
2658.643800736045
 20
921.3831748664277
 30
0.0
 11
2658.643800736045
 21
833.3831748664277
 31
0.0
  0
LINE
  5
1F2
330
1F
100
AcDbEntity
  8
2
  6
Continuous
 62
     4
370
    30
100
AcDbLine
 10
2702.643800736045
 20
921.3831748664277
 30
0.0
 11
2658.643800736045
 21
921.3831748664277
 31
0.0
  0
LINE
  5
1F3
330
1F
100
AcDbEntity
  8
2
  6
Continuous
 62
     4
370
    30
100
AcDbLine
 10
2652.643800736045
 20
927.3831748664277
 30
0.0
 11
2652.643800736045
 21
827.3831748664277
 31
0.0
  0
LINE
  5
1F4
330
1F
100
AcDbEntity
  8
2
  6
Continuous
 62
     4
370
    30
100
AcDbLine
 10
2702.643800736045
 20
927.3831748664277
 30
0.0
 11
2702.643800736045
 21
827.3831748664277
 31
0.0
  0
LINE
  5
1F5
330
1F
100
AcDbEntity
  8
2
  6
Continuous
 62
     4
370
    30
100
AcDbLine
 10
2707.643800736045
 20
978.5399821269164
 30
0.0
 11
2707.643800736045
 21
2292.383174866428
 31
0.0
  0
LINE
  5
1F6
330
1F
100
AcDbEntity
  8
2
  6
Continuous
 62
     4
370
    30
100
AcDbLine
 10
2707.643800736045
 20
927.3831748664277
 30
0.0
 11
2707.643800736045
 21
978.3831748664277
 31
0.0
  0
LINE
  5
1F7
330
1F
100
AcDbEntity
  8
2
  6
Continuous
 62
     4
370
    30
100
AcDbLine
 10
2702.643800736045
 20
927.3831748664277
 30
0.0
 11
2707.643800736045
 21
927.3831748664277
 31
0.0
  0
LINE
  5
1F8
330
1F
100
AcDbEntity
  8
2
  6
Continuous
 62
     4
370
    30
100
AcDbLine
 10
2607.643800736045
 20
848.3831690660961
 30
0.0
 11
2607.643800736045
 21
808.8320517751256
 31
0.0
  0
INSERT
  5
1F9
330
1F
100
AcDbEntity
  8
2
  6
Continuous
 62
     4
370
    30
100
AcDbBlockReference
  2
_OPEN
 10
2607.643800736045
 20
827.3831748664277
 30
0.0
 41
20.0
 42
20.0
 43
20.0
 50
137.4392444190701
  0
POLYLINE
  5
1FA
330
1F
100
AcDbEntity
  8
2
  6
Continuous
 62
     4
370
    30
100
AcDb2dPolyline
 66
     1
 10
0.0
 20
0.0
 30
0.0
  0
VERTEX
  5
1FB
330
1FA
100
AcDbEntity
  8
2
  6
Continuous
 62
     4
370
    30
100
AcDbVertex
100
AcDb2dVertex
 10
2607.643800736045
 20
827.3831748664277
 30
0.0
  0
VERTEX
  5
1FC
330
1FA
100
AcDbEntity
  8
2
  6
Continuous
 62
     4
370
    30
100
AcDbVertex
100
AcDb2dVertex
 10
2917.642012442779
 20
542.7168319618565
 30
0.0
  0
VERTEX
  5
1FD
330
1FA
100
AcDbEntity
  8
2
  6
Continuous
 62
     4
370
    30
100
AcDbVertex
100
AcDb2dVertex
 10
3097.64201244278
 20
542.7168319618565
 30
0.0
  0
SEQEND
  5
1FE
330
1FA
100
AcDbEntity
  8
2
  6
Continuous
 62
     4
370
    30
  0
MTEXT
  5
1FF
330
1F
100
AcDbEntity
  8
2
  6
Continuous
 62
     4
370
     9
100
AcDbMText
 10
2917.64201244278
 20
542.7168319618565
 30
0.0
 40
60.0
 41
269.1042
 46
60.0
 71
     7
 72
     1
  1
{\fＭＳ ゴシック;\T0.750000;4-Φ20}
 73
     1
 44
1.0
1001
ACAD
1000
ACAD_MTEXT_DEFINED_HEIGHT_BEGIN
1070
    46
1040
60.0
1000
ACAD_MTEXT_DEFINED_HEIGHT_END
  0
DIMENSION
  5
209
330
1F
100
AcDbEntity
  8
2
  6
Continuous
 62
     4
370
    30
100
AcDbDimension
  2
Dim10
 10
2607.643800736043
 20
546.3865948731807
 30
0.0
 11
2655.143800736042
 21
546.3865948731807
 31
0.0
 70
   160
  1
<>
 71
     8
 42
-1.0
 73
     0
 74
     0
 75
     0
  3
Standard
100
AcDbAlignedDimension
 13
2702.643800736045
 23
827.3831748664277
 33
0.0
 14
2607.643800736045
 24
808.8320517751251
 34
0.0
 50
179.9999999999998
100
AcDbRotatedDimension
1001
ACAD
1000
DSTYLE
1002
{
1070
   279
1070
     1
1070
   340
1005
10C
1070
   140
1040
60.0
1070
    40
1040
1.0
1070
   147
1040
0.0
1070
    76
1070
     0
1070
    75
1070
     0
1070
   344
1005
51
1070
   343
1005
51
1070
   173
1070
     1
1070
   289
1070
     2
1070
   288
1070
     1
1070
    77
1070
     1
1070
   172
1070
     1
1070
   174
1070
     0
1070
    74
1070
     0
1070
    73
1070
     0
1070
   284
1070
     8
1070
    78
1070
     8
1070
    42
1040
20.0
1070
    44
1040
10.0
1070
    43
1040
10.0
1070
   271
1070
     2
1070
    41
1040
15.0
1002
}
  0
INSERT
  5
213
330
1F
100
AcDbEntity
  8
0
100
AcDbBlockReference
  2
*G26
 10
0.0
 20
0.0
 30
0.0
  0
CIRCLE
  5
214
330
1F
100
AcDbEntity
  8
2
  6
Continuous
 62
     4
370
    30
100
AcDbCircle
 10
2623.343800736045
 20
3327.636416302525
 30
0.0
 40
12.0
  0
LINE
  5
215
330
1F
100
AcDbEntity
  8
2
  6
DASHDOT
 62
     4
370
    30
100
AcDbLine
 10
2623.343800736045
 20
3352.429072496242
 30
0.0
 11
2623.343800736045
 21
3304.967731747076
 31
0.0
  0
LINE
  5
216
330
1F
100
AcDbEntity
  8
2
  6
DASHDOT
 62
     4
370
    30
100
AcDbLine
 10
2601.257334561958
 20
3327.636416302525
 30
0.0
 11
2647.927652965306
 21
3327.636416302525
 31
0.0
  0
LINE
  5
217
330
1F
100
AcDbEntity
  8
2
  6
DASHDOT
 62
     4
370
    30
100
AcDbLine
 10
2601.257334561958
 20
3799.036416302526
 30
0.0
 11
2647.927652965306
 21
3799.036416302526
 31
0.0
  0
LINE
  5
218
330
1F
100
AcDbEntity
  8
2
  6
DASHDOT
 62
     4
370
    30
100
AcDbLine
 10
2623.343800736045
 20
3823.829072496243
 30
0.0
 11
2623.343800736045
 21
3776.367731747075
 31
0.0
  0
CIRCLE
  5
219
330
1F
100
AcDbEntity
  8
2
  6
Continuous
 62
     4
370
    30
100
AcDbCircle
 10
2623.343800736045
 20
3799.036416302526
 30
0.0
 40
12.0
  0
INSERT
  5
223
330
1F
100
AcDbEntity
  8
0
100
AcDbBlockReference
  2
*G27
 10
0.0
 20
0.0
 30
0.0
  0
LINE
  5
224
330
1F
100
AcDbEntity
  8
2
  6
DOT
 62
     4
370
    30
100
AcDbLine
 10
2651.043800736044
 20
3826.736416302525
 30
0.0
 11
2651.043800736044
 21
3299.936416302525
 31
0.0
  0
LINE
  5
225
330
1F
100
AcDbEntity
  8
2
  6
DOT
 62
     4
370
    30
100
AcDbLine
 10
2653.343800736045
 20
3829.036416302526
 30
0.0
 11
2653.343800736045
 21
3297.636416302525
 31
0.0
  0
LINE
  5
226
330
1F
100
AcDbEntity
  8
2
  6
Continuous
 62
     4
370
    30
100
AcDbLine
 10
2607.343800736045
 20
2417.383174866428
 30
0.0
 11
2607.343800736045
 21
2420.383174866428
 31
0.0
  0
LINE
  5
227
330
1F
100
AcDbEntity
  8
2
  6
Continuous
 62
     4
370
    30
100
AcDbLine
 10
2607.343800736045
 20
2420.383174866428
 30
0.0
 11
2639.343800736045
 21
2420.383174866428
 31
0.0
  0
LINE
  5
228
330
1F
100
AcDbEntity
  8
2
  6
Continuous
 62
     4
370
    30
100
AcDbLine
 10
2639.343800736045
 20
2420.383174866428
 30
0.0
 11
2639.343800736045
 21
2417.383174866428
 31
0.0
  0
LINE
  5
229
330
1F
100
AcDbEntity
  8
2
  6
DASHDOT
 62
     4
370
    30
100
AcDbLine
 10
2623.343800736045
 20
2443.772299922832
 30
0.0
 11
2623.343800736045
 21
2410.900926885448
 31
0.0
  0
LINE
  5
22A
330
1F
100
AcDbEntity
  8
2
  6
Continuous
 62
     4
370
    30
100
AcDbLine
 10
2612.736756673697
 20
2432.383174866428
 30
0.0
 11
2633.736105581451
 21
2432.383174866428
 31
0.0
  0
LINE
  5
22B
330
1F
100
AcDbEntity
  8
2
  6
Continuous
 62
     4
370
    30
100
AcDbLine
 10
2637.200207196592
 20
2430.883174866428
 30
0.0
 11
2637.200207196592
 21
2420.383174866428
 31
0.0
  0
LINE
  5
22C
330
1F
100
AcDbEntity
  8
2
  6
Continuous
 62
     4
370
    30
100
AcDbLine
 10
2609.487394275489
 20
2420.383174866428
 30
0.0
 11
2609.487394275489
 21
2430.883174866434
 31
0.0
  0
ARC
  5
22D
330
1F
100
AcDbEntity
  8
2
  6
Continuous
 62
     4
370
    30
100
AcDbCircle
 10
2633.736105581451
 20
2427.649673296899
 30
0.0
 40
4.73872687545605
100
AcDbArc
 50
43.02807185329995
 51
136.9719281466068
  0
ARC
  5
22E
330
1F
100
AcDbEntity
  8
2
  6
Continuous
 62
     4
370
    30
100
AcDbCircle
 10
2623.343800736051
 20
2415.633174866422
 30
0.0
 40
16.75000000000669
100
AcDbArc
 50
65.5673023205507
 51
114.4326976794507
  0
ARC
  5
22F
330
1F
100
AcDbEntity
  8
2
  6
Continuous
 62
     4
370
    30
100
AcDbCircle
 10
2612.951495890631
 20
2427.648545843514
 30
0.0
 40
4.739496272380388
100
AcDbArc
 50
43.03803549238521
 51
136.9619645076148
  0
LINE
  5
230
330
1F
100
AcDbEntity
  8
2
  6
Continuous
 62
     4
370
    30
100
AcDbLine
 10
2630.272003966327
 20
2432.383174866428
 30
0.0
 11
2630.272003966327
 21
2420.383174866428
 31
0.0
  0
LINE
  5
231
330
1F
100
AcDbEntity
  8
2
  6
Continuous
 62
     4
370
    30
100
AcDbLine
 10
2616.415597505773
 20
2432.383174866428
 30
0.0
 11
2616.415597505773
 21
2420.383174866428
 31
0.0
  0
LINE
  5
232
330
1F
100
AcDbEntity
  8
2
  6
Continuous
 62
     4
370
    30
100
AcDbLine
 10
2637.200207196592
 20
2420.383174866428
 30
0.0
 11
2609.487394275489
 21
2420.383174866428
 31
0.0
  0
LINE
  5
233
330
1F
100
AcDbEntity
  8
2
  6
Continuous
 62
     4
370
    30
100
AcDbLine
 10
2707.643800736045
 20
3243.336416302525
 30
0.0
 11
2707.643800736045
 21
3883.336416302526
 31
0.0
  0
LINE
  5
234
330
1F
100
AcDbEntity
  8
2
  6
Continuous
 62
     4
370
    30
100
AcDbLine
 10
1667.643800736045
 20
2417.383174866428
 30
0.0
 11
1667.643800736045
 21
2342.383174866428
 31
0.0
  0
LINE
  5
235
330
1F
100
AcDbEntity
  8
2
  6
Continuous
 62
     4
370
    30
100
AcDbLine
 10
1716.643800736045
 20
833.3831748664277
 30
0.0
 11
1682.643800736045
 21
833.3831748664277
 31
0.0
  0
LINE
  5
236
330
1F
100
AcDbEntity
  8
2
  6
Continuous
 62
     4
370
    30
100
AcDbLine
 10
1682.643800736044
 20
921.3831748664277
 30
0.0
 11
1716.643800736045
 21
921.3831748664277
 31
0.0
  0
LINE
  5
237
330
1F
100
AcDbEntity
  8
2
  6
Continuous
 62
     4
370
    30
100
AcDbLine
 10
1716.643800736045
 20
833.3831748664277
 30
0.0
 11
1672.643800736045
 21
833.3831748664277
 31
0.0
  0
LINE
  5
238
330
1F
100
AcDbEntity
  8
2
  6
Continuous
 62
     4
370
    30
100
AcDbLine
 10
1716.643800736045
 20
921.3831748664277
 30
0.0
 11
1716.643800736045
 21
833.3831748664277
 31
0.0
  0
LINE
  5
239
330
1F
100
AcDbEntity
  8
2
  6
Continuous
 62
     4
370
    30
100
AcDbLine
 10
1672.643800736045
 20
921.3831748664277
 30
0.0
 11
1716.643800736045
 21
921.3831748664277
 31
0.0
  0
LINE
  5
23A
330
1F
100
AcDbEntity
  8
2
  6
Continuous
 62
     4
370
    30
100
AcDbLine
 10
1722.643800736045
 20
927.3831748664277
 30
0.0
 11
1722.643800736045
 21
827.3831748664277
 31
0.0
  0
LINE
  5
23B
330
1F
100
AcDbEntity
  8
2
  6
Continuous
 62
     4
370
    30
100
AcDbLine
 10
1667.643800736045
 20
2292.383174866428
 30
0.0
 11
1667.643800736045
 21
2285.383174866428
 31
0.0
  0
LINE
  5
23C
330
1F
100
AcDbEntity
  8
2
  6
Continuous
 62
     4
370
    30
100
AcDbLine
 10
1716.643800736045
 20
833.3831748664277
 30
0.0
 11
1672.643800736045
 21
833.3831748664277
 31
0.0
  0
LINE
  5
23D
330
1F
100
AcDbEntity
  8
2
  6
Continuous
 62
     4
370
    30
100
AcDbLine
 10
1672.643800736045
 20
921.3831748664277
 30
0.0
 11
1716.643800736045
 21
921.3831748664277
 31
0.0
  0
LINE
  5
23E
330
1F
100
AcDbEntity
  8
2
  6
Continuous
 62
     4
370
    30
100
AcDbLine
 10
1672.643800736045
 20
827.3831748664277
 30
0.0
 11
1672.643800736045
 21
927.3831748664277
 31
0.0
  0
LINE
  5
23F
330
1F
100
AcDbEntity
  8
2
  6
Continuous
 62
     4
370
    30
100
AcDbLine
 10
1667.643800736045
 20
978.3831748664277
 30
0.0
 11
1667.643800736045
 21
2285.383174866428
 31
0.0
  0
LINE
  5
240
330
1F
100
AcDbEntity
  8
2
  6
Continuous
 62
     4
370
    30
100
AcDbLine
 10
1737.643800736045
 20
2342.383174866428
 30
0.0
 11
1737.643800736045
 21
2292.383174866428
 31
0.0
  0
LINE
  5
241
330
1F
100
AcDbEntity
  8
2
  6
Continuous
 62
     4
370
    30
100
AcDbLine
 10
1667.643800736045
 20
927.3831748664277
 30
0.0
 11
1667.643800736045
 21
978.3831748664277
 31
0.0
  0
LINE
  5
242
330
1F
100
AcDbEntity
  8
2
  6
Continuous
 62
     4
370
    30
100
AcDbLine
 10
1672.643800736045
 20
927.3831748664277
 30
0.0
 11
1667.643800736045
 21
927.3831748664277
 31
0.0
  0
DIMENSION
  5
24C
330
1F
100
AcDbEntity
  8
2
  6
Continuous
 62
     4
370
    30
100
AcDbDimension
  2
Dim11
 10
1439.288375460877
 20
2417.383174866429
 30
0.0
 11
1439.288375460877
 21
1622.383174866429
 31
0.0
 70
   160
  1
<>
 71
     8
 42
-1.0
 73
     0
 74
     0
 75
     0
  3
Standard
100
AcDbAlignedDimension
 13
1672.643800736045
 23
827.3831748664277
 33
0.0
 14
1667.643800736045
 24
2417.383174866428
 34
0.0
 50
89.99999999999991
100
AcDbRotatedDimension
1001
ACAD
1000
DSTYLE
1002
{
1070
   279
1070
     1
1070
   340
1005
10C
1070
   140
1040
60.0
1070
    40
1040
1.0
1070
   147
1040
0.0
1070
    76
1070
     0
1070
    75
1070
     0
1070
   344
1005
51
1070
   343
1005
51
1070
   173
1070
     1
1070
   289
1070
     2
1070
   288
1070
     1
1070
    77
1070
     1
1070
   172
1070
     1
1070
   174
1070
     0
1070
    74
1070
     0
1070
    73
1070
     0
1070
   284
1070
     8
1070
    78
1070
     8
1070
    42
1040
20.0
1070
    44
1040
10.0
1070
    43
1040
10.0
1070
   271
1070
     2
1070
    41
1040
15.0
1002
}
  0
DIMENSION
  5
256
330
1F
100
AcDbEntity
  8
2
  6
Continuous
 62
     4
370
    30
100
AcDbDimension
  2
Dim12
 10
1552.546707740789
 20
927.3831748664277
 30
0.0
 11
1552.546707740789
 21
877.3831748664281
 31
0.0
 70
   160
  1
<>
 71
     8
 42
-1.0
 73
     0
 74
     0
 75
     0
  3
Standard
100
AcDbAlignedDimension
 13
1672.643800736045
 23
827.3831748664277
 33
0.0
 14
1667.643800736045
 24
927.3831748664277
 34
0.0
 50
89.99999999999991
100
AcDbRotatedDimension
1001
ACAD
1000
DSTYLE
1002
{
1070
   279
1070
     1
1070
   340
1005
10C
1070
   140
1040
60.0
1070
    40
1040
1.0
1070
   147
1040
0.0
1070
    76
1070
     0
1070
    75
1070
     0
1070
   344
1005
51
1070
   343
1005
51
1070
   173
1070
     1
1070
   289
1070
     2
1070
   288
1070
     1
1070
    77
1070
     1
1070
   172
1070
     1
1070
   174
1070
     0
1070
    74
1070
     0
1070
    73
1070
     0
1070
   284
1070
     8
1070
    78
1070
     8
1070
    42
1040
20.0
1070
    44
1040
10.0
1070
    43
1040
10.0
1070
   271
1070
     2
1070
    41
1040
15.0
1002
}
  0
LINE
  5
257
330
1F
100
AcDbEntity
  8
2
  6
DOT
 62
     4
370
    30
100
AcDbLine
 10
1669.943800736045
 20
3881.036416302526
 30
0.0
 11
1669.943800736045
 21
3290.636416302526
 31
0.0
  0
LINE
  5
258
330
1F
100
AcDbEntity
  8
2
  6
Continuous
 62
     4
370
    30
100
AcDbLine
 10
1667.643800736045
 20
3288.336416302526
 30
0.0
 11
1667.643800736045
 21
3883.336416302526
 31
0.0
  0
LINE
  5
259
330
1F
100
AcDbEntity
  8
2
  6
Continuous
 62
     4
370
    30
100
AcDbLine
 10
1667.643800736045
 20
3243.336416302526
 30
0.0
 11
1667.643800736045
 21
3288.336416302526
 31
0.0
  0
LINE
  5
25A
330
1F
100
AcDbEntity
  8
2
  6
Continuous
 62
     4
370
    30
100
AcDbLine
 10
1767.643800736045
 20
846.3067354083194
 30
0.0
 11
1767.643800736045
 21
811.1062410193556
 31
0.0
  0
DIMENSION
  5
264
330
1F
100
AcDbEntity
  8
2
  6
Continuous
 62
     4
370
    30
100
AcDbDimension
  2
Dim13
 10
1672.643800736042
 20
546.3865948731807
 30
0.0
 11
1720.143800736042
 21
546.3865948731807
 31
0.0
 70
   160
  1
<>
 71
     8
 42
-1.0
 73
     0
 74
     0
 75
     0
  3
Standard
100
AcDbAlignedDimension
 13
1767.643800736045
 23
811.1062410193551
 33
0.0
 14
1672.643800736045
 24
827.3831748664277
 34
0.0
 50
179.9999999999998
100
AcDbRotatedDimension
1001
ACAD
1000
DSTYLE
1002
{
1070
   279
1070
     1
1070
   340
1005
10C
1070
   140
1040
60.0
1070
    40
1040
1.0
1070
   147
1040
0.0
1070
    76
1070
     0
1070
    75
1070
     0
1070
   344
1005
51
1070
   343
1005
51
1070
   173
1070
     1
1070
   289
1070
     2
1070
   288
1070
     1
1070
    77
1070
     1
1070
   172
1070
     1
1070
   174
1070
     0
1070
    74
1070
     0
1070
    73
1070
     0
1070
   284
1070
     8
1070
    78
1070
     8
1070
    42
1040
20.0
1070
    44
1040
10.0
1070
    43
1040
10.0
1070
   271
1070
     2
1070
    41
1040
15.0
1002
}
  0
LINE
  5
265
330
1F
100
AcDbEntity
  8
2
  6
Continuous
 62
     4
370
    20
100
AcDbLine
 10
1667.643800053868
 20
3243.336416302526
 30
0.0
 11
2317.131849903304
 21
3038.275518811824
 31
0.0
  0
LINE
  5
266
330
1F
100
AcDbEntity
  8
2
  6
DASHDOT
 62
     4
370
    30
100
AcDbLine
 10
1729.857334561958
 20
3327.636416302525
 30
0.0
 11
1776.527652965306
 21
3327.636416302525
 31
0.0
  0
LINE
  5
267
330
1F
100
AcDbEntity
  8
2
  6
DASHDOT
 62
     4
370
    30
100
AcDbLine
 10
1751.943800736045
 20
3352.429072496242
 30
0.0
 11
1751.943800736045
 21
3304.967731747076
 31
0.0
  0
CIRCLE
  5
268
330
1F
100
AcDbEntity
  8
2
  6
Continuous
 62
     4
370
    30
100
AcDbCircle
 10
1751.943800736045
 20
3327.636416302525
 30
0.0
 40
12.0
  0
INSERT
  5
272
330
1F
100
AcDbEntity
  8
0
100
AcDbBlockReference
  2
*G31
 10
0.0
 20
0.0
 30
0.0
  0
LINE
  5
273
330
1F
100
AcDbEntity
  8
2
  6
DASHDOT
 62
     4
370
    30
100
AcDbLine
 10
1729.857334561958
 20
3799.036416302526
 30
0.0
 11
1776.527652965306
 21
3799.036416302526
 31
0.0
  0
LINE
  5
274
330
1F
100
AcDbEntity
  8
2
  6
DASHDOT
 62
     4
370
    30
100
AcDbLine
 10
1751.943800736045
 20
3823.829072496243
 30
0.0
 11
1751.943800736045
 21
3776.367731747075
 31
0.0
  0
CIRCLE
  5
275
330
1F
100
AcDbEntity
  8
2
  6
Continuous
 62
     4
370
    30
100
AcDbCircle
 10
1751.943800736045
 20
3799.036416302526
 30
0.0
 40
12.0
  0
INSERT
  5
27F
330
1F
100
AcDbEntity
  8
0
100
AcDbBlockReference
  2
*G32
 10
0.0
 20
0.0
 30
0.0
  0
LINE
  5
280
330
1F
100
AcDbEntity
  8
2
  6
DOT
 62
     4
370
    30
100
AcDbLine
 10
1721.943800736045
 20
3297.636416302525
 30
0.0
 11
1721.943800736045
 21
3829.036416302526
 31
0.0
  0
LINE
  5
281
330
1F
100
AcDbEntity
  8
2
  6
DOT
 62
     4
370
    30
100
AcDbLine
 10
1724.243800736045
 20
3299.936416302525
 30
0.0
 11
1724.243800736045
 21
3826.736416302525
 31
0.0
  0
LINE
  5
282
330
1F
100
AcDbEntity
  8
2
  6
Continuous
 62
     4
370
    30
100
AcDbLine
 10
1735.943800736045
 20
2417.383174866428
 30
0.0
 11
1735.943800736045
 21
2420.383174866428
 31
0.0
  0
LINE
  5
283
330
1F
100
AcDbEntity
  8
2
  6
Continuous
 62
     4
370
    30
100
AcDbLine
 10
1735.943800736045
 20
2420.383174866428
 30
0.0
 11
1767.943800736045
 21
2420.383174866428
 31
0.0
  0
LINE
  5
284
330
1F
100
AcDbEntity
  8
2
  6
Continuous
 62
     4
370
    30
100
AcDbLine
 10
1767.943800736045
 20
2420.383174866428
 30
0.0
 11
1767.943800736045
 21
2417.383174866428
 31
0.0
  0
LINE
  5
285
330
1F
100
AcDbEntity
  8
2
  6
DASHDOT
 62
     4
370
    30
100
AcDbLine
 10
1751.943800736045
 20
2443.772299922832
 30
0.0
 11
1751.943800736045
 21
2410.900926885448
 31
0.0
  0
LINE
  5
286
330
1F
100
AcDbEntity
  8
2
  6
Continuous
 62
     4
370
    30
100
AcDbLine
 10
1741.336756673697
 20
2432.383174866428
 30
0.0
 11
1762.336105581451
 21
2432.383174866428
 31
0.0
  0
LINE
  5
287
330
1F
100
AcDbEntity
  8
2
  6
Continuous
 62
     4
370
    30
100
AcDbLine
 10
1765.800207196592
 20
2430.883174866428
 30
0.0
 11
1765.800207196592
 21
2420.383174866428
 31
0.0
  0
LINE
  5
288
330
1F
100
AcDbEntity
  8
2
  6
Continuous
 62
     4
370
    30
100
AcDbLine
 10
1738.087394275489
 20
2420.383174866428
 30
0.0
 11
1738.087394275489
 21
2430.883174866434
 31
0.0
  0
ARC
  5
289
330
1F
100
AcDbEntity
  8
2
  6
Continuous
 62
     4
370
    30
100
AcDbCircle
 10
1762.336105581451
 20
2427.649673296899
 30
0.0
 40
4.73872687545605
100
AcDbArc
 50
43.02807185329995
 51
136.9719281466068
  0
ARC
  5
28A
330
1F
100
AcDbEntity
  8
2
  6
Continuous
 62
     4
370
    30
100
AcDbCircle
 10
1751.94380073605
 20
2415.633174866422
 30
0.0
 40
16.75000000000669
100
AcDbArc
 50
65.56730232054929
 51
114.4326976794507
  0
ARC
  5
28B
330
1F
100
AcDbEntity
  8
2
  6
Continuous
 62
     4
370
    30
100
AcDbCircle
 10
1741.551495890631
 20
2427.648545843514
 30
0.0
 40
4.739496272380388
100
AcDbArc
 50
43.03803549238896
 51
136.9619645076185
  0
LINE
  5
28C
330
1F
100
AcDbEntity
  8
2
  6
Continuous
 62
     4
370
    30
100
AcDbLine
 10
1758.872003966328
 20
2432.383174866428
 30
0.0
 11
1758.872003966328
 21
2420.383174866428
 31
0.0
  0
LINE
  5
28D
330
1F
100
AcDbEntity
  8
2
  6
Continuous
 62
     4
370
    30
100
AcDbLine
 10
1745.015597505773
 20
2432.383174866428
 30
0.0
 11
1745.015597505773
 21
2420.383174866428
 31
0.0
  0
LINE
  5
28E
330
1F
100
AcDbEntity
  8
2
  6
Continuous
 62
     4
370
    30
100
AcDbLine
 10
1765.800207196592
 20
2420.383174866428
 30
0.0
 11
1738.087394275489
 21
2420.383174866428
 31
0.0
  0
LINE
  5
28F
330
1F
100
AcDbEntity
  8
2
  6
DOT
 62
     4
370
    30
100
AcDbLine
 10
1722.643800736045
 20
806.4407192404813
 30
0.0
 11
1722.643800736045
 21
847.376125636624
 31
0.0
  0
LINE
  5
290
330
1F
100
AcDbEntity
  8
2
  6
DOT
 62
     4
370
    30
100
AcDbLine
 10
1722.643800736045
 20
847.376125636624
 30
0.0
 11
2122.215144672518
 21
806.4407192404813
 31
0.0
  0
LINE
  5
291
330
1F
100
AcDbEntity
  8
2
  6
DOT
 62
     4
370
    30
100
AcDbLine
 10
2122.215144672518
 20
847.376125636624
 30
0.0
 11
1722.643800736045
 21
806.4407192404813
 31
0.0
  0
LINE
  5
292
330
1F
100
AcDbEntity
  8
2
  6
Continuous
 62
     4
370
    30
100
AcDbLine
 10
2707.643800736045
 20
2417.383174866428
 30
0.0
 11
1667.643800736045
 21
2417.383174866428
 31
0.0
  0
LINE
  5
293
330
1F
100
AcDbEntity
  8
2
  6
Continuous
 62
     4
370
    30
100
AcDbLine
 10
1667.643800736045
 20
2342.383174866428
 30
0.0
 11
2707.643800736045
 21
2342.383174866428
 31
0.0
  0
LINE
  5
294
330
1F
100
AcDbEntity
  8
2
  6
Continuous
 62
     4
370
    30
100
AcDbLine
 10
2652.643800736046
 20
833.3831748664277
 30
0.0
 11
1722.643800736045
 21
833.3831748664277
 31
0.0
  0
LINE
  5
295
330
1F
100
AcDbEntity
  8
2
  6
Continuous
 62
     4
370
    30
100
AcDbLine
 10
1722.643800736045
 20
921.3831748664277
 30
0.0
 11
2652.643800736045
 21
921.3831748664277
 31
0.0
  0
LINE
  5
296
330
1F
100
AcDbEntity
  8
2
  6
Continuous
 62
     4
370
    30
100
AcDbLine
 10
1667.643800736045
 20
2292.383174866428
 30
0.0
 11
2707.643800736045
 21
2292.383174866428
 31
0.0
  0
LINE
  5
297
330
1F
100
AcDbEntity
  8
2
  6
Continuous
 62
     4
370
    30
100
AcDbLine
 10
2702.643800736045
 20
827.3831748664277
 30
0.0
 11
1672.643800736045
 21
827.3831748664277
 31
0.0
  0
LINE
  5
298
330
1F
100
AcDbEntity
  8
2
  6
Continuous
 62
     4
370
    30
100
AcDbLine
 10
1672.643800736045
 20
927.3831748664277
 30
0.0
 11
2702.643800736045
 21
927.3831748664277
 31
0.0
  0
DIMENSION
  5
2A2
330
1F
100
AcDbEntity
  8
2
  6
Continuous
 62
     4
370
    30
100
AcDbDimension
  2
Dim14
 10
2707.643800736045
 20
2589.08206812358
 30
0.0
 11
2187.643800736045
 21
2589.08206812358
 31
0.0
 70
   160
  1
<>
 71
     8
 42
-1.0
 73
     0
 74
     0
 75
     0
  3
Standard
100
AcDbAlignedDimension
 13
1667.643800736045
 23
2417.383174866428
 33
0.0
 14
2707.643800736045
 24
2417.383174866428
 34
0.0
100
AcDbRotatedDimension
1001
ACAD
1000
DSTYLE
1002
{
1070
   279
1070
     1
1070
   340
1005
10C
1070
   140
1040
60.0
1070
    40
1040
1.0
1070
   147
1040
0.0
1070
    76
1070
     0
1070
    75
1070
     0
1070
   344
1005
51
1070
   343
1005
51
1070
   173
1070
     1
1070
   289
1070
     2
1070
   288
1070
     1
1070
    77
1070
     1
1070
   172
1070
     1
1070
   174
1070
     0
1070
    74
1070
     0
1070
    73
1070
     0
1070
   284
1070
     8
1070
    78
1070
     8
1070
    42
1040
20.0
1070
    44
1040
10.0
1070
    43
1040
10.0
1070
   271
1070
     2
1070
    41
1040
15.0
1002
}
  0
DIMENSION
  5
2AC
330
1F
100
AcDbEntity
  8
2
  6
Continuous
 62
     4
370
    30
100
AcDbDimension
  2
Dim15
 10
1672.643800736042
 20
440.3772408092516
 30
0.0
 11
2187.643800736042
 21
440.3772408092516
 31
0.0
 70
   160
  1
<>
 71
     8
 42
-1.0
 73
     0
 74
     0
 75
     0
  3
Standard
100
AcDbAlignedDimension
 13
2702.643800736045
 23
827.3831748664277
 33
0.0
 14
1672.643800736045
 24
827.3831748664277
 34
0.0
 50
179.9999999999998
100
AcDbRotatedDimension
1001
ACAD
1000
DSTYLE
1002
{
1070
   279
1070
     1
1070
   340
1005
10C
1070
   140
1040
60.0
1070
    40
1040
1.0
1070
   147
1040
0.0
1070
    76
1070
     0
1070
    75
1070
     0
1070
   344
1005
51
1070
   343
1005
51
1070
   173
1070
     1
1070
   289
1070
     2
1070
   288
1070
     1
1070
    77
1070
     1
1070
   172
1070
     1
1070
   174
1070
     0
1070
    74
1070
     0
1070
    73
1070
     0
1070
   284
1070
     8
1070
    78
1070
     8
1070
    42
1040
20.0
1070
    44
1040
10.0
1070
    43
1040
10.0
1070
   271
1070
     2
1070
    41
1040
15.0
1002
}
  0
LINE
  5
2AD
330
1F
100
AcDbEntity
  8
2
  6
Continuous
 62
     4
370
    30
100
AcDbLine
 10
1667.643800736045
 20
3883.336416302526
 30
0.0
 11
2707.643800736045
 21
3883.336416302526
 31
0.0
  0
LINE
  5
2AE
330
1F
100
AcDbEntity
  8
2
  6
DOT
 62
     4
370
    30
100
AcDbLine
 10
2705.343800736045
 20
3881.036416302526
 30
0.0
 11
1669.943800736045
 21
3881.036416302526
 31
0.0
  0
DIMENSION
  5
2B8
330
1F
100
AcDbEntity
  8
2
  6
Continuous
 62
     4
370
    30
100
AcDbDimension
  2
Dim16
 10
1767.643800736042
 20
546.3865948731807
 30
0.0
 11
2187.643800736042
 21
546.3865948731807
 31
0.0
 70
   160
  1
<>
 71
     8
 42
-1.0
 73
     0
 74
     0
 75
     0
  3
Standard
100
AcDbAlignedDimension
 13
2607.643800736045
 23
808.8320517751251
 33
0.0
 14
1767.643800736045
 24
811.1062410193551
 34
0.0
 50
179.9999999999998
100
AcDbRotatedDimension
1001
ACAD
1000
DSTYLE
1002
{
1070
   279
1070
     1
1070
   340
1005
10C
1070
   140
1040
60.0
1070
    40
1040
1.0
1070
   147
1040
0.0
1070
    76
1070
     0
1070
    75
1070
     0
1070
   344
1005
51
1070
   343
1005
51
1070
   173
1070
     1
1070
   289
1070
     2
1070
   288
1070
     1
1070
    77
1070
     1
1070
   172
1070
     1
1070
   174
1070
     0
1070
    74
1070
     0
1070
    73
1070
     0
1070
   284
1070
     8
1070
    78
1070
     8
1070
    42
1040
20.0
1070
    44
1040
10.0
1070
    43
1040
10.0
1070
   271
1070
     2
1070
    41
1040
15.0
1002
}
  0
LINE
  5
2B9
330
1F
100
AcDbEntity
  8
2
  6
DOT
 62
     4
370
    30
100
AcDbLine
 10
2651.043800736044
 20
3299.936416302525
 30
0.0
 11
1724.243800736045
 21
3299.936416302525
 31
0.0
  0
LINE
  5
2BA
330
1F
100
AcDbEntity
  8
2
  6
DOT
 62
     4
370
    30
100
AcDbLine
 10
2653.343800736045
 20
3297.636416302525
 30
0.0
 11
1721.943800736045
 21
3297.636416302525
 31
0.0
  0
LINE
  5
2BB
330
1F
100
AcDbEntity
  8
2
  6
DOT
 62
     4
370
    30
100
AcDbLine
 10
1721.943800736045
 20
3826.736416302525
 30
0.0
 11
2651.043800736044
 21
3826.736416302525
 31
0.0
  0
LINE
  5
2BC
330
1F
100
AcDbEntity
  8
2
  6
DOT
 62
     4
370
    30
100
AcDbLine
 10
1721.943800736045
 20
3829.036416302526
 30
0.0
 11
2653.343800736045
 21
3829.036416302526
 31
0.0
  0
LINE
  5
2BD
330
1F
100
AcDbEntity
  8
2
  6
Continuous
 62
     4
370
    30
100
AcDbLine
 10
4391.848548042769
 20
2407.383174866428
 30
0.0
 11
5431.848548042769
 21
2407.383174866428
 31
0.0
  0
LINE
  5
2BE
330
1F
100
AcDbEntity
  8
2
  6
Continuous
 62
     4
370
    30
100
AcDbLine
 10
5431.848548042769
 20
2342.383174866428
 30
0.0
 11
4391.848548042769
 21
2342.383174866428
 31
0.0
  0
LINE
  5
2BF
330
1F
100
AcDbEntity
  8
2
  6
Continuous
 62
     4
370
    30
100
AcDbLine
 10
4391.848548042769
 20
2342.383174866428
 30
0.0
 11
4391.848548042769
 21
2417.383174866428
 31
0.0
  0
LINE
  5
2C0
330
1F
100
AcDbEntity
  8
2
  6
Continuous
 62
     4
370
    30
100
AcDbLine
 10
5431.848548042769
 20
2292.383174866428
 30
0.0
 11
4391.848548042769
 21
2292.383174866428
 31
0.0
  0
LINE
  5
2C1
330
1F
100
AcDbEntity
  8
2
  6
Continuous
 62
     4
370
    30
100
AcDbLine
 10
4391.848548042769
 20
2417.383174866428
 30
0.0
 11
5431.848548042769
 21
2417.383174866428
 31
0.0
  0
LINE
  5
2C2
330
1F
100
AcDbEntity
  8
2
  6
Continuous
 62
     4
370
    30
100
AcDbLine
 10
4396.848548042769
 20
827.3831748664277
 30
0.0
 11
5426.848548042769
 21
827.3831748664277
 31
0.0
  0
LINE
  5
2C3
330
1F
100
AcDbEntity
  8
2
  6
Continuous
 62
     4
370
    30
100
AcDbLine
 10
5426.848548042769
 20
927.3831748664277
 30
0.0
 11
4396.848548042769
 21
927.3831748664277
 31
0.0
  0
LINE
  5
2C4
330
1F
100
AcDbEntity
  8
2
  6
Continuous
 62
     4
370
    30
100
AcDbLine
 10
4446.848548042768
 20
833.3831748664277
 30
0.0
 11
5416.848548042769
 21
833.3831748664277
 31
0.0
  0
LINE
  5
2C5
330
1F
100
AcDbEntity
  8
2
  6
Continuous
 62
     4
370
    30
100
AcDbLine
 10
4440.848548042769
 20
833.3831748664277
 30
0.0
 11
4396.848548042769
 21
833.3831748664277
 31
0.0
  0
LINE
  5
2C6
330
1F
100
AcDbEntity
  8
2
  6
Continuous
 62
     4
370
    30
100
AcDbLine
 10
4440.848548042769
 20
921.3831748664277
 30
0.0
 11
4440.848548042769
 21
833.3831748664277
 31
0.0
  0
LINE
  5
2C7
330
1F
100
AcDbEntity
  8
2
  6
Continuous
 62
     4
370
    30
100
AcDbLine
 10
4396.848548042769
 20
921.3831748664277
 30
0.0
 11
4440.848548042769
 21
921.3831748664277
 31
0.0
  0
LINE
  5
2C8
330
1F
100
AcDbEntity
  8
2
  6
Continuous
 62
     4
370
    30
100
AcDbLine
 10
4446.848548042769
 20
927.3831748664277
 30
0.0
 11
4446.848548042769
 21
827.3831748664277
 31
0.0
  0
LINE
  5
2C9
330
1F
100
AcDbEntity
  8
2
  6
Continuous
 62
     4
370
    30
100
AcDbLine
 10
4396.848548042769
 20
927.3831748664277
 30
0.0
 11
4396.848548042769
 21
827.3831748664277
 31
0.0
  0
LINE
  5
2CA
330
1F
100
AcDbEntity
  8
2
  6
Continuous
 62
     4
370
    30
100
AcDbLine
 10
4397.348548042769
 20
927.3831748664277
 30
0.0
 11
4392.348548042769
 21
927.3831748664277
 31
0.0
  0
LINE
  5
2CB
330
1F
100
AcDbEntity
  8
2
  6
Continuous
 62
     4
370
    30
100
AcDbLine
 10
5426.848548042769
 20
921.3831748664277
 30
0.0
 11
4446.848548042769
 21
921.3831748664277
 31
0.0
  0
LINE
  5
2CC
330
1F
100
AcDbEntity
  8
2
  6
Continuous
 62
     4
370
    30
100
AcDbLine
 10
4456.848548042769
 20
2342.383174866428
 30
0.0
 11
4456.848548042769
 21
2292.383174866428
 31
0.0
  0
LINE
  5
2CD
330
1F
100
AcDbEntity
  8
2
  6
Continuous
 62
     4
370
    30
100
AcDbLine
 10
4460.148548042769
 20
2407.383174866428
 30
0.0
 11
4460.148548042769
 21
2410.383174866428
 31
0.0
  0
LINE
  5
2CE
330
1F
100
AcDbEntity
  8
2
  6
Continuous
 62
     4
370
    30
100
AcDbLine
 10
4460.148548042769
 20
2410.383174866428
 30
0.0
 11
4492.148548042769
 21
2410.383174866428
 31
0.0
  0
LINE
  5
2CF
330
1F
100
AcDbEntity
  8
2
  6
Continuous
 62
     4
370
    30
100
AcDbLine
 10
4492.148548042769
 20
2410.383174866428
 30
0.0
 11
4492.148548042769
 21
2407.383174866428
 31
0.0
  0
LINE
  5
2D0
330
1F
100
AcDbEntity
  8
2
  6
DASHDOT
 62
     4
370
    30
100
AcDbLine
 10
4476.148548042769
 20
2433.772299922832
 30
0.0
 11
4476.148548042769
 21
2400.900926885448
 31
0.0
  0
LINE
  5
2D1
330
1F
100
AcDbEntity
  8
2
  6
Continuous
 62
     4
370
    30
100
AcDbLine
 10
4465.541503980422
 20
2422.383174866428
 30
0.0
 11
4486.540852888175
 21
2422.383174866428
 31
0.0
  0
LINE
  5
2D2
330
1F
100
AcDbEntity
  8
2
  6
Continuous
 62
     4
370
    30
100
AcDbLine
 10
4490.004954503316
 20
2420.883174866428
 30
0.0
 11
4490.004954503316
 21
2410.383174866428
 31
0.0
  0
LINE
  5
2D3
330
1F
100
AcDbEntity
  8
2
  6
Continuous
 62
     4
370
    30
100
AcDbLine
 10
4462.292141582214
 20
2410.383174866428
 30
0.0
 11
4462.292141582214
 21
2420.883174866434
 31
0.0
  0
ARC
  5
2D4
330
1F
100
AcDbEntity
  8
2
  6
Continuous
 62
     4
370
    30
100
AcDbCircle
 10
4486.540852888175
 20
2417.649673296899
 30
0.0
 40
4.73872687545605
100
AcDbArc
 50
43.02807185329995
 51
136.9719281466068
  0
ARC
  5
2D5
330
1F
100
AcDbEntity
  8
2
  6
Continuous
 62
     4
370
    30
100
AcDbCircle
 10
4476.148548042775
 20
2405.633174866422
 30
0.0
 40
16.75000000000669
100
AcDbArc
 50
65.5673023205521
 51
114.4326976794536
  0
ARC
  5
2D6
330
1F
100
AcDbEntity
  8
2
  6
Continuous
 62
     4
370
    30
100
AcDbCircle
 10
4465.756243197356
 20
2417.648545843514
 30
0.0
 40
4.739496272380388
100
AcDbArc
 50
43.03803549238896
 51
136.961964507611
  0
LINE
  5
2D7
330
1F
100
AcDbEntity
  8
2
  6
Continuous
 62
     4
370
    30
100
AcDbLine
 10
4483.076751273052
 20
2422.383174866428
 30
0.0
 11
4483.076751273052
 21
2410.383174866428
 31
0.0
  0
LINE
  5
2D8
330
1F
100
AcDbEntity
  8
2
  6
Continuous
 62
     4
370
    30
100
AcDbLine
 10
4469.220344812497
 20
2422.383174866428
 30
0.0
 11
4469.220344812497
 21
2410.383174866428
 31
0.0
  0
LINE
  5
2D9
330
1F
100
AcDbEntity
  8
2
  6
Continuous
 62
     4
370
    30
100
AcDbLine
 10
4490.004954503316
 20
2410.383174866428
 30
0.0
 11
4462.292141582214
 21
2410.383174866428
 31
0.0
  0
LINE
  5
2DA
330
1F
100
AcDbEntity
  8
2
  6
Continuous
 62
     4
370
    20
100
AcDbLine
 10
4596.84854804277
 20
2422.383174866428
 30
0.0
 11
4596.848548042769
 21
2417.383174866428
 31
0.0
  0
LINE
  5
2DB
330
1F
100
AcDbEntity
  8
2
  6
Continuous
 62
     4
370
    20
100
AcDbLine
 10
4526.848548042769
 20
2422.383174866427
 30
0.0
 11
4526.848548042769
 21
2417.383174866428
 31
0.0
  0
LINE
  5
2DC
330
1F
100
AcDbEntity
  8
2
  6
DOT
 62
     4
370
    20
100
AcDbLine
 10
4596.848548042769
 20
2422.383174866428
 30
0.0
 11
4596.848548042769
 21
2427.383174866428
 31
0.0
  0
LINE
  5
2DD
330
1F
100
AcDbEntity
  8
2
  6
DOT
 62
     4
370
    20
100
AcDbLine
 10
4596.848548042769
 20
2427.383174866428
 30
0.0
 11
4526.84854804277
 21
2427.383174866428
 31
0.0
  0
LINE
  5
2DE
330
1F
100
AcDbEntity
  8
2
  6
DOT
 62
     4
370
    20
100
AcDbLine
 10
4526.84854804277
 20
2427.383174866428
 30
0.0
 11
4526.848548042769
 21
2422.383174866427
 31
0.0
  0
LINE
  5
2DF
330
1F
100
AcDbEntity
  8
2
  6
Continuous
 62
     4
370
    20
100
AcDbLine
 10
4491.948548042768
 20
2422.383174866428
 30
0.0
 11
4631.748548042769
 21
2422.383174866428
 31
0.0
  0
LINE
  5
2E0
330
1F
100
AcDbEntity
  8
2
  6
Continuous
 62
     4
370
    20
100
AcDbLine
 10
4631.748548042769
 20
2517.383174866427
 30
0.0
 11
4491.948548042768
 21
2517.383174866427
 31
0.0
  0
LINE
  5
2E1
330
1F
100
AcDbEntity
  8
2
  6
Continuous
 62
     4
370
    20
100
AcDbLine
 10
4491.948548042768
 20
2517.383174866427
 30
0.0
 11
4491.948548042768
 21
2422.383174866428
 31
0.0
  0
LINE
  5
2E2
330
1F
100
AcDbEntity
  8
2
  6
Continuous
 62
     4
370
    20
100
AcDbLine
 10
4631.748548042769
 20
2422.383174866428
 30
0.0
 11
4631.748548042769
 21
2517.383174866427
 31
0.0
  0
LINE
  5
2E3
330
1F
100
AcDbEntity
  8
2
  6
DASHDOT
 62
     4
370
    20
100
AcDbLine
 10
4561.848548042769
 20
2560.254411294296
 30
0.0
 11
4561.848548042769
 21
2372.735385419123
 31
0.0
  0
LINE
  5
2E4
330
1F
100
AcDbEntity
  8
2
  6
Continuous
 62
     4
370
    30
100
AcDbLine
 10
4391.848548042769
 20
978.3831748664277
 30
0.0
 11
4391.848548042769
 21
2292.383174866428
 31
0.0
  0
LINE
  5
2E5
330
1F
100
AcDbEntity
  8
2
  6
Continuous
 62
     4
370
    30
100
AcDbLine
 10
4392.348548042769
 20
927.3831748664277
 30
0.0
 11
4392.348548042769
 21
978.3831748664277
 31
0.0
  0
DIMENSION
  5
2EF
330
1F
100
AcDbEntity
  8
2
  6
Continuous
 62
     4
370
    20
100
AcDbDimension
  2
Dim17
 10
4292.740350623426
 20
2517.383174866428
 30
0.0
 11
4292.740350623426
 21
1672.383174866428
 31
0.0
 70
   160
  1
<>
 71
     8
 42
-1.0
 73
     0
 74
     0
 75
     0
  3
Standard
100
AcDbAlignedDimension
 13
4403.163293725783
 23
827.3831748664277
 33
0.0
 14
4494.627049042037
 24
2517.383174866427
 34
0.0
 50
89.99999999999991
100
AcDbRotatedDimension
1001
ACAD
1000
DSTYLE
1002
{
1070
   279
1070
     1
1070
   340
1005
10C
1070
   140
1040
60.0
1070
    40
1040
1.0
1070
   147
1040
0.0
1070
    76
1070
     0
1070
    75
1070
     0
1070
   344
1005
51
1070
   343
1005
51
1070
   173
1070
     1
1070
   289
1070
     2
1070
   288
1070
     1
1070
    77
1070
     1
1070
   172
1070
     1
1070
   174
1070
     0
1070
    74
1070
     0
1070
    73
1070
     0
1070
   284
1070
     8
1070
    78
1070
     8
1070
    42
1040
20.0
1070
    44
1040
10.0
1070
    43
1040
10.0
1070
   271
1070
     2
1070
    41
1040
15.0
1002
}
  0
DIMENSION
  5
2F9
330
1F
100
AcDbEntity
  8
2
  6
Continuous
 62
     4
370
    30
100
AcDbDimension
  2
Dim18
 10
4095.343090349455
 20
2407.383174866427
 30
0.0
 11
4095.343090349455
 21
1617.383174866426
 31
0.0
 70
   160
  1
<>
 71
     8
 42
-1.0
 73
     0
 74
     0
 75
     0
  3
Standard
100
AcDbAlignedDimension
 13
3907.031846357643
 23
827.3831748664277
 33
0.0
 14
3912.031846357643
 24
2407.383174866428
 34
0.0
 50
89.99999999999991
100
AcDbRotatedDimension
1001
ACAD
1000
DSTYLE
1002
{
1070
   279
1070
     1
1070
   340
1005
10C
1070
   140
1040
60.0
1070
    40
1040
1.0
1070
   147
1040
0.0
1070
    76
1070
     0
1070
    75
1070
     0
1070
   344
1005
51
1070
   343
1005
51
1070
   173
1070
     1
1070
   289
1070
     2
1070
   288
1070
     1
1070
    77
1070
     1
1070
   172
1070
     1
1070
   174
1070
     0
1070
    74
1070
     0
1070
    73
1070
     0
1070
   284
1070
     8
1070
    78
1070
     8
1070
    42
1040
20.0
1070
    44
1040
10.0
1070
    43
1040
10.0
1070
   271
1070
     2
1070
    41
1040
15.0
1002
}
  0
DIMENSION
  5
303
330
1F
100
AcDbEntity
  8
2
  6
Continuous
 62
     4
370
    30
100
AcDbDimension
  2
Dim19
 10
4028.037154276395
 20
2342.383174866427
 30
0.0
 11
4028.037154276395
 21
2461.965030672479
 31
0.0
 70
   160
  1
<>
 71
     8
 42
-1.0
 73
     0
 74
     0
 75
     0
 53
89.99999999999991
  3
Standard
100
AcDbAlignedDimension
 13
3912.031846357643
 23
2407.383174866428
 33
0.0
 14
3912.031846357643
 24
2342.383174866428
 34
0.0
 50
-89.99999999999991
100
AcDbRotatedDimension
1001
ACAD
1000
DSTYLE
1002
{
1070
   279
1070
     1
1070
   340
1005
10C
1070
   140
1040
60.0
1070
    40
1040
1.0
1070
   147
1040
0.0
1070
    76
1070
     0
1070
    75
1070
     0
1070
   344
1005
51
1070
   343
1005
51
1070
   173
1070
     1
1070
   289
1070
     2
1070
   288
1070
     1
1070
    77
1070
     1
1070
   172
1070
     1
1070
   174
1070
     0
1070
    74
1070
     0
1070
    73
1070
     0
1070
   284
1070
     8
1070
    78
1070
     8
1070
    42
1040
20.0
1070
    44
1040
10.0
1070
    43
1040
10.0
1070
   271
1070
     2
1070
    41
1040
15.0
1002
}
  0
ARC
  5
304
330
1F
100
AcDbEntity
  8
2
  6
Continuous
 62
     4
370
    20
100
AcDbCircle
 10
1747.643703079793
 20
3243.336416302526
 30
0.0
 40
605.0000976562517
100
AcDbArc
 50
340.187475823524
 51
359.9999999999991
  0
LINE
  5
305
330
1F
100
AcDbEntity
  8
2
  6
Continuous
 62
     4
370
    30
100
AcDbLine
 10
2352.643800736045
 20
3243.336416302526
 30
0.0
 11
1667.643800736045
 21
3243.336416302526
 31
0.0
  0
LINE
  5
306
330
1F
100
AcDbEntity
  8
2
  6
Continuous
 62
     4
370
    20
100
AcDbLine
 10
2707.643800309771
 20
3243.336416302525
 30
0.0
 11
2441.582805502795
 21
3038.275518811824
 31
0.0
  0
DIMENSION
  5
310
330
1F
100
AcDbEntity
  8
2
  6
Continuous
 62
     4
370
    30
100
AcDbDimension
  2
Dim20
 10
1667.643800736042
 20
2889.446750162647
 30
0.0
 11
2010.143800736041
 21
2889.446750162647
 31
0.0
 70
   160
  1
<>
 71
     8
 42
-1.0
 73
     0
 74
     0
 75
     0
  3
Standard
100
AcDbAlignedDimension
 13
2352.643800736045
 23
3243.336416302525
 33
0.0
 14
1667.643800736045
 24
3243.336416302526
 34
0.0
 50
179.9999999999998
100
AcDbRotatedDimension
1001
ACAD
1000
DSTYLE
1002
{
1070
   279
1070
     1
1070
   340
1005
10C
1070
   140
1040
60.0
1070
    40
1040
1.0
1070
   147
1040
0.0
1070
    76
1070
     0
1070
    75
1070
     0
1070
   344
1005
51
1070
   343
1005
51
1070
   173
1070
     1
1070
   289
1070
     2
1070
   288
1070
     1
1070
    77
1070
     1
1070
   172
1070
     1
1070
   174
1070
     0
1070
    74
1070
     0
1070
    73
1070
     0
1070
   284
1070
     8
1070
    78
1070
     8
1070
    42
1040
20.0
1070
    44
1040
10.0
1070
    43
1040
10.0
1070
   271
1070
     2
1070
    41
1040
15.0
1002
}
  0
ARC
  5
311
330
1F
100
AcDbEntity
  8
2
  6
Continuous
 62
     4
370
    20
100
AcDbCircle
 10
2648.636710592444
 20
3243.336416302525
 30
0.0
 40
289.9999023437481
100
AcDbArc
 50
179.9999999999998
 51
224.9999999999992
  0
LINE
  5
312
330
1F
100
AcDbEntity
  8
2
  6
Continuous
 62
     4
370
    30
100
AcDbLine
 10
2358.636808248696
 20
3243.336416302525
 30
0.0
 11
2707.643800736045
 21
3243.336416302525
 31
0.0
  0
DIMENSION
  5
31C
330
1F
100
AcDbEntity
  8
2
  6
Continuous
 62
     4
370
    20
100
AcDbDimension
  2
Dim21
 10
2352.643800736045
 20
2953.38635716798
 30
0.0
 11
2325.862927274287
 21
2953.38635716798
 31
0.0
 70
   160
  1
<>
 71
     8
 42
-1.0
 73
     0
 74
     0
 75
     0
  3
Standard
100
AcDbAlignedDimension
 13
2358.643800736045
 23
2968.268819539052
 33
0.0
 14
2352.643800736045
 24
2966.504972146925
 34
0.0
 50
179.9999999999998
100
AcDbRotatedDimension
1001
ACAD
1000
DSTYLE
1002
{
1070
   279
1070
     1
1070
   340
1005
10C
1070
   140
1040
40.0
1070
    40
1040
1.0
1070
   147
1040
0.0
1070
    76
1070
     0
1070
    75
1070
     0
1070
   344
1005
51
1070
   343
1005
51
1070
   173
1070
     1
1070
   289
1070
     2
1070
   288
1070
     1
1070
    77
1070
     1
1070
   172
1070
     1
1070
   174
1070
     0
1070
    74
1070
     0
1070
    73
1070
     0
1070
   284
1070
     8
1070
    78
1070
     8
1070
    42
1040
20.0
1070
    44
1040
10.0
1070
    43
1040
10.0
1070
   271
1070
     2
1070
    41
1040
15.0
1002
}
  0
LINE
  5
31D
330
1F
100
AcDbEntity
  8
2
  6
Continuous
 62
     4
370
    30
100
AcDbLine
 10
2358.643800736045
 20
977.3831748664277
 30
0.0
 11
2358.643800736045
 21
2292.383174866428
 31
0.0
  0
LINE
  5
31E
330
1F
100
AcDbEntity
  8
2
  6
Continuous
 62
     4
370
    20
100
AcDbLine
 10
2358.643800736045
 20
977.3831748664277
 30
0.0
 11
2707.643800736045
 21
977.3831748664277
 31
0.0
  0
LINE
  5
31F
330
1F
100
AcDbEntity
  8
2
  6
Continuous
 62
     4
370
    20
100
AcDbLine
 10
2352.646752675792
 20
977.3831748664277
 30
0.0
 11
1667.643800736045
 21
977.3831748664277
 31
0.0
  0
LINE
  5
320
330
1F
100
AcDbEntity
  8
2
  6
Continuous
 62
     4
370
    30
100
AcDbLine
 10
2352.646752675792
 20
977.3831748664277
 30
0.0
 11
2352.63966977772
 21
2292.383174866428
 31
0.0
  0
DIMENSION
  5
32A
330
1F
100
AcDbEntity
  8
2
  6
Continuous
 62
     4
370
    30
100
AcDbDimension
  2
Dim22
 10
5577.611518346921
 20
1022.383174866426
 30
0.0
 11
5577.611518346921
 21
924.8831748664263
 31
0.0
 70
   160
  1
<>
 71
     8
 42
-1.0
 73
     0
 74
     0
 75
     0
  3
Standard
100
AcDbAlignedDimension
 13
5426.848548042769
 23
827.3831748664277
 33
0.0
 14
5371.848548042769
 24
1022.383174866428
 34
0.0
 50
89.99999999999991
100
AcDbRotatedDimension
1001
ACAD
1000
DSTYLE
1002
{
1070
   279
1070
     1
1070
   340
1005
10C
1070
   140
1040
60.0
1070
    40
1040
1.0
1070
   147
1040
0.0
1070
    76
1070
     0
1070
    75
1070
     0
1070
   344
1005
51
1070
   343
1005
51
1070
   173
1070
     1
1070
   289
1070
     2
1070
   288
1070
     1
1070
    77
1070
     1
1070
   172
1070
     1
1070
   174
1070
     0
1070
    74
1070
     0
1070
    73
1070
     0
1070
   284
1070
     8
1070
    78
1070
     8
1070
    42
1040
20.0
1070
    44
1040
10.0
1070
    43
1040
10.0
1070
   271
1070
     2
1070
    41
1040
15.0
1002
}
  0
DIMENSION
  5
334
330
1F
100
AcDbEntity
  8
2
  6
Continuous
 62
     4
370
    30
100
AcDbDimension
  2
Dim23
 10
5371.848548042769
 20
1610.264952147913
 30
0.0
 11
5507.044164872865
 21
1610.264952147913
 31
0.0
 70
   160
  1
<>
 71
     8
 42
-1.0
 73
     0
 74
     0
 75
     0
  3
Standard
100
AcDbAlignedDimension
 13
5431.848548042769
 23
1470.995580387091
 33
0.0
 14
5371.848548042769
 24
1422.383174866428
 34
0.0
 50
179.9999999999998
100
AcDbRotatedDimension
1001
ACAD
1000
DSTYLE
1002
{
1070
   279
1070
     1
1070
   340
1005
10C
1070
   140
1040
60.0
1070
    40
1040
1.0
1070
   147
1040
0.0
1070
    76
1070
     0
1070
    75
1070
     0
1070
   344
1005
51
1070
   343
1005
51
1070
   173
1070
     1
1070
   289
1070
     2
1070
   288
1070
     1
1070
    77
1070
     1
1070
   172
1070
     1
1070
   174
1070
     0
1070
    74
1070
     0
1070
    73
1070
     0
1070
   284
1070
     8
1070
    78
1070
     8
1070
    42
1040
20.0
1070
    44
1040
10.0
1070
    43
1040
10.0
1070
   271
1070
     2
1070
    41
1040
15.0
1002
}
  0
LINE
  5
335
330
1F
100
AcDbEntity
  8
2
  6
Continuous
 62
     4
370
    30
100
AcDbLine
 10
5366.848548042769
 20
1417.383174866428
 30
0.0
 11
5366.848548042769
 21
1027.383174866428
 31
0.0
  0
LINE
  5
336
330
1F
100
AcDbEntity
  8
2
  6
Continuous
 62
     4
370
    30
100
AcDbLine
 10
5371.848548042769
 20
1422.383174866428
 30
0.0
 11
5371.848548042769
 21
1022.383174866428
 31
0.0
  0
DIMENSION
  5
340
330
1F
100
AcDbEntity
  8
2
  6
Continuous
 62
     4
370
    30
100
AcDbDimension
  2
Dim24
 10
5573.729232670383
 20
1422.383174866426
 30
0.0
 11
5573.729232670383
 21
1222.383174866426
 31
0.0
 70
   160
  1
<>
 71
     8
 42
-1.0
 73
     0
 74
     0
 75
     0
  3
Standard
100
AcDbAlignedDimension
 13
5371.848548042769
 23
1022.383174866428
 33
0.0
 14
5371.848548042769
 24
1422.383174866428
 34
0.0
 50
89.99999999999991
100
AcDbRotatedDimension
1001
ACAD
1000
DSTYLE
1002
{
1070
   279
1070
     1
1070
   340
1005
10C
1070
   140
1040
60.0
1070
    40
1040
1.0
1070
   147
1040
0.0
1070
    76
1070
     0
1070
    75
1070
     0
1070
   344
1005
51
1070
   343
1005
51
1070
   173
1070
     1
1070
   289
1070
     2
1070
   288
1070
     1
1070
    77
1070
     1
1070
   172
1070
     1
1070
   174
1070
     0
1070
    74
1070
     0
1070
    73
1070
     0
1070
   284
1070
     8
1070
    78
1070
     8
1070
    42
1040
20.0
1070
    44
1040
10.0
1070
    43
1040
10.0
1070
   271
1070
     2
1070
    41
1040
15.0
1002
}
  0
LINE
  5
341
330
1F
100
AcDbEntity
  8
2
  6
Continuous
 62
     4
370
    30
100
AcDbLine
 10
4616.848548042769
 20
1027.383174866428
 30
0.0
 11
4616.848548042769
 21
1417.383174866428
 31
0.0
  0
LINE
  5
342
330
1F
100
AcDbEntity
  8
2
  6
Continuous
 62
     4
370
    30
100
AcDbLine
 10
4611.848548042769
 20
1022.383174866428
 30
0.0
 11
4611.848548042769
 21
1422.383174866428
 31
0.0
  0
LINE
  5
343
330
1F
100
AcDbEntity
  8
2
  6
Continuous
 62
     4
370
    30
100
AcDbLine
 10
5366.848548042769
 20
1027.383174866428
 30
0.0
 11
4616.848548042769
 21
1027.383174866428
 31
0.0
  0
LINE
  5
344
330
1F
100
AcDbEntity
  8
2
  6
Continuous
 62
     4
370
    30
100
AcDbLine
 10
5371.848548042769
 20
1022.383174866428
 30
0.0
 11
4611.848548042769
 21
1022.383174866428
 31
0.0
  0
LINE
  5
345
330
1F
100
AcDbEntity
  8
2
  6
Continuous
 62
     4
370
    30
100
AcDbLine
 10
4611.848548042769
 20
1422.383174866428
 30
0.0
 11
5371.848548042769
 21
1422.383174866428
 31
0.0
  0
LINE
  5
346
330
1F
100
AcDbEntity
  8
2
  6
Continuous
 62
     4
370
    30
100
AcDbLine
 10
4616.848548042769
 20
1417.383174866428
 30
0.0
 11
5366.848548042769
 21
1417.383174866428
 31
0.0
  0
DIMENSION
  5
350
330
1F
100
AcDbEntity
  8
2
  6
Continuous
 62
     4
370
    30
100
AcDbDimension
  2
Dim25
 10
4611.848548042769
 20
1610.264952147913
 30
0.0
 11
4991.848548042769
 21
1610.264952147913
 31
0.0
 70
   160
  1
<>
 71
     8
 42
-1.0
 73
     0
 74
     0
 75
     0
  3
Standard
100
AcDbAlignedDimension
 13
5371.848548042769
 23
1422.383174866428
 33
0.0
 14
4611.848548042769
 24
1422.383174866428
 34
0.0
 50
179.9999999999998
100
AcDbRotatedDimension
1001
ACAD
1000
DSTYLE
1002
{
1070
   279
1070
     1
1070
   340
1005
10C
1070
   140
1040
60.0
1070
    40
1040
1.0
1070
   147
1040
0.0
1070
    76
1070
     0
1070
    75
1070
     0
1070
   344
1005
51
1070
   343
1005
51
1070
   173
1070
     1
1070
   289
1070
     2
1070
   288
1070
     1
1070
    77
1070
     1
1070
   172
1070
     1
1070
   174
1070
     0
1070
    74
1070
     0
1070
    73
1070
     0
1070
   284
1070
     8
1070
    78
1070
     8
1070
    42
1040
20.0
1070
    44
1040
10.0
1070
    43
1040
10.0
1070
   271
1070
     2
1070
    41
1040
15.0
1002
}
  0
MTEXT
  5
351
330
1F
100
AcDbEntity
  8
1
  6
Continuous
 62
   254
370
     9
100
AcDbMText
 10
3832.939524553988
 20
327.7703030080268
 30
0.0
 40
40.0
 41
59.10749999999999
 46
40.0
 71
     7
 72
     1
  1
{\fＭＳ ゴシック;\T0.750000;X2}
 73
     1
 44
1.0
1001
ACAD
1000
ACAD_MTEXT_DEFINED_HEIGHT_BEGIN
1070
    46
1040
40.0
1000
ACAD_MTEXT_DEFINED_HEIGHT_END
  0
MTEXT
  5
352
330
1F
100
AcDbEntity
  8
1
  6
Continuous
 62
   254
370
     9
100
AcDbMText
 10
3924.403967204871
 20
325.3501912093841
 30
0.0
 40
40.0
 41
283.541012548
 46
40.0
 71
     7
 72
     1
  1
{\fＭＳ ゴシック;\T0.761170;2009.08.10}
 73
     1
 44
1.0
1001
ACAD
1000
ACAD_MTEXT_DEFINED_HEIGHT_BEGIN
1070
    46
1040
40.0
1000
ACAD_MTEXT_DEFINED_HEIGHT_END
  0
LINE
  5
353
330
1F
100
AcDbEntity
  8
3
  6
DASHDOT
 62
     3
370
    20
100
AcDbLine
 10
2216.248411973915
 20
1700.383174866428
 30
0.0
 11
2266.248411973915
 21
1700.383174866428
 31
0.0
  0
ARC
  5
354
330
1F
100
AcDbEntity
  8
1
  6
Continuous
 62
   254
370
    20
100
AcDbCircle
 10
2241.248411973915
 20
1700.383174866428
 30
0.0
 40
13.24999999999999
100
AcDbArc
 50
0.0
 51
179.9999999999998
  0
LINE
  5
355
330
1F
100
AcDbEntity
  8
1
  6
Continuous
 62
   254
370
    20
100
AcDbLine
 10
2227.998411973915
 20
1700.383174866428
 30
0.0
 11
2227.998411973915
 21
1605.183174866428
 31
0.0
  0
LINE
  5
356
330
1F
100
AcDbEntity
  8
1
  6
Continuous
 62
   254
370
    20
100
AcDbLine
 10
2231.998411973915
 20
1601.183174866428
 30
0.0
 11
2250.498411973915
 21
1601.183174866428
 31
0.0
  0
LINE
  5
357
330
1F
100
AcDbEntity
  8
1
  6
Continuous
 62
   254
370
    20
100
AcDbLine
 10
2254.498411973915
 20
1605.183174866428
 30
0.0
 11
2254.498411973915
 21
1700.383174866428
 31
0.0
  0
ARC
  5
358
330
1F
100
AcDbEntity
  8
1
  6
Continuous
 62
   254
370
    20
100
AcDbCircle
 10
2250.498411973915
 20
1605.183174866428
 30
0.0
 40
4.0
100
AcDbArc
 50
269.9999999999998
 51
0.0
  0
ARC
  5
359
330
1F
100
AcDbEntity
  8
1
  6
Continuous
 62
   254
370
    20
100
AcDbCircle
 10
2231.998411973915
 20
1605.183174866428
 30
0.0
 40
4.0
100
AcDbArc
 50
179.9999999999998
 51
269.9999999999998
  0
ARC
  5
35A
330
1F
100
AcDbEntity
  8
1
  6
Continuous
 62
   254
370
    20
100
AcDbCircle
 10
2241.248411973915
 20
1700.383174866428
 30
0.0
 40
13.7
100
AcDbArc
 50
0.0
 51
179.9999999999998
  0
ARC
  5
35B
330
1F
100
AcDbEntity
  8
3
  6
Continuous
 62
     3
370
    20
100
AcDbCircle
 10
2240.426617973914
 20
1572.883174866428
 30
0.0
 40
0.5
100
AcDbArc
 50
188.154563000008
 51
269.9999999999998
  0
ARC
  5
35C
330
1F
100
AcDbEntity
  8
3
  6
Continuous
 62
     3
370
    20
100
AcDbCircle
 10
2242.070206973915
 20
1572.883174866428
 30
0.0
 40
0.5
100
AcDbArc
 50
269.9999999999998
 51
351.8454370000208
  0
ARC
  5
35D
330
1F
100
AcDbEntity
  8
3
  6
Continuous
 62
     3
370
    20
100
AcDbCircle
 10
2242.070206973915
 20
1577.883174866428
 30
0.0
 40
0.5
100
AcDbArc
 50
8.15456299997883
 51
89.99999999999991
  0
ARC
  5
35E
330
1F
100
AcDbEntity
  8
3
  6
Continuous
 62
     3
370
    20
100
AcDbCircle
 10
2240.426617973914
 20
1577.883174866428
 30
0.0
 40
0.5
100
AcDbArc
 50
89.99999999999991
 51
171.8454369999916
  0
ARC
  5
35F
330
1F
100
AcDbEntity
  8
3
  6
Continuous
 62
     3
370
    20
100
AcDbCircle
 10
2224.623411973915
 20
1575.383174866428
 30
0.0
 40
18.125
100
AcDbArc
 50
351.8454370000002
 51
8.154562999999426
  0
ARC
  5
360
330
1F
100
AcDbEntity
  8
3
  6
Continuous
 62
     3
370
    20
100
AcDbCircle
 10
2257.873411973915
 20
1575.383174866428
 30
0.0
 40
18.125
100
AcDbArc
 50
171.8454370000006
 51
188.1545629999991
  0
LINE
  5
361
330
1F
100
AcDbEntity
  8
3
  6
Continuous
 62
     3
370
    20
100
AcDbLine
 10
2242.070206973915
 20
1572.383174866428
 30
0.0
 11
2240.426617973914
 21
1572.383174866428
 31
0.0
  0
LINE
  5
362
330
1F
100
AcDbEntity
  8
3
  6
Continuous
 62
     3
370
    20
100
AcDbLine
 10
2242.070206973915
 20
1578.383174866428
 30
0.0
 11
2240.426617973914
 21
1578.383174866428
 31
0.0
  0
CIRCLE
  5
363
330
1F
100
AcDbEntity
  8
3
  6
Continuous
 62
     3
370
    20
100
AcDbCircle
 10
2241.248411973915
 20
1575.383174866428
 30
0.0
 40
6.999999999999986
  0
LINE
  5
364
330
1F
100
AcDbEntity
  8
3
  6
DASHDOT
 62
     3
370
    20
100
AcDbLine
 10
2256.248411973915
 20
1575.383174866428
 30
0.0
 11
2226.248411973915
 21
1575.383174866428
 31
0.0
  0
LINE
  5
365
330
1F
100
AcDbEntity
  8
1
  6
Continuous
 62
   254
370
    20
100
AcDbLine
 10
2254.948411973914
 20
1700.383174866428
 30
0.0
 11
2254.948411973914
 21
1604.383174866428
 31
0.0
  0
ARC
  5
366
330
1F
100
AcDbEntity
  8
3
  6
Continuous
 62
     3
370
    20
100
AcDbCircle
 10
2222.748411973915
 20
1561.883174866428
 30
0.0
 40
1.5
100
AcDbArc
 50
179.9999999999998
 51
269.9999999999998
  0
ARC
  5
367
330
1F
100
AcDbEntity
  8
3
  6
Continuous
 62
     3
370
    20
100
AcDbCircle
 10
2259.748411973915
 20
1561.883174866428
 30
0.0
 40
1.5
100
AcDbArc
 50
269.9999999999998
 51
0.0
  0
ARC
  5
368
330
1F
100
AcDbEntity
  8
3
  6
Continuous
 62
     3
370
    20
100
AcDbCircle
 10
2259.748411973915
 20
1718.883174866428
 30
0.0
 40
1.5
100
AcDbArc
 50
0.0
 51
89.99999999999991
  0
ARC
  5
369
330
1F
100
AcDbEntity
  8
3
  6
Continuous
 62
     3
370
    20
100
AcDbCircle
 10
2222.748411973915
 20
1718.883174866428
 30
0.0
 40
1.5
100
AcDbArc
 50
89.99999999999991
 51
179.9999999999998
  0
LINE
  5
36A
330
1F
100
AcDbEntity
  8
3
  6
Continuous
 62
     3
370
    20
100
AcDbLine
 10
2225.248411973915
 20
1718.383174866428
 30
0.0
 11
2221.848411973914
 21
1720.083174866427
 31
0.0
  0
LINE
  5
36B
330
1F
100
AcDbEntity
  8
3
  6
Continuous
 62
     3
370
    20
100
AcDbLine
 10
2225.248411973915
 20
1562.383174866428
 30
0.0
 11
2221.848411973914
 21
1560.683174866428
 31
0.0
  0
LINE
  5
36C
330
1F
100
AcDbEntity
  8
3
  6
Continuous
 62
     3
370
    20
100
AcDbLine
 10
2225.248411973915
 20
1718.383174866428
 30
0.0
 11
2225.248411973915
 21
1562.383174866428
 31
0.0
  0
LINE
  5
36D
330
1F
100
AcDbEntity
  8
3
  6
Continuous
 62
     3
370
    20
100
AcDbLine
 10
2257.248411973915
 20
1562.383174866428
 30
0.0
 11
2260.648411973915
 21
1560.683174866428
 31
0.0
  0
LINE
  5
36E
330
1F
100
AcDbEntity
  8
3
  6
Continuous
 62
     3
370
    20
100
AcDbLine
 10
2257.248411973915
 20
1718.383174866428
 30
0.0
 11
2260.648411973915
 21
1720.083174866427
 31
0.0
  0
LINE
  5
36F
330
1F
100
AcDbEntity
  8
3
  6
DASHDOT
 62
     3
370
    20
100
AcDbLine
 10
2241.248411973915
 20
1555.383174866428
 30
0.0
 11
2241.248411973915
 21
1725.383174866428
 31
0.0
  0
LINE
  5
370
330
1F
100
AcDbEntity
  8
3
  6
Continuous
 62
     3
370
    20
100
AcDbLine
 10
2257.248411973915
 20
1562.383174866428
 30
0.0
 11
2225.248411973915
 21
1562.383174866428
 31
0.0
  0
LINE
  5
371
330
1F
100
AcDbEntity
  8
1
  6
Continuous
 62
   254
370
    20
100
AcDbLine
 10
2257.248411973915
 20
1718.383174866428
 30
0.0
 11
2225.248411973915
 21
1718.383174866428
 31
0.0
  0
LINE
  5
372
330
1F
100
AcDbEntity
  8
3
  6
Continuous
 62
     3
370
    20
100
AcDbLine
 10
2257.248411973915
 20
1718.383174866428
 30
0.0
 11
2257.248411973915
 21
1562.383174866428
 31
0.0
  0
LINE
  5
373
330
1F
100
AcDbEntity
  8
3
  6
Continuous
 62
     3
370
    20
100
AcDbLine
 10
2259.748411973915
 20
1560.383174866428
 30
0.0
 11
2222.748411973915
 21
1560.383174866428
 31
0.0
  0
LINE
  5
374
330
1F
100
AcDbEntity
  8
3
  6
Continuous
 62
     3
370
    20
100
AcDbLine
 10
2261.248411973915
 20
1718.883174866428
 30
0.0
 11
2261.248411973915
 21
1561.883174866428
 31
0.0
  0
LINE
  5
375
330
1F
100
AcDbEntity
  8
3
  6
Continuous
 62
     3
370
    20
100
AcDbLine
 10
2222.748411973915
 20
1720.383174866428
 30
0.0
 11
2259.748411973915
 21
1720.383174866428
 31
0.0
  0
LINE
  5
376
330
1F
100
AcDbEntity
  8
3
  6
Continuous
 62
     3
370
    20
100
AcDbLine
 10
2221.248411973915
 20
1561.883174866428
 30
0.0
 11
2221.248411973915
 21
1718.883174866428
 31
0.0
  0
ARC
  5
377
330
1F
100
AcDbEntity
  8
1
  6
Continuous
 62
   254
370
    20
100
AcDbCircle
 10
2231.548411973914
 20
1604.383174866428
 30
0.0
 40
4.0
100
AcDbArc
 50
179.9999999999998
 51
253.1420439999931
  0
ARC
  5
378
330
1F
100
AcDbEntity
  8
1
  6
Continuous
 62
   254
370
    20
100
AcDbCircle
 10
2252.398411973915
 20
1599.598041866428
 30
0.0
 40
1.0
100
AcDbArc
 50
106.8579560000103
 51
179.9999999999998
  0
LINE
  5
379
330
1F
100
AcDbEntity
  8
1
  6
Continuous
 62
   254
370
    20
100
AcDbLine
 10
2227.548411973914
 20
1604.383174866428
 30
0.0
 11
2227.548411973914
 21
1700.383174866428
 31
0.0
  0
ARC
  5
37A
330
1F
100
AcDbEntity
  8
1
  6
Continuous
 62
   254
370
    20
100
AcDbCircle
 10
2241.248411973915
 20
1575.383174866428
 30
0.0
 40
10.14999999999999
100
AcDbArc
 50
179.9999999999998
 51
0.0
  0
LINE
  5
37B
330
1F
100
AcDbEntity
  8
1
  6
Continuous
 62
   254
370
    20
100
AcDbLine
 10
2251.398411973915
 20
1599.598041866428
 30
0.0
 11
2251.398411973915
 21
1575.383174866428
 31
0.0
  0
LINE
  5
37C
330
1F
100
AcDbEntity
  8
1
  6
Continuous
 62
   254
370
    20
100
AcDbLine
 10
2231.098411973914
 20
1599.598041866428
 30
0.0
 11
2231.098411973914
 21
1575.383174866428
 31
0.0
  0
ARC
  5
37D
330
1F
100
AcDbEntity
  8
1
  6
Continuous
 62
   254
370
    20
100
AcDbCircle
 10
2250.948411973914
 20
1604.383174866428
 30
0.0
 40
4.0
100
AcDbArc
 50
286.8579560000062
 51
0.0
  0
ARC
  5
37E
330
1F
100
AcDbEntity
  8
1
  6
Continuous
 62
   254
370
    20
100
AcDbCircle
 10
2230.098411973914
 20
1599.598041866428
 30
0.0
 40
1.0
100
AcDbArc
 50
0.0
 51
73.14204399998968
  0
INSERT
  5
3D2
330
1F
100
AcDbEntity
  8
1
100
AcDbBlockReference
  2
*G45
 10
0.0
 20
0.0
 30
0.0
  0
LINE
  5
3D3
330
1F
100
AcDbEntity
  8
1
  6
Continuous
 62
   254
370
    20
100
AcDbLine
 10
2250.248411973915
 20
1600.383174866428
 30
0.0
 11
2232.248411973915
 21
1600.383174866428
 31
0.0
  0
ARC
  5
3D4
330
1F
100
AcDbEntity
  8
1
  6
Continuous
 62
   254
370
    20
100
AcDbCircle
 10
2250.248411973915
 20
1599.383174866428
 30
0.0
 40
1.0
100
AcDbArc
 50
0.0
 51
89.99999999999991
  0
ARC
  5
3D5
330
1F
100
AcDbEntity
  8
1
  6
Continuous
 62
   254
370
    20
100
AcDbCircle
 10
2232.248411973915
 20
1599.383174866428
 30
0.0
 40
1.0
100
AcDbArc
 50
89.99999999999991
 51
179.9999999999998
  0
ARC
  5
3D6
330
1F
100
AcDbEntity
  8
1
  6
Continuous
 62
   254
370
    20
100
AcDbCircle
 10
2241.248411973915
 20
1575.383174866428
 30
0.0
 40
9.999999999999986
100
AcDbArc
 50
179.9999999999998
 51
0.0
  0
LINE
  5
3D7
330
1F
100
AcDbEntity
  8
1
  6
Continuous
 62
   254
370
    20
100
AcDbLine
 10
2251.248411973915
 20
1601.254116866428
 30
0.0
 11
2251.248411973915
 21
1575.383174866428
 31
0.0
  0
LINE
  5
3D8
330
1F
100
AcDbEntity
  8
1
  6
Continuous
 62
   254
370
    20
100
AcDbLine
 10
2231.248411973915
 20
1575.383174866428
 30
0.0
 11
2231.248411973915
 21
1601.254116866428
 31
0.0
  0
INSERT
  5
3D9
330
1F
100
AcDbEntity
  8
2
  6
Continuous
 62
     4
370
    20
100
AcDbBlockReference
  2
_OPEN
 10
2221.248411973916
 20
1718.883174866428
 30
0.0
 41
20.0
 42
20.0
 43
20.0
 50
296.6358455138461
  0
POLYLINE
  5
3DA
330
1F
100
AcDbEntity
  8
2
  6
Continuous
 62
     4
370
    20
100
AcDb2dPolyline
 66
     1
 10
0.0
 20
0.0
 30
0.0
  0
VERTEX
  5
3DB
330
3DA
100
AcDbEntity
  8
2
  6
Continuous
 62
     4
370
    20
100
AcDbVertex
100
AcDb2dVertex
 10
2221.248411973916
 20
1718.883174866428
 30
0.0
  0
VERTEX
  5
3DC
330
3DA
100
AcDbEntity
  8
2
  6
Continuous
 62
     4
370
    20
100
AcDbVertex
100
AcDb2dVertex
 10
2161.57003224021
 20
1837.872151687211
 30
0.0
  0
VERTEX
  5
3DD
330
3DA
100
AcDbEntity
  8
2
  6
Continuous
 62
     4
370
    20
100
AcDbVertex
100
AcDb2dVertex
 10
1861.570032240211
 20
1837.872151687212
 30
0.0
  0
SEQEND
  5
3DE
330
3DA
100
AcDbEntity
  8
2
  6
Continuous
 62
     4
370
    20
  0
MTEXT
  5
3DF
330
1F
100
AcDbEntity
  8
2
  6
Continuous
 62
     4
370
     9
100
AcDbMText
 10
2161.57003224021
 20
1837.872151687211
 30
0.0
 40
60.0
 41
457.8876918448499
 46
60.0
 71
     9
 72
     1
  1
{\fＭＳ ゴシック;\W0.833333;\T0.750000;ドアハンドル}
 73
     1
 44
1.0
1001
ACAD
1000
ACAD_MTEXT_DEFINED_HEIGHT_BEGIN
1070
    46
1040
60.0
1000
ACAD_MTEXT_DEFINED_HEIGHT_END
  0
MTEXT
  5
3E0
330
1F
100
AcDbEntity
  8
1
  6
Continuous
 62
   254
370
     9
100
AcDbMText
 10
4261.74713614053
 20
483.743593437033
 30
0.0
 40
60.0
 41
159.65231113905
 46
60.0
 71
     7
 72
     1
  1
{\fＭＳ ゴシック;\W0.833333;\T0.750000;柿間}
 73
     1
 44
1.0
1001
ACAD
1000
ACAD_MTEXT_DEFINED_HEIGHT_BEGIN
1070
    46
1040
60.0
1000
ACAD_MTEXT_DEFINED_HEIGHT_END
  0
MTEXT
  5
3E1
330
1F
100
AcDbEntity
  8
1
  6
Continuous
 62
   254
370
     9
100
AcDbMText
 10
3832.939524553988
 20
377.7702530891368
 30
0.0
 40
40.0
 41
58.8235
 46
40.0
 71
     7
 72
     1
  1
{\fＭＳ ゴシック;\T0.750000;X3}
 73
     1
 44
1.0
1001
ACAD
1000
ACAD_MTEXT_DEFINED_HEIGHT_BEGIN
1070
    46
1040
40.0
1000
ACAD_MTEXT_DEFINED_HEIGHT_END
  0
MTEXT
  5
3E2
330
1F
100
AcDbEntity
  8
1
  6
Continuous
 62
   254
370
     9
100
AcDbMText
 10
3924.403967204871
 20
375.3501412904941
 30
0.0
 40
40.0
 41
283.4052590996001
 46
40.0
 71
     7
 72
     1
  1
{\fＭＳ ゴシック;\T0.765209;2014.07.03}
 73
     1
 44
1.0
1001
ACAD
1000
ACAD_MTEXT_DEFINED_HEIGHT_BEGIN
1070
    46
1040
40.0
1000
ACAD_MTEXT_DEFINED_HEIGHT_END
  0
DIMENSION
  5
3EC
330
1F
100
AcDbEntity
  8
2
  6
Continuous
 62
     4
370
    20
100
AcDbDimension
  2
Dim26
 10
2358.643800736043
 20
2889.446750162647
 30
0.0
 11
2533.143800736042
 21
2889.446750162647
 31
0.0
 70
   160
  1
<>
 71
     8
 42
-1.0
 73
     0
 74
     0
 75
     0
  3
Standard
100
AcDbAlignedDimension
 13
2707.643800736045
 23
3255.746393887492
 33
0.0
 14
2358.643800736045
 24
3215.615650369791
 34
0.0
 50
179.9999999999998
100
AcDbRotatedDimension
1001
ACAD
1000
DSTYLE
1002
{
1070
   279
1070
     1
1070
   340
1005
10C
1070
   140
1040
60.0
1070
    40
1040
1.0
1070
   147
1040
0.0
1070
    76
1070
     0
1070
    75
1070
     0
1070
   344
1005
51
1070
   343
1005
51
1070
   173
1070
     1
1070
   289
1070
     2
1070
   288
1070
     1
1070
    77
1070
     1
1070
   172
1070
     1
1070
   174
1070
     0
1070
    74
1070
     0
1070
    73
1070
     0
1070
   284
1070
     8
1070
    78
1070
     8
1070
    42
1040
20.0
1070
    44
1040
10.0
1070
    43
1040
10.0
1070
   271
1070
     2
1070
    41
1040
15.0
1002
}
  0
INSERT
  5
41B
330
1F
100
AcDbEntity
  8
0
100
AcDbBlockReference
  2
*G48
 10
0.0
 20
0.0
 30
0.0
  0
MTEXT
  5
41C
330
1F
100
AcDbEntity
  8
1
  6
Continuous
 62
   254
370
     9
100
AcDbMText
 10
4561.747133905355
 20
483.743593437033
 30
0.0
 40
60.0
 41
159.65231113905
 46
60.0
 71
     7
 72
     1
  1
{\fＭＳ ゴシック;\W0.833333;\T0.750000;淳一}
 73
     1
 44
1.0
1001
ACAD
1000
ACAD_MTEXT_DEFINED_HEIGHT_BEGIN
1070
    46
1040
60.0
1000
ACAD_MTEXT_DEFINED_HEIGHT_END
  0
MTEXT
  5
41D
330
1F
100
AcDbEntity
  8
1
  6
Continuous
 62
   254
370
     9
100
AcDbMText
 10
4411.747142846051
 20
483.743593437033
 30
0.0
 40
60.0
 41
160.78831068465
 46
60.0
 71
     7
 72
     1
  1
{\fＭＳ ゴシック;\W0.833333;\T0.750000;黒澤}
 73
     1
 44
1.0
1001
ACAD
1000
ACAD_MTEXT_DEFINED_HEIGHT_BEGIN
1070
    46
1040
60.0
1000
ACAD_MTEXT_DEFINED_HEIGHT_END
  0
MTEXT
  5
41E
330
1F
100
AcDbEntity
  8
1
  6
Continuous
 62
   254
370
     9
100
AcDbMText
 10
5109.784483113131
 20
463.7296968064672
 30
0.0
 40
60.0
 41
510.4237049285999
 46
60.0
 71
     7
 72
     1
  1
{\fＭＳ ゴシック;\T0.762599;ODG-1503W-72}
 73
     1
 44
1.0
1001
ACAD
1000
ACAD_MTEXT_DEFINED_HEIGHT_BEGIN
1070
    46
1040
60.0
1000
ACAD_MTEXT_DEFINED_HEIGHT_END
  0
MTEXT
  5
41F
330
1F
100
AcDbEntity
  8
1
  6
Continuous
 62
   254
370
     9
100
AcDbMText
 10
5045.244111609995
 20
364.0650204016026
 30
0.0
 40
60.0
 41
804.04805338065
 46
60.0
 71
     7
 72
     1
  1
{\fＭＳ ゴシック;\W0.833333;\T0.750000;小型発電装置　外形図}
 73
     1
 44
1.0
1001
ACAD
1000
ACAD_MTEXT_DEFINED_HEIGHT_BEGIN
1070
    46
1040
60.0
1000
ACAD_MTEXT_DEFINED_HEIGHT_END
  0
VIEWPORT
  5
3F
330
1B
100
AcDbEntity
 67
     1
  8
0
100
AcDbViewport
 10
2970.0
 20
2100.0
 30
0.0
 40
5940.0
 41
4200.0
 68
     1
 69
     1
 12
2970.0
 22
2100.0
 13
0.0
 23
0.0
 14
0.5
 24
0.5
 15
0.5
 25
0.5
 16
0.0
 26
0.0
 36
1.0
 17
0.0
 27
0.0
 37
0.0
 42
50.0
 43
0.0
 44
0.0
 45
9.0
 50
0.0
 51
0.0
 72
   100
 90
   557152
  1

281
     0
 71
     1
 74
     0
110
0.0
120
0.0
130
0.0
111
1.0
121
0.0
131
0.0
112
0.0
122
1.0
132
0.0
 79
     0
146
0.0
170
     0
 61
     5
292
     1
282
     1
141
0.0
142
0.0
 63
   256
  0
ENDSEC
  0
SECTION
  2
OBJECTS
  0
DICTIONARY
  5
C
330
0
100
AcDbDictionary
281
     1
  3
ACAD_GROUP
350
D
  3
ACAD_LAYOUT
350
1A
  3
ACAD_MATERIAL
350
3B
  3
ACAD_MLEADERSTYLE
350
441
  3
ACAD_MLINESTYLE
350
17
  3
ACAD_PLOTSETTINGS
350
19
  3
ACAD_PLOTSTYLENAME
350
E
  3
ACAD_TABLESTYLE
350
440
  3
ACAD_VISUALSTYLE
350
2A
  0
DICTIONARY
  5
D
102
{ACAD_REACTORS
330
C
102
}
330
C
100
AcDbDictionary
281
     1
  0
DICTIONARY
  5
1A
102
{ACAD_REACTORS
330
C
102
}
330
C
100
AcDbDictionary
281
     1
  3
Layout1
350
1E
  3
Layout2
350
26
  3
Model
350
22
  0
DICTIONARY
  5
3B
102
{ACAD_REACTORS
330
C
102
}
330
C
100
AcDbDictionary
281
     1
  3
ByBlock
350
3D
  3
ByLayer
350
3C
  3
Global
350
3E
  0
DICTIONARY
  5
441
102
{ACAD_REACTORS
330
C
102
}
330
C
100
AcDbDictionary
281
     1
  0
DICTIONARY
  5
17
102
{ACAD_REACTORS
330
C
102
}
330
C
100
AcDbDictionary
281
     1
  3
Standard
350
18
  0
DICTIONARY
  5
19
102
{ACAD_REACTORS
330
C
102
}
330
C
100
AcDbDictionary
281
     1
  0
ACDBDICTIONARYWDFLT
  5
E
102
{ACAD_REACTORS
330
C
102
}
330
C
100
AcDbDictionary
281
     1
  3
Normal
350
F
100
AcDbDictionaryWithDefault
340
F
  0
DICTIONARY
  5
440
102
{ACAD_REACTORS
330
C
102
}
330
C
100
AcDbDictionary
281
     1
  0
DICTIONARY
  5
2A
102
{ACAD_REACTORS
330
C
102
}
330
C
100
AcDbDictionary
281
     1
  3
2dWireframe
350
2F
  3
3D Hidden
350
31
  3
3dWireframe
350
30
  3
Basic
350
32
  3
Brighten
350
36
  3
ColorChange
350
3A
  3
Conceptual
350
34
  3
Dim
350
35
  3
Facepattern
350
39
  3
Flat
350
2B
  3
FlatWithEdges
350
2C
  3
Gouraud
350
2D
  3
GouraudWithEdges
350
2E
  3
Linepattern
350
38
  3
Realistic
350
33
  3
Thicken
350
37
  0
LAYOUT
  5
1E
102
{ACAD_REACTORS
330
1A
102
}
330
1A
100
AcDbPlotSettings
  1

  2
none_device
  4

  6

 40
0.0
 41
0.0
 42
0.0
 43
0.0
 44
0.0
 45
0.0
 46
0.0
 47
0.0
 48
0.0
 49
0.0
140
0.0
141
0.0
142
1.0
143
1.0
 70
   688
 72
     0
 73
     0
 74
     5
  7

 75
    16
 76
     0
 77
     2
 78
   300
147
1.0
148
0.0
149
0.0
100
AcDbLayout
  1
Layout1
 70
     1
 71
     1
 10
0.0
 20
0.0
 11
594.0
 21
420.0
 12
0.0
 22
0.0
 32
0.0
 14
0.0
 24
0.0
 34
0.0
 15
594.0
 25
420.0
 35
0.0
146
0.0
 13
0.0
 23
0.0
 33
0.0
 16
1.0
 26
0.0
 36
0.0
 17
0.0
 27
1.0
 37
0.0
 76
     0
330
1B
331
3F
  0
LAYOUT
  5
26
102
{ACAD_REACTORS
330
1A
102
}
330
1A
100
AcDbPlotSettings
  1

  2
none_device
  4

  6

 40
0.0
 41
0.0
 42
0.0
 43
0.0
 44
0.0
 45
0.0
 46
0.0
 47
0.0
 48
0.0
 49
0.0
140
0.0
141
0.0
142
1.0
143
1.0
 70
   688
 72
     0
 73
     0
 74
     5
  7

 75
    16
 76
     0
 77
     2
 78
   300
147
1.0
148
0.0
149
0.0
100
AcDbLayout
  1
Layout2
 70
     1
 71
     2
 10
0.0
 20
0.0
 11
0.0
 21
0.0
 12
0.0
 22
0.0
 32
0.0
 14
0.0
 24
0.0
 34
0.0
 15
0.0
 25
0.0
 35
0.0
146
0.0
 13
0.0
 23
0.0
 33
0.0
 16
1.0
 26
0.0
 36
0.0
 17
0.0
 27
1.0
 37
0.0
 76
     0
330
23
  0
LAYOUT
  5
22
102
{ACAD_REACTORS
330
1A
102
}
330
1A
100
AcDbPlotSettings
  1

  2
none_device
  4

  6

 40
0.0
 41
0.0
 42
0.0
 43
0.0
 44
0.0
 45
0.0
 46
0.0
 47
0.0
 48
0.0
 49
0.0
140
0.0
141
0.0
142
1.0
143
1.0
 70
  1712
 72
     0
 73
     0
 74
     0
  7

 75
     0
 76
     0
 77
     2
 78
   300
147
1.0
148
0.0
149
0.0
100
AcDbLayout
  1
Model
 70
     1
 71
     0
 10
0.0
 20
0.0
 11
594.0
 21
420.0
 12
0.0
 22
0.0
 32
0.0
 14
416.6200824857169
 24
217.2342857142851
 34
0.0
 15
5746.525714285714
 25
3977.234303627609
 35
0.0
146
0.0
 13
0.0
 23
0.0
 33
0.0
 16
1.0
 26
0.0
 36
0.0
 17
0.0
 27
1.0
 37
0.0
 76
     0
330
1F
331
29
  0
MATERIAL
  5
3D
102
{ACAD_REACTORS
330
3B
102
}
330
3B
100
AcDbMaterial
  1
ByBlock
 72
     1
 94
      127
  0
MATERIAL
  5
3C
102
{ACAD_REACTORS
330
3B
102
}
330
3B
100
AcDbMaterial
  1
ByLayer
 72
     1
 94
      127
  0
MATERIAL
  5
3E
102
{ACAD_REACTORS
330
3B
102
}
330
3B
100
AcDbMaterial
  1
Global
 72
     1
 94
      127
  0
MLINESTYLE
  5
18
102
{ACAD_REACTORS
330
17
102
}
330
17
100
AcDbMlineStyle
  2
Standard
 70
     0
  3

 62
   256
 51
90.0
 52
90.0
 71
     2
 49
0.5
 62
   256
  6
BYLAYER
 49
-0.5
 62
   256
  6
BYLAYER
  0
ACDBPLACEHOLDER
  5
F
102
{ACAD_REACTORS
330
E
102
}
330
E
  0
VISUALSTYLE
  5
2F
102
{ACAD_REACTORS
330
2A
102
}
102
{ACAD_XDICTIONARY
360
428
102
}
330
2A
100
AcDbVisualStyle
  2
2dWireframe
 70
     4
 71
     0
 72
     2
 73
     0
 90
        0
 40
-0.6
 41
-30.0
 62
     5
 63
     7
421
 16777215
 74
     1
 91
        4
 64
     7
 65
   257
 75
     1
175
     1
 42
1.0
 92
        0
 66
   257
 43
1.0
 76
     1
 77
     6
 78
     2
 67
     7
 79
     5
170
     0
171
     0
290
     0
174
     0
 93
        1
 44
0.0
173
     0
291
     0
 45
0.0
  0
VISUALSTYLE
  5
31
102
{ACAD_REACTORS
330
2A
102
}
102
{ACAD_XDICTIONARY
360
42C
102
}
330
2A
100
AcDbVisualStyle
  2
3D Hidden
 70
     6
 71
     1
 72
     2
 73
     2
 90
        0
 40
-0.6
 41
-30.0
 62
     5
 63
     7
421
 16777215
 74
     2
 91
        2
 64
     7
 65
   257
 75
     2
175
     1
 42
40.0
 92
        0
 66
   257
 43
1.0
 76
     1
 77
     6
 78
     2
 67
     7
 79
     3
170
     0
171
     0
290
     0
174
     0
 93
        1
 44
0.0
173
     0
291
     0
 45
0.0
  0
VISUALSTYLE
  5
30
102
{ACAD_REACTORS
330
2A
102
}
102
{ACAD_XDICTIONARY
360
42A
102
}
330
2A
100
AcDbVisualStyle
  2
3dWireframe
 70
     5
 71
     0
 72
     2
 73
     0
 90
        0
 40
-0.6
 41
-30.0
 62
     5
 63
     7
421
 16777215
 74
     1
 91
        4
 64
     7
 65
   257
 75
     1
175
     1
 42
1.0
 92
        0
 66
   257
 43
1.0
 76
     1
 77
     6
 78
     2
 67
     7
 79
     5
170
     0
171
     0
290
     0
174
     0
 93
        1
 44
0.0
173
     0
291
     0
 45
0.0
  0
VISUALSTYLE
  5
32
102
{ACAD_REACTORS
330
2A
102
}
102
{ACAD_XDICTIONARY
360
42E
102
}
330
2A
100
AcDbVisualStyle
  2
Basic
 70
     7
 71
     1
 72
     0
 73
     1
 90
        0
 40
-0.6
 41
-30.0
 62
     5
 63
     7
421
 16777215
 74
     0
 91
        4
 64
     7
 65
   257
 75
     1
175
     1
 42
1.0
 92
        8
 66
     7
 43
1.0
 76
     1
 77
     6
 78
     2
 67
     7
 79
     5
170
     0
171
     0
290
     0
174
     0
 93
        1
 44
0.0
173
     0
291
     1
 45
0.0
  0
VISUALSTYLE
  5
36
102
{ACAD_REACTORS
330
2A
102
}
102
{ACAD_XDICTIONARY
360
436
102
}
330
2A
100
AcDbVisualStyle
  2
Brighten
 70
    12
 71
     2
 72
     2
 73
     0
 90
        0
 40
-0.6
 41
-30.0
 62
     5
 63
     7
421
 16777215
 74
     1
 91
        4
 64
     7
 65
   257
 75
     1
175
     1
 42
1.0
 92
        8
 66
     7
 43
1.0
 76
     1
 77
     6
 78
     2
 67
     7
 79
     5
170
     0
171
     0
290
     0
174
     0
 93
        1
 44
50.0
173
     0
291
     1
 45
0.0
  0
VISUALSTYLE
  5
3A
102
{ACAD_REACTORS
330
2A
102
}
102
{ACAD_XDICTIONARY
360
43E
102
}
330
2A
100
AcDbVisualStyle
  2
ColorChange
 70
    16
 71
     2
 72
     2
 73
     3
 90
        0
 40
-0.6
 41
-30.0
 62
     5
 63
     8
421
  8421504
 74
     1
 91
        4
 64
     7
 65
   257
 75
     1
175
     1
 42
1.0
 92
        8
 66
     8
424
  8421504
 43
1.0
 76
     1
 77
     6
 78
     2
 67
     7
 79
     5
170
     0
171
     0
290
     0
174
     0
 93
        1
 44
0.0
173
     0
291
     1
 45
0.0
  0
VISUALSTYLE
  5
34
102
{ACAD_REACTORS
330
2A
102
}
102
{ACAD_XDICTIONARY
360
432
102
}
330
2A
100
AcDbVisualStyle
  2
Conceptual
 70
     9
 71
     3
 72
     2
 73
     0
 90
        0
 40
-0.6
 41
-30.0
 62
     5
 63
     7
421
 16777215
 74
     2
 91
        2
 64
     7
 65
   257
 75
     1
175
     1
 42
40.0
 92
        8
 66
     7
 43
1.0
 76
     1
 77
     6
 78
     2
 67
     7
 79
     3
170
     0
171
     0
290
     0
174
     0
 93
        1
 44
0.0
173
     0
291
     0
 45
0.0
  0
VISUALSTYLE
  5
35
102
{ACAD_REACTORS
330
2A
102
}
102
{ACAD_XDICTIONARY
360
434
102
}
330
2A
100
AcDbVisualStyle
  2
Dim
 70
    11
 71
     2
 72
     2
 73
     0
 90
        0
 40
-0.6
 41
-30.0
 62
     5
 63
     7
421
 16777215
 74
     1
 91
        4
 64
     7
 65
   257
 75
     1
175
     1
 42
1.0
 92
        8
 66
     7
 43
1.0
 76
     1
 77
     6
 78
     2
 67
     7
 79
     5
170
     0
171
     0
290
     0
174
     0
 93
        1
 44
-50.0
173
     0
291
     1
 45
0.0
  0
VISUALSTYLE
  5
39
102
{ACAD_REACTORS
330
2A
102
}
102
{ACAD_XDICTIONARY
360
43C
102
}
330
2A
100
AcDbVisualStyle
  2
Facepattern
 70
    15
 71
     2
 72
     2
 73
     0
 90
        0
 40
-0.6
 41
-30.0
 62
     5
 63
     7
421
 16777215
 74
     1
 91
        4
 64
     7
 65
   257
 75
     1
175
     1
 42
1.0
 92
        8
 66
     7
 43
1.0
 76
     1
 77
     6
 78
     2
 67
     7
 79
     5
170
     0
171
     0
290
     0
174
     0
 93
        1
 44
0.0
173
     0
291
     1
 45
0.0
  0
VISUALSTYLE
  5
2B
102
{ACAD_REACTORS
330
2A
102
}
102
{ACAD_XDICTIONARY
360
420
102
}
330
2A
100
AcDbVisualStyle
  2
Flat
 70
     0
 71
     2
 72
     1
 73
     1
 90
        2
 40
-0.6
 41
30.0
 62
     5
 63
     7
421
 16777215
 74
     0
 91
        4
 64
     7
 65
   257
 75
     1
175
     1
 42
1.0
 92
        8
 66
     7
 43
1.0
 76
     1
 77
     6
 78
     2
 67
     7
 79
     5
170
     0
171
     0
290
     0
174
     0
 93
       13
 44
0.0
173
     0
291
     1
 45
0.0
  0
VISUALSTYLE
  5
2C
102
{ACAD_REACTORS
330
2A
102
}
102
{ACAD_XDICTIONARY
360
422
102
}
330
2A
100
AcDbVisualStyle
  2
FlatWithEdges
 70
     1
 71
     2
 72
     1
 73
     1
 90
        2
 40
-0.6
 41
30.0
 62
     5
 63
     7
421
 16777215
 74
     1
 91
        4
 64
     7
 65
   257
 75
     1
175
     1
 42
1.0
 92
        0
 66
   257
 43
1.0
 76
     1
 77
     6
 78
     2
 67
     7
 79
     5
170
     0
171
     0
290
     0
174
     0
 93
       13
 44
0.0
173
     0
291
     1
 45
0.0
  0
VISUALSTYLE
  5
2D
102
{ACAD_REACTORS
330
2A
102
}
102
{ACAD_XDICTIONARY
360
424
102
}
330
2A
100
AcDbVisualStyle
  2
Gouraud
 70
     2
 71
     2
 72
     2
 73
     1
 90
        2
 40
-0.6
 41
30.0
 62
     5
 63
     7
421
 16777215
 74
     0
 91
        4
 64
     7
 65
   257
 75
     1
175
     1
 42
1.0
 92
        0
 66
     7
 43
1.0
 76
     1
 77
     6
 78
     2
 67
     7
 79
     5
170
     0
171
     0
290
     0
174
     0
 93
       13
 44
0.0
173
     0
291
     1
 45
0.0
  0
VISUALSTYLE
  5
2E
102
{ACAD_REACTORS
330
2A
102
}
102
{ACAD_XDICTIONARY
360
426
102
}
330
2A
100
AcDbVisualStyle
  2
GouraudWithEdges
 70
     3
 71
     2
 72
     2
 73
     1
 90
        2
 40
-0.6
 41
30.0
 62
     5
 63
     7
421
 16777215
 74
     1
 91
        4
 64
     7
 65
   257
 75
     1
175
     1
 42
1.0
 92
        0
 66
   257
 43
1.0
 76
     1
 77
     6
 78
     2
 67
     7
 79
     5
170
     0
171
     0
290
     0
174
     0
 93
       13
 44
0.0
173
     0
291
     1
 45
0.0
  0
VISUALSTYLE
  5
38
102
{ACAD_REACTORS
330
2A
102
}
102
{ACAD_XDICTIONARY
360
43A
102
}
330
2A
100
AcDbVisualStyle
  2
Linepattern
 70
    14
 71
     2
 72
     2
 73
     0
 90
        0
 40
-0.6
 41
-30.0
 62
     5
 63
     7
421
 16777215
 74
     1
 91
        4
 64
     7
 65
   257
 75
     7
175
     7
 42
1.0
 92
        8
 66
     7
 43
1.0
 76
     1
 77
     6
 78
     2
 67
     7
 79
     5
170
     0
171
     0
290
     0
174
     0
 93
        1
 44
0.0
173
     0
291
     1
 45
0.0
  0
VISUALSTYLE
  5
33
102
{ACAD_REACTORS
330
2A
102
}
102
{ACAD_XDICTIONARY
360
430
102
}
330
2A
100
AcDbVisualStyle
  2
Realistic
 70
     8
 71
     2
 72
     2
 73
     0
 90
        0
 40
-0.6
 41
-30.0
 62
     5
 63
     7
421
 16777215
 74
     1
 91
        0
 64
     7
 65
   257
 75
     1
175
     1
 42
1.0
 92
        8
 66
     8
424
  7895160
 43
1.0
 76
     1
 77
     6
 78
     2
 67
     7
 79
     5
170
     0
171
     0
290
     0
174
     0
 93
       13
 44
0.0
173
     0
291
     0
 45
0.0
  0
VISUALSTYLE
  5
37
102
{ACAD_REACTORS
330
2A
102
}
102
{ACAD_XDICTIONARY
360
438
102
}
330
2A
100
AcDbVisualStyle
  2
Thicken
 70
    13
 71
     2
 72
     2
 73
     0
 90
        0
 40
-0.6
 41
-30.0
 62
     5
 63
     7
421
 16777215
 74
     1
 91
        4
 64
     7
 65
   257
 75
     1
175
     1
 42
1.0
 92
       12
 66
     7
 43
1.0
 76
     1
 77
     6
 78
     2
 67
     7
 79
     5
170
     0
171
     0
290
     0
174
     0
 93
        1
 44
0.0
173
     0
291
     1
 45
0.0
  0
DICTIONARY
  5
428
330
2F
100
AcDbDictionary
280
     1
281
     1
  3
ACAD_XREC_ROUNDTRIP
360
429
  0
DICTIONARY
  5
42C
330
31
100
AcDbDictionary
280
     1
281
     1
  3
ACAD_XREC_ROUNDTRIP
360
42D
  0
DICTIONARY
  5
42A
330
30
100
AcDbDictionary
280
     1
281
     1
  3
ACAD_XREC_ROUNDTRIP
360
42B
  0
DICTIONARY
  5
42E
330
32
100
AcDbDictionary
280
     1
281
     1
  3
ACAD_XREC_ROUNDTRIP
360
42F
  0
DICTIONARY
  5
436
330
36
100
AcDbDictionary
280
     1
281
     1
  3
ACAD_XREC_ROUNDTRIP
360
437
  0
DICTIONARY
  5
43E
330
3A
100
AcDbDictionary
280
     1
281
     1
  3
ACAD_XREC_ROUNDTRIP
360
43F
  0
DICTIONARY
  5
432
330
34
100
AcDbDictionary
280
     1
281
     1
  3
ACAD_XREC_ROUNDTRIP
360
433
  0
DICTIONARY
  5
434
330
35
100
AcDbDictionary
280
     1
281
     1
  3
ACAD_XREC_ROUNDTRIP
360
435
  0
DICTIONARY
  5
43C
330
39
100
AcDbDictionary
280
     1
281
     1
  3
ACAD_XREC_ROUNDTRIP
360
43D
  0
DICTIONARY
  5
420
330
2B
100
AcDbDictionary
280
     1
281
     1
  3
ACAD_XREC_ROUNDTRIP
360
421
  0
DICTIONARY
  5
422
330
2C
100
AcDbDictionary
280
     1
281
     1
  3
ACAD_XREC_ROUNDTRIP
360
423
  0
DICTIONARY
  5
424
330
2D
100
AcDbDictionary
280
     1
281
     1
  3
ACAD_XREC_ROUNDTRIP
360
425
  0
DICTIONARY
  5
426
330
2E
100
AcDbDictionary
280
     1
281
     1
  3
ACAD_XREC_ROUNDTRIP
360
427
  0
DICTIONARY
  5
43A
330
38
100
AcDbDictionary
280
     1
281
     1
  3
ACAD_XREC_ROUNDTRIP
360
43B
  0
DICTIONARY
  5
430
330
33
100
AcDbDictionary
280
     1
281
     1
  3
ACAD_XREC_ROUNDTRIP
360
431
  0
DICTIONARY
  5
438
330
37
100
AcDbDictionary
280
     1
281
     1
  3
ACAD_XREC_ROUNDTRIP
360
439
  0
XRECORD
  5
429
102
{ACAD_REACTORS
330
428
102
}
330
428
100
AcDbXrecord
280
     1
102
RTVSPropertyOp0
 70
     1
102
RTVSPropertyOp1
 70
     1
102
RTVSPropertyOp2
 70
     1
102
RTVSPropertyOp3
 70
     1
102
RTVSPropertyOp4
 70
     1
102
RTVSPropertyOp5
 70
     1
102
RTVSPropertyOp6
 70
     1
102
RTVSPropertyOp7
 70
     1
102
RTVSPropertyOp8
 70
     1
102
RTVSPropertyOp9
 70
     1
102
RTVSPropertyOp10
 70
     1
102
RTVSPropertyOp11
 70
     1
102
RTVSPropertyOp12
 70
     1
102
RTVSPropertyOp13
 70
     1
102
RTVSPropertyOp14
 70
     1
102
RTVSPropertyOp15
 70
     1
102
RTVSPropertyOp16
 70
     1
102
RTVSPropertyOp17
 70
     1
102
RTVSPropertyOp18
 70
     1
102
RTVSPropertyOp19
 70
     1
102
RTVSPropertyOp20
 70
     1
102
RTVSPropertyOp21
 70
     1
102
RTVSPropertyOp22
 70
     1
102
RTVSPropertyOp23
 70
     1
102
RTVSPropertyOp24
 70
     1
102
RTVSPropertyOp25
 70
     1
102
RTVSPropertyOp26
 70
     1
102
RTVSPropertyOp27
 70
     1
102
RTVSPropertyOp28
 70
     1
102
RTVSPropertyOp29
 70
     1
102
RTVSPropertyOp30
 70
     1
102
RTVSPropertyOp31
 70
     1
102
RTVSPropertyOp32
 70
     1
  0
XRECORD
  5
42D
102
{ACAD_REACTORS
330
42C
102
}
330
42C
100
AcDbXrecord
280
     1
102
RTVSPropertyOp0
 70
     1
102
RTVSPropertyOp1
 70
     1
102
RTVSPropertyOp2
 70
     1
102
RTVSPropertyOp3
 70
     1
102
RTVSPropertyOp4
 70
     1
102
RTVSPropertyOp5
 70
     1
102
RTVSPropertyOp6
 70
     1
102
RTVSPropertyOp7
 70
     1
102
RTVSPropertyOp8
 70
     1
102
RTVSPropertyOp9
 70
     1
102
RTVSPropertyOp10
 70
     1
102
RTVSPropertyOp11
 70
     1
102
RTVSPropertyOp12
 70
     1
102
RTVSPropertyOp13
 70
     1
102
RTVSPropertyOp14
 70
     1
102
RTVSPropertyOp15
 70
     1
102
RTVSPropertyOp16
 70
     1
102
RTVSPropertyOp17
 70
     1
102
RTVSPropertyOp18
 70
     1
102
RTVSPropertyOp19
 70
     1
102
RTVSPropertyOp20
 70
     1
102
RTVSPropertyOp21
 70
     1
102
RTVSPropertyOp22
 70
     1
102
RTVSPropertyOp23
 70
     1
102
RTVSPropertyOp24
 70
     1
102
RTVSPropertyOp25
 70
     1
102
RTVSPropertyOp26
 70
     1
102
RTVSPropertyOp27
 70
     1
102
RTVSPropertyOp28
 70
     1
102
RTVSPropertyOp29
 70
     1
102
RTVSPropertyOp30
 70
     1
102
RTVSPropertyOp31
 70
     1
102
RTVSPropertyOp32
 70
     1
  0
XRECORD
  5
42B
102
{ACAD_REACTORS
330
42A
102
}
330
42A
100
AcDbXrecord
280
     1
102
RTVSPropertyOp0
 70
     1
102
RTVSPropertyOp1
 70
     1
102
RTVSPropertyOp2
 70
     1
102
RTVSPropertyOp3
 70
     1
102
RTVSPropertyOp4
 70
     1
102
RTVSPropertyOp5
 70
     1
102
RTVSPropertyOp6
 70
     1
102
RTVSPropertyOp7
 70
     1
102
RTVSPropertyOp8
 70
     1
102
RTVSPropertyOp9
 70
     1
102
RTVSPropertyOp10
 70
     1
102
RTVSPropertyOp11
 70
     1
102
RTVSPropertyOp12
 70
     1
102
RTVSPropertyOp13
 70
     1
102
RTVSPropertyOp14
 70
     1
102
RTVSPropertyOp15
 70
     1
102
RTVSPropertyOp16
 70
     1
102
RTVSPropertyOp17
 70
     1
102
RTVSPropertyOp18
 70
     1
102
RTVSPropertyOp19
 70
     1
102
RTVSPropertyOp20
 70
     1
102
RTVSPropertyOp21
 70
     1
102
RTVSPropertyOp22
 70
     1
102
RTVSPropertyOp23
 70
     1
102
RTVSPropertyOp24
 70
     1
102
RTVSPropertyOp25
 70
     1
102
RTVSPropertyOp26
 70
     1
102
RTVSPropertyOp27
 70
     1
102
RTVSPropertyOp28
 70
     1
102
RTVSPropertyOp29
 70
     1
102
RTVSPropertyOp30
 70
     1
102
RTVSPropertyOp31
 70
     1
102
RTVSPropertyOp32
 70
     1
  0
XRECORD
  5
42F
102
{ACAD_REACTORS
330
42E
102
}
330
42E
100
AcDbXrecord
280
     1
102
RTVSPropertyOp0
 70
     1
102
RTVSPropertyOp1
 70
     1
102
RTVSPropertyOp2
 70
     1
102
RTVSPropertyOp3
 70
     1
102
RTVSPropertyOp4
 70
     1
102
RTVSPropertyOp5
 70
     1
102
RTVSPropertyOp6
 70
     1
102
RTVSPropertyOp7
 70
     1
102
RTVSPropertyOp8
 70
     1
102
RTVSPropertyOp9
 70
     1
102
RTVSPropertyOp10
 70
     1
102
RTVSPropertyOp11
 70
     1
102
RTVSPropertyOp12
 70
     1
102
RTVSPropertyOp13
 70
     1
102
RTVSPropertyOp14
 70
     1
102
RTVSPropertyOp15
 70
     1
102
RTVSPropertyOp16
 70
     1
102
RTVSPropertyOp17
 70
     1
102
RTVSPropertyOp18
 70
     1
102
RTVSPropertyOp19
 70
     1
102
RTVSPropertyOp20
 70
     1
102
RTVSPropertyOp21
 70
     1
102
RTVSPropertyOp22
 70
     1
102
RTVSPropertyOp23
 70
     1
102
RTVSPropertyOp24
 70
     1
102
RTVSPropertyOp25
 70
     1
102
RTVSPropertyOp26
 70
     1
102
RTVSPropertyOp27
 70
     1
102
RTVSPropertyOp28
 70
     1
102
RTVSPropertyOp29
 70
     1
102
RTVSPropertyOp30
 70
     1
102
RTVSPropertyOp31
 70
     1
102
RTVSPropertyOp32
 70
     1
  0
XRECORD
  5
437
102
{ACAD_REACTORS
330
436
102
}
330
436
100
AcDbXrecord
280
     1
102
RTVSPropertyOp0
 70
     1
102
RTVSPropertyOp1
 70
     1
102
RTVSPropertyOp2
 70
     1
102
RTVSPropertyOp3
 70
     1
102
RTVSPropertyOp4
 70
     1
102
RTVSPropertyOp5
 70
     1
102
RTVSPropertyOp6
 70
     1
102
RTVSPropertyOp7
 70
     1
102
RTVSPropertyOp8
 70
     1
102
RTVSPropertyOp9
 70
     1
102
RTVSPropertyOp10
 70
     1
102
RTVSPropertyOp11
 70
     1
102
RTVSPropertyOp12
 70
     1
102
RTVSPropertyOp13
 70
     1
102
RTVSPropertyOp14
 70
     1
102
RTVSPropertyOp15
 70
     1
102
RTVSPropertyOp16
 70
     1
102
RTVSPropertyOp17
 70
     1
102
RTVSPropertyOp18
 70
     1
102
RTVSPropertyOp19
 70
     1
102
RTVSPropertyOp20
 70
     1
102
RTVSPropertyOp21
 70
     1
102
RTVSPropertyOp22
 70
     1
102
RTVSPropertyOp23
 70
     1
102
RTVSPropertyOp24
 70
     1
102
RTVSPropertyOp25
 70
     1
102
RTVSPropertyOp26
 70
     1
102
RTVSPropertyOp27
 70
     1
102
RTVSPropertyOp28
 70
     1
102
RTVSPropertyOp29
 70
     1
102
RTVSPropertyOp30
 70
     1
102
RTVSPropertyOp31
 70
     1
102
RTVSPropertyOp32
 70
     1
  0
XRECORD
  5
43F
102
{ACAD_REACTORS
330
43E
102
}
330
43E
100
AcDbXrecord
280
     1
102
RTVSPropertyOp0
 70
     1
102
RTVSPropertyOp1
 70
     1
102
RTVSPropertyOp2
 70
     1
102
RTVSPropertyOp3
 70
     1
102
RTVSPropertyOp4
 70
     1
102
RTVSPropertyOp5
 70
     1
102
RTVSPropertyOp6
 70
     1
102
RTVSPropertyOp7
 70
     1
102
RTVSPropertyOp8
 70
     1
102
RTVSPropertyOp9
 70
     1
102
RTVSPropertyOp10
 70
     1
102
RTVSPropertyOp11
 70
     1
102
RTVSPropertyOp12
 70
     1
102
RTVSPropertyOp13
 70
     1
102
RTVSPropertyOp14
 70
     1
102
RTVSPropertyOp15
 70
     1
102
RTVSPropertyOp16
 70
     1
102
RTVSPropertyOp17
 70
     1
102
RTVSPropertyOp18
 70
     1
102
RTVSPropertyOp19
 70
     1
102
RTVSPropertyOp20
 70
     1
102
RTVSPropertyOp21
 70
     1
102
RTVSPropertyOp22
 70
     1
102
RTVSPropertyOp23
 70
     1
102
RTVSPropertyOp24
 70
     1
102
RTVSPropertyOp25
 70
     1
102
RTVSPropertyOp26
 70
     1
102
RTVSPropertyOp27
 70
     1
102
RTVSPropertyOp28
 70
     1
102
RTVSPropertyOp29
 70
     1
102
RTVSPropertyOp30
 70
     1
102
RTVSPropertyOp31
 70
     1
102
RTVSPropertyOp32
 70
     1
  0
XRECORD
  5
433
102
{ACAD_REACTORS
330
432
102
}
330
432
100
AcDbXrecord
280
     1
102
RTVSPropertyOp0
 70
     1
102
RTVSPropertyOp1
 70
     1
102
RTVSPropertyOp2
 70
     1
102
RTVSPropertyOp3
 70
     1
102
RTVSPropertyOp4
 70
     1
102
RTVSPropertyOp5
 70
     1
102
RTVSPropertyOp6
 70
     1
102
RTVSPropertyOp7
 70
     1
102
RTVSPropertyOp8
 70
     1
102
RTVSPropertyOp9
 70
     1
102
RTVSPropertyOp10
 70
     1
102
RTVSPropertyOp11
 70
     1
102
RTVSPropertyOp12
 70
     1
102
RTVSPropertyOp13
 70
     1
102
RTVSPropertyOp14
 70
     1
102
RTVSPropertyOp15
 70
     1
102
RTVSPropertyOp16
 70
     1
102
RTVSPropertyOp17
 70
     1
102
RTVSPropertyOp18
 70
     1
102
RTVSPropertyOp19
 70
     1
102
RTVSPropertyOp20
 70
     1
102
RTVSPropertyOp21
 70
     1
102
RTVSPropertyOp22
 70
     1
102
RTVSPropertyOp23
 70
     1
102
RTVSPropertyOp24
 70
     1
102
RTVSPropertyOp25
 70
     1
102
RTVSPropertyOp26
 70
     1
102
RTVSPropertyOp27
 70
     1
102
RTVSPropertyOp28
 70
     1
102
RTVSPropertyOp29
 70
     1
102
RTVSPropertyOp30
 70
     1
102
RTVSPropertyOp31
 70
     1
102
RTVSPropertyOp32
 70
     1
  0
XRECORD
  5
435
102
{ACAD_REACTORS
330
434
102
}
330
434
100
AcDbXrecord
280
     1
102
RTVSPropertyOp0
 70
     1
102
RTVSPropertyOp1
 70
     1
102
RTVSPropertyOp2
 70
     1
102
RTVSPropertyOp3
 70
     1
102
RTVSPropertyOp4
 70
     1
102
RTVSPropertyOp5
 70
     1
102
RTVSPropertyOp6
 70
     1
102
RTVSPropertyOp7
 70
     1
102
RTVSPropertyOp8
 70
     1
102
RTVSPropertyOp9
 70
     1
102
RTVSPropertyOp10
 70
     1
102
RTVSPropertyOp11
 70
     1
102
RTVSPropertyOp12
 70
     1
102
RTVSPropertyOp13
 70
     1
102
RTVSPropertyOp14
 70
     1
102
RTVSPropertyOp15
 70
     1
102
RTVSPropertyOp16
 70
     1
102
RTVSPropertyOp17
 70
     1
102
RTVSPropertyOp18
 70
     1
102
RTVSPropertyOp19
 70
     1
102
RTVSPropertyOp20
 70
     1
102
RTVSPropertyOp21
 70
     1
102
RTVSPropertyOp22
 70
     1
102
RTVSPropertyOp23
 70
     1
102
RTVSPropertyOp24
 70
     1
102
RTVSPropertyOp25
 70
     1
102
RTVSPropertyOp26
 70
     1
102
RTVSPropertyOp27
 70
     1
102
RTVSPropertyOp28
 70
     1
102
RTVSPropertyOp29
 70
     1
102
RTVSPropertyOp30
 70
     1
102
RTVSPropertyOp31
 70
     1
102
RTVSPropertyOp32
 70
     1
  0
XRECORD
  5
43D
102
{ACAD_REACTORS
330
43C
102
}
330
43C
100
AcDbXrecord
280
     1
102
RTVSPropertyOp0
 70
     1
102
RTVSPropertyOp1
 70
     1
102
RTVSPropertyOp2
 70
     1
102
RTVSPropertyOp3
 70
     1
102
RTVSPropertyOp4
 70
     1
102
RTVSPropertyOp5
 70
     1
102
RTVSPropertyOp6
 70
     1
102
RTVSPropertyOp7
 70
     1
102
RTVSPropertyOp8
 70
     1
102
RTVSPropertyOp9
 70
     1
102
RTVSPropertyOp10
 70
     1
102
RTVSPropertyOp11
 70
     1
102
RTVSPropertyOp12
 70
     1
102
RTVSPropertyOp13
 70
     1
102
RTVSPropertyOp14
 70
     1
102
RTVSPropertyOp15
 70
     1
102
RTVSPropertyOp16
 70
     1
102
RTVSPropertyOp17
 70
     1
102
RTVSPropertyOp18
 70
     1
102
RTVSPropertyOp19
 70
     1
102
RTVSPropertyOp20
 70
     1
102
RTVSPropertyOp21
 70
     1
102
RTVSPropertyOp22
 70
     1
102
RTVSPropertyOp23
 70
     1
102
RTVSPropertyOp24
 70
     1
102
RTVSPropertyOp25
 70
     1
102
RTVSPropertyOp26
 70
     1
102
RTVSPropertyOp27
 70
     1
102
RTVSPropertyOp28
 70
     1
102
RTVSPropertyOp29
 70
     1
102
RTVSPropertyOp30
 70
     1
102
RTVSPropertyOp31
 70
     1
102
RTVSPropertyOp32
 70
     1
  0
XRECORD
  5
421
102
{ACAD_REACTORS
330
420
102
}
330
420
100
AcDbXrecord
280
     1
102
RTVSPropertyOp0
 70
     1
102
RTVSPropertyOp1
 70
     1
102
RTVSPropertyOp2
 70
     1
102
RTVSPropertyOp3
 70
     1
102
RTVSPropertyOp4
 70
     1
102
RTVSPropertyOp5
 70
     1
102
RTVSPropertyOp6
 70
     1
102
RTVSPropertyOp7
 70
     1
102
RTVSPropertyOp8
 70
     1
102
RTVSPropertyOp9
 70
     1
102
RTVSPropertyOp10
 70
     1
102
RTVSPropertyOp11
 70
     1
102
RTVSPropertyOp12
 70
     1
102
RTVSPropertyOp13
 70
     1
102
RTVSPropertyOp14
 70
     1
102
RTVSPropertyOp15
 70
     1
102
RTVSPropertyOp16
 70
     1
102
RTVSPropertyOp17
 70
     1
102
RTVSPropertyOp18
 70
     1
102
RTVSPropertyOp19
 70
     1
102
RTVSPropertyOp20
 70
     1
102
RTVSPropertyOp21
 70
     1
102
RTVSPropertyOp22
 70
     1
102
RTVSPropertyOp23
 70
     1
102
RTVSPropertyOp24
 70
     1
102
RTVSPropertyOp25
 70
     1
102
RTVSPropertyOp26
 70
     1
102
RTVSPropertyOp27
 70
     1
102
RTVSPropertyOp28
 70
     1
102
RTVSPropertyOp29
 70
     1
102
RTVSPropertyOp30
 70
     1
102
RTVSPropertyOp31
 70
     1
102
RTVSPropertyOp32
 70
     1
  0
XRECORD
  5
423
102
{ACAD_REACTORS
330
422
102
}
330
422
100
AcDbXrecord
280
     1
102
RTVSPropertyOp0
 70
     1
102
RTVSPropertyOp1
 70
     1
102
RTVSPropertyOp2
 70
     1
102
RTVSPropertyOp3
 70
     1
102
RTVSPropertyOp4
 70
     1
102
RTVSPropertyOp5
 70
     1
102
RTVSPropertyOp6
 70
     1
102
RTVSPropertyOp7
 70
     1
102
RTVSPropertyOp8
 70
     1
102
RTVSPropertyOp9
 70
     1
102
RTVSPropertyOp10
 70
     1
102
RTVSPropertyOp11
 70
     1
102
RTVSPropertyOp12
 70
     1
102
RTVSPropertyOp13
 70
     1
102
RTVSPropertyOp14
 70
     1
102
RTVSPropertyOp15
 70
     1
102
RTVSPropertyOp16
 70
     1
102
RTVSPropertyOp17
 70
     1
102
RTVSPropertyOp18
 70
     1
102
RTVSPropertyOp19
 70
     1
102
RTVSPropertyOp20
 70
     1
102
RTVSPropertyOp21
 70
     1
102
RTVSPropertyOp22
 70
     1
102
RTVSPropertyOp23
 70
     1
102
RTVSPropertyOp24
 70
     1
102
RTVSPropertyOp25
 70
     1
102
RTVSPropertyOp26
 70
     1
102
RTVSPropertyOp27
 70
     1
102
RTVSPropertyOp28
 70
     1
102
RTVSPropertyOp29
 70
     1
102
RTVSPropertyOp30
 70
     1
102
RTVSPropertyOp31
 70
     1
102
RTVSPropertyOp32
 70
     1
  0
XRECORD
  5
425
102
{ACAD_REACTORS
330
424
102
}
330
424
100
AcDbXrecord
280
     1
102
RTVSPropertyOp0
 70
     1
102
RTVSPropertyOp1
 70
     1
102
RTVSPropertyOp2
 70
     1
102
RTVSPropertyOp3
 70
     1
102
RTVSPropertyOp4
 70
     1
102
RTVSPropertyOp5
 70
     1
102
RTVSPropertyOp6
 70
     1
102
RTVSPropertyOp7
 70
     1
102
RTVSPropertyOp8
 70
     1
102
RTVSPropertyOp9
 70
     1
102
RTVSPropertyOp10
 70
     1
102
RTVSPropertyOp11
 70
     1
102
RTVSPropertyOp12
 70
     1
102
RTVSPropertyOp13
 70
     1
102
RTVSPropertyOp14
 70
     1
102
RTVSPropertyOp15
 70
     1
102
RTVSPropertyOp16
 70
     1
102
RTVSPropertyOp17
 70
     1
102
RTVSPropertyOp18
 70
     1
102
RTVSPropertyOp19
 70
     1
102
RTVSPropertyOp20
 70
     1
102
RTVSPropertyOp21
 70
     1
102
RTVSPropertyOp22
 70
     1
102
RTVSPropertyOp23
 70
     1
102
RTVSPropertyOp24
 70
     1
102
RTVSPropertyOp25
 70
     1
102
RTVSPropertyOp26
 70
     1
102
RTVSPropertyOp27
 70
     1
102
RTVSPropertyOp28
 70
     1
102
RTVSPropertyOp29
 70
     1
102
RTVSPropertyOp30
 70
     1
102
RTVSPropertyOp31
 70
     1
102
RTVSPropertyOp32
 70
     1
  0
XRECORD
  5
427
102
{ACAD_REACTORS
330
426
102
}
330
426
100
AcDbXrecord
280
     1
102
RTVSPropertyOp0
 70
     1
102
RTVSPropertyOp1
 70
     1
102
RTVSPropertyOp2
 70
     1
102
RTVSPropertyOp3
 70
     1
102
RTVSPropertyOp4
 70
     1
102
RTVSPropertyOp5
 70
     1
102
RTVSPropertyOp6
 70
     1
102
RTVSPropertyOp7
 70
     1
102
RTVSPropertyOp8
 70
     1
102
RTVSPropertyOp9
 70
     1
102
RTVSPropertyOp10
 70
     1
102
RTVSPropertyOp11
 70
     1
102
RTVSPropertyOp12
 70
     1
102
RTVSPropertyOp13
 70
     1
102
RTVSPropertyOp14
 70
     1
102
RTVSPropertyOp15
 70
     1
102
RTVSPropertyOp16
 70
     1
102
RTVSPropertyOp17
 70
     1
102
RTVSPropertyOp18
 70
     1
102
RTVSPropertyOp19
 70
     1
102
RTVSPropertyOp20
 70
     1
102
RTVSPropertyOp21
 70
     1
102
RTVSPropertyOp22
 70
     1
102
RTVSPropertyOp23
 70
     1
102
RTVSPropertyOp24
 70
     1
102
RTVSPropertyOp25
 70
     1
102
RTVSPropertyOp26
 70
     1
102
RTVSPropertyOp27
 70
     1
102
RTVSPropertyOp28
 70
     1
102
RTVSPropertyOp29
 70
     1
102
RTVSPropertyOp30
 70
     1
102
RTVSPropertyOp31
 70
     1
102
RTVSPropertyOp32
 70
     1
  0
XRECORD
  5
43B
102
{ACAD_REACTORS
330
43A
102
}
330
43A
100
AcDbXrecord
280
     1
102
RTVSPropertyOp0
 70
     1
102
RTVSPropertyOp1
 70
     1
102
RTVSPropertyOp2
 70
     1
102
RTVSPropertyOp3
 70
     1
102
RTVSPropertyOp4
 70
     1
102
RTVSPropertyOp5
 70
     1
102
RTVSPropertyOp6
 70
     1
102
RTVSPropertyOp7
 70
     1
102
RTVSPropertyOp8
 70
     1
102
RTVSPropertyOp9
 70
     1
102
RTVSPropertyOp10
 70
     1
102
RTVSPropertyOp11
 70
     1
102
RTVSPropertyOp12
 70
     1
102
RTVSPropertyOp13
 70
     1
102
RTVSPropertyOp14
 70
     1
102
RTVSPropertyOp15
 70
     1
102
RTVSPropertyOp16
 70
     1
102
RTVSPropertyOp17
 70
     1
102
RTVSPropertyOp18
 70
     1
102
RTVSPropertyOp19
 70
     1
102
RTVSPropertyOp20
 70
     1
102
RTVSPropertyOp21
 70
     1
102
RTVSPropertyOp22
 70
     1
102
RTVSPropertyOp23
 70
     1
102
RTVSPropertyOp24
 70
     1
102
RTVSPropertyOp25
 70
     1
102
RTVSPropertyOp26
 70
     1
102
RTVSPropertyOp27
 70
     1
102
RTVSPropertyOp28
 70
     1
102
RTVSPropertyOp29
 70
     1
102
RTVSPropertyOp30
 70
     1
102
RTVSPropertyOp31
 70
     1
102
RTVSPropertyOp32
 70
     1
  0
XRECORD
  5
431
102
{ACAD_REACTORS
330
430
102
}
330
430
100
AcDbXrecord
280
     1
102
RTVSPropertyOp0
 70
     1
102
RTVSPropertyOp1
 70
     1
102
RTVSPropertyOp2
 70
     1
102
RTVSPropertyOp3
 70
     1
102
RTVSPropertyOp4
 70
     1
102
RTVSPropertyOp5
 70
     1
102
RTVSPropertyOp6
 70
     1
102
RTVSPropertyOp7
 70
     1
102
RTVSPropertyOp8
 70
     1
102
RTVSPropertyOp9
 70
     1
102
RTVSPropertyOp10
 70
     1
102
RTVSPropertyOp11
 70
     1
102
RTVSPropertyOp12
 70
     1
102
RTVSPropertyOp13
 70
     1
102
RTVSPropertyOp14
 70
     1
102
RTVSPropertyOp15
 70
     1
102
RTVSPropertyOp16
 70
     1
102
RTVSPropertyOp17
 70
     1
102
RTVSPropertyOp18
 70
     1
102
RTVSPropertyOp19
 70
     1
102
RTVSPropertyOp20
 70
     1
102
RTVSPropertyOp21
 70
     1
102
RTVSPropertyOp22
 70
     1
102
RTVSPropertyOp23
 70
     1
102
RTVSPropertyOp24
 70
     1
102
RTVSPropertyOp25
 70
     1
102
RTVSPropertyOp26
 70
     1
102
RTVSPropertyOp27
 70
     1
102
RTVSPropertyOp28
 70
     1
102
RTVSPropertyOp29
 70
     1
102
RTVSPropertyOp30
 70
     1
102
RTVSPropertyOp31
 70
     1
102
RTVSPropertyOp32
 70
     1
  0
XRECORD
  5
439
102
{ACAD_REACTORS
330
438
102
}
330
438
100
AcDbXrecord
280
     1
102
RTVSPropertyOp0
 70
     1
102
RTVSPropertyOp1
 70
     1
102
RTVSPropertyOp2
 70
     1
102
RTVSPropertyOp3
 70
     1
102
RTVSPropertyOp4
 70
     1
102
RTVSPropertyOp5
 70
     1
102
RTVSPropertyOp6
 70
     1
102
RTVSPropertyOp7
 70
     1
102
RTVSPropertyOp8
 70
     1
102
RTVSPropertyOp9
 70
     1
102
RTVSPropertyOp10
 70
     1
102
RTVSPropertyOp11
 70
     1
102
RTVSPropertyOp12
 70
     1
102
RTVSPropertyOp13
 70
     1
102
RTVSPropertyOp14
 70
     1
102
RTVSPropertyOp15
 70
     1
102
RTVSPropertyOp16
 70
     1
102
RTVSPropertyOp17
 70
     1
102
RTVSPropertyOp18
 70
     1
102
RTVSPropertyOp19
 70
     1
102
RTVSPropertyOp20
 70
     1
102
RTVSPropertyOp21
 70
     1
102
RTVSPropertyOp22
 70
     1
102
RTVSPropertyOp23
 70
     1
102
RTVSPropertyOp24
 70
     1
102
RTVSPropertyOp25
 70
     1
102
RTVSPropertyOp26
 70
     1
102
RTVSPropertyOp27
 70
     1
102
RTVSPropertyOp28
 70
     1
102
RTVSPropertyOp29
 70
     1
102
RTVSPropertyOp30
 70
     1
102
RTVSPropertyOp31
 70
     1
102
RTVSPropertyOp32
 70
     1
  0
ENDSEC
  0
EOF
