  0
SECTION
  2
HEADER
  9
$ACADVER
  1
AC1021
  9
$ACADMAINTVER
 70
    25
  9
$DWGCODEPAGE
  3
ANSI_932
  9
$INSBASE
 10
0.0
 20
0.0
 30
0.0
  9
$EXTMIN
 10
-2500000000.0
 20
112.9668056601162
 30
0.0
  9
$EXTMAX
 10
3246.000007165337
 20
4563.924508241415
 30
0.0
  9
$LIMMIN
 10
0.0
 20
0.0
  9
$LIMMAX
 10
420.0
 20
594.0
  9
$ORTHOMODE
 70
     0
  9
$REGENMODE
 70
     1
  9
$FILLMODE
 70
     1
  9
$QTEXTMODE
 70
     0
  9
$MIRRTEXT
 70
     1
  9
$LTSCALE
 40
2.0
  9
$ATTMODE
 70
     1
  9
$TEXTSIZE
 40
32.0
  9
$TRACEWID
 40
0.05
  9
$TEXTSTYLE
  7
Standard
  9
$CLAYER
  8
0
  9
$CELTYPE
  6
ByLayer
  9
$CECOLOR
 62
   256
  9
$CELTSCALE
 40
1.0
  9
$DISPSILH
 70
     0
  9
$DIMSCALE
 40
1.0
  9
$DIMASZ
 40
1.5
  9
$DIMEXO
 40
2.0
  9
$DIMDLI
 40
10.0
  9
$DIMRND
 40
0.0
  9
$DIMDLE
 40
0.0
  9
$DIMEXE
 40
1.0
  9
$DIMTP
 40
0.0
  9
$DIMTM
 40
0.0
  9
$DIMTXT
 40
4.0
  9
$DIMCEN
 40
0.09
  9
$DIMTSZ
 40
0.0
  9
$DIMTOL
 70
     0
  9
$DIMLIM
 70
     0
  9
$DIMTIH
 70
     0
  9
$DIMTOH
 70
     0
  9
$DIMSE1
 70
     0
  9
$DIMSE2
 70
     0
  9
$DIMTAD
 70
     3
  9
$DIMZIN
 70
     8
  9
$DIMBLK
  1

  9
$DIMASO
 70
     1
  9
$DIMSHO
 70
     1
  9
$DIMPOST
  1

  9
$DIMAPOST
  1

  9
$DIMALT
 70
     0
  9
$DIMALTD
 70
     2
  9
$DIMALTF
 40
25.4
  9
$DIMLFAC
 40
1.0
  9
$DIMTOFL
 70
     1
  9
$DIMTVP
 40
0.7
  9
$DIMTIX
 70
     0
  9
$DIMSOXD
 70
     0
  9
$DIMSAH
 70
     0
  9
$DIMBLK1
  1

  9
$DIMBLK2
  1

  9
$DIMSTYLE
  2
Standard
  9
$DIMCLRD
 70
     0
  9
$DIMCLRE
 70
     0
  9
$DIMCLRT
 70
     0
  9
$DIMTFAC
 40
0.5
  9
$DIMGAP
 40
0.09
  9
$DIMJUST
 70
     0
  9
$DIMSD1
 70
     0
  9
$DIMSD2
 70
     0
  9
$DIMTOLJ
 70
     1
  9
$DIMTZIN
 70
     8
  9
$DIMALTZ
 70
     0
  9
$DIMALTTZ
 70
     0
  9
$DIMUPT
 70
     1
  9
$DIMDEC
 70
     2
  9
$DIMTDEC
 70
     4
  9
$DIMALTU
 70
     2
  9
$DIMALTTD
 70
     2
  9
$DIMTXSTY
  7
Standard
  9
$DIMAUNIT
 70
     0
  9
$DIMADEC
 70
     0
  9
$DIMALTRND
 40
0.0
  9
$DIMAZIN
 70
     0
  9
$DIMDSEP
 70
    46
  9
$DIMATFIT
 70
     2
  9
$DIMFRAC
 70
     0
  9
$DIMLDRBLK
  1

  9
$DIMLUNIT
 70
     2
  9
$DIMLWD
 70
    -2
  9
$DIMLWE
 70
    -2
  9
$DIMTMOVE
 70
     2
  9
$DIMFXL
 40
1.0
  9
$DIMFXLON
 70
     0
  9
$DIMJOGANG
 40
0.7853981633974483
  9
$DIMTFILL
 70
     0
  9
$DIMTFILLCLR
 70
     0
  9
$DIMARCSYM
 70
     0
  9
$DIMLTYPE
  6

  9
$DIMLTEX1
  6

  9
$DIMLTEX2
  6

  9
$LUNITS
 70
     2
  9
$LUPREC
 70
     4
  9
$SKETCHINC
 40
0.1
  9
$FILLETRAD
 40
0.5
  9
$AUNITS
 70
     0
  9
$AUPREC
 70
     0
  9
$MENU
  1
.
  9
$ELEVATION
 40
0.0
  9
$PELEVATION
 40
0.0
  9
$THICKNESS
 40
0.0
  9
$LIMCHECK
 70
     0
  9
$CHAMFERA
 40
0.5
  9
$CHAMFERB
 40
0.5
  9
$CHAMFERC
 40
1.0
  9
$CHAMFERD
 40
0.0
  9
$SKPOLY
 70
     0
  9
$TDCREATE
 40
2460137.866342593
  9
$TDUCREATE
 40
2460137.491342593
  9
$TDUPDATE
 40
2460137.491355949
  9
$TDUUPDATE
 40
2460137.116355949
  9
$TDINDWG
 40
0.0000000116
  9
$TDUSRTIMER
 40
0.0000000116
  9
$USRTIMER
 70
     1
  9
$ANGBASE
 50
0.0
  9
$ANGDIR
 70
     0
  9
$PDMODE
 70
     0
  9
$PDSIZE
 40
0.0
  9
$PLINEWID
 40
0.0
  9
$SPLFRAME
 70
     0
  9
$SPLINETYPE
 70
     6
  9
$SPLINESEGS
 70
     8
  9
$HANDSEED
  5
3EB
  9
$SURFTAB1
 70
     6
  9
$SURFTAB2
 70
     6
  9
$SURFTYPE
 70
     6
  9
$SURFU
 70
     6
  9
$SURFV
 70
     6
  9
$UCSBASE
  2

  9
$UCSNAME
  2

  9
$UCSORG
 10
0.0
 20
0.0
 30
0.0
  9
$UCSXDIR
 10
1.0
 20
0.0
 30
0.0
  9
$UCSYDIR
 10
0.0
 20
1.0
 30
0.0
  9
$UCSORTHOREF
  2

  9
$UCSORTHOVIEW
 70
     0
  9
$UCSORGTOP
 10
0.0
 20
0.0
 30
0.0
  9
$UCSORGBOTTOM
 10
0.0
 20
0.0
 30
0.0
  9
$UCSORGLEFT
 10
0.0
 20
0.0
 30
0.0
  9
$UCSORGRIGHT
 10
0.0
 20
0.0
 30
0.0
  9
$UCSORGFRONT
 10
0.0
 20
0.0
 30
0.0
  9
$UCSORGBACK
 10
0.0
 20
0.0
 30
0.0
  9
$PUCSBASE
  2

  9
$PUCSNAME
  2

  9
$PUCSORG
 10
0.0
 20
0.0
 30
0.0
  9
$PUCSXDIR
 10
1.0
 20
0.0
 30
0.0
  9
$PUCSYDIR
 10
0.0
 20
1.0
 30
0.0
  9
$PUCSORTHOREF
  2

  9
$PUCSORTHOVIEW
 70
     0
  9
$PUCSORGTOP
 10
0.0
 20
0.0
 30
0.0
  9
$PUCSORGBOTTOM
 10
0.0
 20
0.0
 30
0.0
  9
$PUCSORGLEFT
 10
0.0
 20
0.0
 30
0.0
  9
$PUCSORGRIGHT
 10
0.0
 20
0.0
 30
0.0
  9
$PUCSORGFRONT
 10
0.0
 20
0.0
 30
0.0
  9
$PUCSORGBACK
 10
0.0
 20
0.0
 30
0.0
  9
$USERI1
 70
     0
  9
$USERI2
 70
     0
  9
$USERI3
 70
     0
  9
$USERI4
 70
     0
  9
$USERI5
 70
     0
  9
$USERR1
 40
0.0
  9
$USERR2
 40
0.0
  9
$USERR3
 40
0.0
  9
$USERR4
 40
0.0
  9
$USERR5
 40
0.0
  9
$WORLDVIEW
 70
     1
  9
$SHADEDGE
 70
     3
  9
$SHADEDIF
 70
    70
  9
$TILEMODE
 70
     1
  9
$MAXACTVP
 70
    64
  9
$PINSBASE
 10
0.0
 20
0.0
 30
0.0
  9
$PLIMCHECK
 70
     0
  9
$PEXTMIN
 10
0.0
 20
0.0
 30
0.0
  9
$PEXTMAX
 10
420.0
 20
594.0
 30
0.0
  9
$PLIMMIN
 10
0.0
 20
0.0
  9
$PLIMMAX
 10
420.0
 20
594.0
  9
$UNITMODE
 70
     0
  9
$VISRETAIN
 70
     1
  9
$PLINEGEN
 70
     0
  9
$PSLTSCALE
 70
     1
  9
$TREEDEPTH
 70
  3020
  9
$CMLSTYLE
  2
Standard
  9
$CMLJUST
 70
     0
  9
$CMLSCALE
 40
1.0
  9
$PROXYGRAPHICS
 70
     1
  9
$MEASUREMENT
 70
     1
  9
$CELWEIGHT
370
    -1
  9
$ENDCAPS
280
     0
  9
$JOINSTYLE
280
     0
  9
$LWDISPLAY
290
     0
  9
$INSUNITS
 70
     4
  9
$HYPERLINKBASE
  1

  9
$STYLESHEET
  1

  9
$XEDIT
290
     1
  9
$CEPSNTYPE
380
     0
  9
$PSTYLEMODE
290
     1
  9
$FINGERPRINTGUID
  2
{89938A16-52B9-4DAE-801C-9638699A96A9}
  9
$VERSIONGUID
  2
{FAEB1C32-E019-11D5-929B-00C0DF256EC4}
  9
$EXTNAMES
290
     1
  9
$PSVPSCALE
 40
0.0
  9
$OLESTARTUP
290
     0
  9
$SORTENTS
280
   127
  9
$INDEXCTL
280
     0
  9
$HIDETEXT
280
     1
  9
$XCLIPFRAME
290
     0
  9
$HALOGAP
280
     0
  9
$OBSCOLOR
 70
   257
  9
$OBSLTYPE
280
     0
  9
$INTERSECTIONDISPLAY
280
     0
  9
$INTERSECTIONCOLOR
 70
   257
  9
$DIMASSOC
280
     1
  9
$PROJECTNAME
  1

  9
$CAMERADISPLAY
290
     0
  9
$LENSLENGTH
 40
50.0
  9
$CAMERAHEIGHT
 40
0.0
  9
$STEPSPERSEC
 40
2.0
  9
$STEPSIZE
 40
6.0
  9
$3DDWFPREC
 40
2.0
  9
$PSOLWIDTH
 40
0.25
  9
$PSOLHEIGHT
 40
4.0
  9
$LOFTANG1
 40
1.570796326794897
  9
$LOFTANG2
 40
1.570796326794897
  9
$LOFTMAG1
 40
0.0
  9
$LOFTMAG2
 40
0.0
  9
$LOFTPARAM
 70
     7
  9
$LOFTNORMALS
280
     1
  9
$LATITUDE
 40
37.795
  9
$LONGITUDE
 40
-122.394
  9
$NORTHDIRECTION
 40
0.0
  9
$TIMEZONE
 70
 -8000
  9
$LIGHTGLYPHDISPLAY
280
     1
  9
$TILEMODELIGHTSYNCH
280
     1
  9
$SOLIDHIST
280
     1
  9
$SHOWHIST
280
     1
  9
$DWFFRAME
280
     2
  9
$DGNFRAME
280
     2
  9
$REALWORLDSCALE
290
     1
  9
$INTERFERECOLOR
 62
   256
  9
$CSHADOW
280
     0
  9
$SHADOWPLANELOCATION
 40
0.0
  0
ENDSEC
  0
SECTION
  2
CLASSES
  0
CLASS
  1
ACDBDICTIONARYWDFLT
  2
AcDbDictionaryWithDefault
  3
ObjectDBX Classes
 90
        0
 91
        4
280
     0
281
     0
  0
CLASS
  1
VISUALSTYLE
  2
AcDbVisualStyle
  3
ObjectDBX Classes
 90
     4095
 91
        4
280
     0
281
     0
  0
CLASS
  1
MATERIAL
  2
AcDbMaterial
  3
ObjectDBX Classes
 90
     1153
 91
        4
280
     0
281
     0
  0
ENDSEC
  0
SECTION
  2
TABLES
  0
TABLE
  2
VPORT
  5
8
330
0
100
AcDbSymbolTable
 70
     1
  0
VPORT
  5
29
330
8
100
AcDbSymbolTableRecord
100
AcDbViewportTableRecord
  2
*Active
 70
     0
 10
0.0
 20
0.0
 11
1.0
 21
1.0
 12
10.42990654205607
 22
4.5
 13
0.0
 23
0.0
 14
0.5
 24
0.5
 15
0.5
 25
0.5
 16
0.0
 26
0.0
 36
1.0
 17
0.0
 27
0.0
 37
0.0
 40
9.0
 41
1.972972972850329
 42
50.0
 43
0.0
 44
0.0
 50
0.0
 51
0.0
 71
     0
 72
   100
 73
     1
 74
     3
 75
     0
 76
     0
 77
     0
 78
     0
281
     0
 65
     1
110
0.0
120
0.0
130
0.0
111
1.0
121
0.0
131
0.0
112
0.0
122
1.0
132
0.0
 79
     0
146
0.0
 60
     3
 61
     5
292
     1
282
     1
141
0.0
142
0.0
 63
   250
  0
ENDTAB
  0
TABLE
  2
LTYPE
  5
5
330
0
100
AcDbSymbolTable
 70
     9
  0
LTYPE
  5
14
330
5
100
AcDbSymbolTableRecord
100
AcDbLinetypeTableRecord
  2
ByBlock
 70
     0
  3

 72
    65
 73
     0
 40
0.0
  0
LTYPE
  5
15
330
5
100
AcDbSymbolTableRecord
100
AcDbLinetypeTableRecord
  2
ByLayer
 70
     0
  3

 72
    65
 73
     0
 40
0.0
  0
LTYPE
  5
16
330
5
100
AcDbSymbolTableRecord
100
AcDbLinetypeTableRecord
  2
Continuous
 70
     0
  3
Solid line
 72
    65
 73
     0
 40
0.0
  0
LTYPE
  5
8E
330
5
100
AcDbSymbolTableRecord
100
AcDbLinetypeTableRecord
  2
DOT
 70
     0
  3
DOT
 72
    65
 73
     2
 40
4.0
 49
6.0
 74
     0
 49
-2.0
 74
     0
  0
LTYPE
  5
8F
330
5
100
AcDbSymbolTableRecord
100
AcDbLinetypeTableRecord
  2
HIDDEN
 70
     0
  3
HIDDEN
 72
    65
 73
     2
 40
4.2
 49
8.4
 74
     0
 49
-4.2
 74
     0
  0
LTYPE
  5
90
330
5
100
AcDbSymbolTableRecord
100
AcDbLinetypeTableRecord
  2
DASHDOT
 70
     0
  3
DASHDOT
 72
    65
 73
     4
 40
14.5
 49
30.0
 74
     0
 49
-9.0
 74
     0
 49
2.5
 74
     0
 49
-9.0
 74
     0
  0
LTYPE
  5
91
330
5
100
AcDbSymbolTableRecord
100
AcDbLinetypeTableRecord
  2
PHANTOM
 70
     0
  3
PHANTOM
 72
    65
 73
     6
 40
12.0
 49
30.0
 74
     0
 49
-9.0
 74
     0
 49
2.5
 74
     0
 49
-5.0
 74
     0
 49
2.5
 74
     0
 49
-9.0
 74
     0
  0
LTYPE
  5
92
330
5
100
AcDbSymbolTableRecord
100
AcDbLinetypeTableRecord
  2
ACAD_ISO14W100
 70
     0
  3
ACAD_ISO14W100
 72
    65
 73
     8
 40
1.5
 49
12.0
 74
     0
 49
-3.0
 74
     0
 49
0.5
 74
     0
 49
-3.0
 74
     0
 49
0.5
 74
     0
 49
-3.0
 74
     0
 49
0.5
 74
     0
 49
-3.0
 74
     0
  0
LTYPE
  5
93
330
5
100
AcDbSymbolTableRecord
100
AcDbLinetypeTableRecord
  2
ACAD_ISO06W100
 70
     0
  3
ACAD_ISO06W100
 72
    65
 73
     8
 40
13.5
 49
24.0
 74
     0
 49
-3.0
 74
     0
 49
0.5
 74
     0
 49
-3.0
 74
     0
 49
0.5
 74
     0
 49
-3.0
 74
     0
 49
0.5
 74
     0
 49
-3.0
 74
     0
  0
LTYPE
  5
94
330
5
100
AcDbSymbolTableRecord
100
AcDbLinetypeTableRecord
  2
ACAD_ISO11W100
 70
     0
  3
ACAD_ISO11W100
 72
    65
 73
     6
 40
15.5
 49
12.0
 74
     0
 49
-3.0
 74
     0
 49
12.0
 74
     0
 49
-3.0
 74
     0
 49
0.5
 74
     0
 49
-3.0
 74
     0
  0
LTYPE
  5
95
330
5
100
AcDbSymbolTableRecord
100
AcDbLinetypeTableRecord
  2
ACAD_ISO13W100
 70
     0
  3
ACAD_ISO13W100
 72
    65
 73
     8
 40
13.0
 49
12.0
 74
     0
 49
-3.0
 74
     0
 49
12.0
 74
     0
 49
-3.0
 74
     0
 49
0.5
 74
     0
 49
-3.0
 74
     0
 49
0.5
 74
     0
 49
-3.0
 74
     0
  0
ENDTAB
  0
TABLE
  2
LAYER
  5
2
330
0
100
AcDbSymbolTable
 70
    26
  0
LAYER
  5
10
330
2
100
AcDbSymbolTableRecord
100
AcDbLayerTableRecord
  2
0
 70
     0
 62
     7
  6
Continuous
370
    -3
390
F
347
3E
  0
LAYER
  5
96
330
2
100
AcDbSymbolTableRecord
100
AcDbLayerTableRecord
  2
1
 70
     0
 62
     7
  6
Continuous
370
     9
390
F
347
3E
  0
LAYER
  5
97
330
2
100
AcDbSymbolTableRecord
100
AcDbLayerTableRecord
  2
2
 70
     0
 62
     4
  6
Continuous
370
     9
390
F
347
3E
  0
LAYER
  5
98
330
2
100
AcDbSymbolTableRecord
100
AcDbLayerTableRecord
  2
3
 70
     0
 62
     3
  6
Continuous
370
     9
390
F
347
3E
  0
LAYER
  5
99
330
2
100
AcDbSymbolTableRecord
100
AcDbLayerTableRecord
  2
4
 70
     0
 62
     6
  6
Continuous
370
     9
390
F
347
3E
  0
LAYER
  5
9A
330
2
100
AcDbSymbolTableRecord
100
AcDbLayerTableRecord
  2
5
 70
     0
 62
    94
  6
Continuous
370
     9
390
F
347
3E
  0
LAYER
  5
9B
330
2
100
AcDbSymbolTableRecord
100
AcDbLayerTableRecord
  2
6
 70
     0
 62
   142
  6
Continuous
370
     9
390
F
347
3E
  0
LAYER
  5
9C
330
2
100
AcDbSymbolTableRecord
100
AcDbLayerTableRecord
  2
7
 70
     0
 62
    11
  6
Continuous
370
     9
390
F
347
3E
  0
LAYER
  5
9D
330
2
100
AcDbSymbolTableRecord
100
AcDbLayerTableRecord
  2
8
 70
     0
 62
   193
  6
Continuous
370
     9
390
F
347
3E
  0
LAYER
  5
9E
330
2
100
AcDbSymbolTableRecord
100
AcDbLayerTableRecord
  2
9
 70
     0
 62
   190
  6
Continuous
370
     9
390
F
347
3E
  0
LAYER
  5
9F
330
2
100
AcDbSymbolTableRecord
100
AcDbLayerTableRecord
  2
10
 70
     0
 62
   251
  6
Continuous
370
     9
390
F
347
3E
  0
LAYER
  5
A0
330
2
100
AcDbSymbolTableRecord
100
AcDbLayerTableRecord
  2
11
 70
     0
 62
   131
  6
Continuous
370
     9
390
F
347
3E
  0
LAYER
  5
A1
330
2
100
AcDbSymbolTableRecord
100
AcDbLayerTableRecord
  2
12
 70
     0
 62
    13
  6
Continuous
370
     9
390
F
347
3E
  0
LAYER
  5
A2
330
2
100
AcDbSymbolTableRecord
100
AcDbLayerTableRecord
  2
13
 70
     0
 62
    91
  6
Continuous
370
     9
390
F
347
3E
  0
LAYER
  5
A3
330
2
100
AcDbSymbolTableRecord
100
AcDbLayerTableRecord
  2
14
 70
     0
 62
   211
  6
Continuous
370
     9
390
F
347
3E
  0
LAYER
  5
A4
330
2
100
AcDbSymbolTableRecord
100
AcDbLayerTableRecord
  2
15
 70
     0
 62
   174
  6
Continuous
370
     9
390
F
347
3E
  0
LAYER
  5
A5
330
2
100
AcDbSymbolTableRecord
100
AcDbLayerTableRecord
  2
16
 70
     0
 62
   174
  6
Continuous
370
     9
390
F
347
3E
  0
LAYER
  5
A6
330
2
100
AcDbSymbolTableRecord
100
AcDbLayerTableRecord
  2
17
 70
     0
 62
   150
  6
Continuous
370
     9
390
F
347
3E
  0
LAYER
  5
A7
330
2
100
AcDbSymbolTableRecord
100
AcDbLayerTableRecord
  2
18
 70
     0
 62
    72
  6
Continuous
370
     9
390
F
347
3E
  0
LAYER
  5
A8
330
2
100
AcDbSymbolTableRecord
100
AcDbLayerTableRecord
  2
19
 70
     0
 62
   212
  6
Continuous
370
     9
390
F
347
3E
  0
LAYER
  5
A9
330
2
100
AcDbSymbolTableRecord
100
AcDbLayerTableRecord
  2
20
 70
     0
 62
    52
  6
Continuous
370
     9
390
F
347
3E
  0
LAYER
  5
AA
330
2
100
AcDbSymbolTableRecord
100
AcDbLayerTableRecord
  2
21
 70
     0
 62
   171
  6
Continuous
370
     9
390
F
347
3E
  0
LAYER
  5
AB
330
2
100
AcDbSymbolTableRecord
100
AcDbLayerTableRecord
  2
22
 70
     0
 62
    21
  6
Continuous
370
     9
390
F
347
3E
  0
LAYER
  5
AC
330
2
100
AcDbSymbolTableRecord
100
AcDbLayerTableRecord
  2
23
 70
     0
 62
   136
  6
Continuous
370
     9
390
F
347
3E
  0
LAYER
  5
AD
330
2
100
AcDbSymbolTableRecord
100
AcDbLayerTableRecord
  2
24
 70
     0
 62
   132
  6
Continuous
370
     9
390
F
347
3E
  0
LAYER
  5
AE
330
2
100
AcDbSymbolTableRecord
100
AcDbLayerTableRecord
  2
25
 70
     0
 62
   193
  6
Continuous
370
     9
390
F
347
3E
  0
ENDTAB
  0
TABLE
  2
STYLE
  5
3
330
0
100
AcDbSymbolTable
 70
     3
  0
STYLE
  5
11
330
3
100
AcDbSymbolTableRecord
100
AcDbTextStyleTableRecord
  2
Standard
 70
     0
 40
0.0
 41
1.0
 50
0.0
 71
     0
 42
32.0
  3
txt
  4
bigfont
  0
STYLE
  5
41
330
3
100
AcDbSymbolTableRecord
100
AcDbTextStyleTableRecord
  2
T_STANDARD
 70
     4
 40
10.0
 41
1.0
 50
0.0
 71
     0
 42
10.0
  3
txt
  4
bigfont
  0
STYLE
  5
14A
330
3
100
AcDbSymbolTableRecord
100
AcDbTextStyleTableRecord
  2
ＭＳ ゴシック
 70
     0
 40
0.0
 41
1.0
 50
0.0
 71
     0
 42
0.0
  3

  4

1001
ACAD
1000
ＭＳ ゴシック
1071
      256
  0
ENDTAB
  0
TABLE
  2
VIEW
  5
6
330
0
100
AcDbSymbolTable
 70
     0
  0
ENDTAB
  0
TABLE
  2
UCS
  5
7
330
0
100
AcDbSymbolTable
 70
     0
  0
ENDTAB
  0
TABLE
  2
APPID
  5
9
330
0
100
AcDbSymbolTable
 70
     2
  0
APPID
  5
12
330
9
100
AcDbSymbolTableRecord
100
AcDbRegAppTableRecord
  2
ACAD
 70
     0
  0
APPID
  5
40
330
9
100
AcDbSymbolTableRecord
100
AcDbRegAppTableRecord
  2
ODA
 70
     0
  0
ENDTAB
  0
TABLE
  2
DIMSTYLE
  5
A
330
0
100
AcDbSymbolTable
 70
     1
100
AcDbDimStyleTable
  0
DIMSTYLE
105
27
102
{ACAD_REACTORS
330
154
330
18B
330
194
330
19D
330
1C9
330
202
330
20C
330
214
330
21C
330
30B
330
314
330
31D
330
335
330
33F
330
352
330
35B
330
365
330
36E
330
378
330
381
330
38B
330
394
102
}
330
A
100
AcDbSymbolTableRecord
100
AcDbDimStyleTableRecord
  2
Standard
 70
     0
178
     0
340
11
  0
ENDTAB
  0
TABLE
  2
BLOCK_RECORD
  5
1
330
0
100
AcDbSymbolTable
 70
    51
  0
BLOCK_RECORD
  5
1F
330
1
100
AcDbSymbolTableRecord
100
AcDbBlockTableRecord
  2
*Model_Space
340
22
 70
     0
280
     1
281
     0
  0
BLOCK_RECORD
  5
1B
330
1
100
AcDbSymbolTableRecord
100
AcDbBlockTableRecord
  2
*Paper_Space
340
1E
 70
     0
280
     1
281
     0
  0
BLOCK_RECORD
  5
23
330
1
100
AcDbSymbolTableRecord
100
AcDbBlockTableRecord
  2
*Paper_Space0
340
26
 70
     0
280
     1
281
     0
  0
BLOCK_RECORD
  5
42
330
1
100
AcDbSymbolTableRecord
100
AcDbBlockTableRecord
  2
_ORIGIN
340
0
 70
     0
280
     1
281
     0
  0
BLOCK_RECORD
  5
47
330
1
100
AcDbSymbolTableRecord
100
AcDbBlockTableRecord
  2
_DOTBLANK
340
0
 70
     0
280
     1
281
     0
  0
BLOCK_RECORD
  5
4C
330
1
100
AcDbSymbolTableRecord
100
AcDbBlockTableRecord
  2
_DOT
340
0
 70
     0
280
     1
281
     0
  0
BLOCK_RECORD
  5
51
330
1
100
AcDbSymbolTableRecord
100
AcDbBlockTableRecord
  2
_OPEN
340
0
102
{BLKREFS
331
FC
331
11D
331
152
331
153
331
15D
331
16B
331
17A
331
189
331
18A
331
192
331
193
331
19B
331
19C
331
1A9
331
1B0
331
1C7
331
1C8
331
1EB
331
200
331
201
331
20A
331
20B
331
213
331
21B
331
21D
331
2AC
331
2E0
331
309
331
30A
331
312
331
313
331
31B
331
31C
331
333
331
334
331
33D
331
33E
331
350
331
351
331
359
331
35A
331
363
331
364
331
36C
331
36D
331
376
331
377
331
37F
331
380
331
389
331
38A
331
392
331
393
331
3A1
102
}
 70
     0
280
     1
281
     0
  0
BLOCK_RECORD
  5
57
330
1
100
AcDbSymbolTableRecord
100
AcDbBlockTableRecord
  2
_CLOSED
340
0
 70
     0
280
     1
281
     0
  0
BLOCK_RECORD
  5
5E
330
1
100
AcDbSymbolTableRecord
100
AcDbBlockTableRecord
  2
_CLOSEDBLANK
340
0
 70
     0
280
     1
281
     0
  0
BLOCK_RECORD
  5
64
330
1
100
AcDbSymbolTableRecord
100
AcDbBlockTableRecord
  2
_ARROWFILLED
340
0
 70
     0
280
     1
281
     0
  0
BLOCK_RECORD
  5
68
330
1
100
AcDbSymbolTableRecord
100
AcDbBlockTableRecord
  2
_BOXBLANK
340
0
 70
     0
280
     1
281
     0
  0
BLOCK_RECORD
  5
70
330
1
100
AcDbSymbolTableRecord
100
AcDbBlockTableRecord
  2
_BOXFILLED
340
0
 70
     0
280
     1
281
     0
  0
BLOCK_RECORD
  5
75
330
1
100
AcDbSymbolTableRecord
100
AcDbBlockTableRecord
  2
_INTEGRAL
340
0
 70
     0
280
     1
281
     0
  0
BLOCK_RECORD
  5
7A
330
1
100
AcDbSymbolTableRecord
100
AcDbBlockTableRecord
  2
_OBLIQUE
340
0
 70
     0
280
     1
281
     0
  0
BLOCK_RECORD
  5
7E
330
1
100
AcDbSymbolTableRecord
100
AcDbBlockTableRecord
  2
_NONE
340
0
 70
     0
280
     1
281
     0
  0
BLOCK_RECORD
  5
81
330
1
100
AcDbSymbolTableRecord
100
AcDbBlockTableRecord
  2
MARK_OPEN
340
0
 70
     0
280
     1
281
     0
  0
BLOCK_RECORD
  5
86
330
1
100
AcDbSymbolTableRecord
100
AcDbBlockTableRecord
  2
MARK_ORIGIN
340
0
 70
     0
280
     1
281
     0
  0
BLOCK_RECORD
  5
8A
330
1
100
AcDbSymbolTableRecord
100
AcDbBlockTableRecord
  2
MARK_DOT
340
0
 70
     0
280
     1
281
     0
  0
BLOCK_RECORD
  5
B4
330
1
100
AcDbSymbolTableRecord
100
AcDbBlockTableRecord
  2
*G16
340
0
102
{BLKREFS
331
E2
102
}
 70
     0
280
     1
281
     0
  0
BLOCK_RECORD
  5
EE
330
1
100
AcDbSymbolTableRecord
100
AcDbBlockTableRecord
  2
*G17
340
0
102
{BLKREFS
331
F2
102
}
 70
     0
280
     1
281
     0
  0
BLOCK_RECORD
  5
144
330
1
100
AcDbSymbolTableRecord
100
AcDbBlockTableRecord
  2
*G18
340
0
102
{BLKREFS
331
148
102
}
 70
     0
280
     1
281
     0
  0
BLOCK_RECORD
  5
14B
330
1
100
AcDbSymbolTableRecord
100
AcDbBlockTableRecord
  2
Dim1
340
0
 70
     0
280
     1
281
     0
  0
BLOCK_RECORD
  5
168
330
1
100
AcDbSymbolTableRecord
100
AcDbBlockTableRecord
  2
*G20
340
0
102
{BLKREFS
331
172
102
}
 70
     0
280
     1
281
     0
  0
BLOCK_RECORD
  5
182
330
1
100
AcDbSymbolTableRecord
100
AcDbBlockTableRecord
  2
Dim2
340
0
 70
     0
280
     1
281
     0
  0
BLOCK_RECORD
  5
18C
330
1
100
AcDbSymbolTableRecord
100
AcDbBlockTableRecord
  2
Dim3
340
0
 70
     0
280
     1
281
     0
  0
BLOCK_RECORD
  5
195
330
1
100
AcDbSymbolTableRecord
100
AcDbBlockTableRecord
  2
Dim4
340
0
 70
     0
280
     1
281
     0
  0
BLOCK_RECORD
  5
1C0
330
1
100
AcDbSymbolTableRecord
100
AcDbBlockTableRecord
  2
Dim5
340
0
 70
     0
280
     1
281
     0
  0
BLOCK_RECORD
  5
1D3
330
1
100
AcDbSymbolTableRecord
100
AcDbBlockTableRecord
  2
*G25
340
0
102
{BLKREFS
331
1D7
102
}
 70
     0
280
     1
281
     0
  0
BLOCK_RECORD
  5
1F9
330
1
100
AcDbSymbolTableRecord
100
AcDbBlockTableRecord
  2
Dim6
340
0
 70
     0
280
     1
281
     0
  0
BLOCK_RECORD
  5
203
330
1
100
AcDbSymbolTableRecord
100
AcDbBlockTableRecord
  2
Dim7
340
0
 70
     0
280
     1
281
     0
  0
BLOCK_RECORD
  5
20D
330
1
100
AcDbSymbolTableRecord
100
AcDbBlockTableRecord
  2
Dim8
340
0
 70
     0
280
     1
281
     0
  0
BLOCK_RECORD
  5
215
330
1
100
AcDbSymbolTableRecord
100
AcDbBlockTableRecord
  2
Dim9
340
0
 70
     0
280
     1
281
     0
  0
BLOCK_RECORD
  5
252
330
1
100
AcDbSymbolTableRecord
100
AcDbBlockTableRecord
  2
*G30
340
0
102
{BLKREFS
331
2A5
102
}
 70
     0
280
     1
281
     0
  0
BLOCK_RECORD
  5
255
330
1
100
AcDbSymbolTableRecord
100
AcDbBlockTableRecord
  2
*G31
340
0
102
{BLKREFS
331
2A4
102
}
 70
     0
280
     1
281
     0
  0
BLOCK_RECORD
  5
2B8
330
1
100
AcDbSymbolTableRecord
100
AcDbBlockTableRecord
  2
*G32
340
0
102
{BLKREFS
331
2BE
102
}
 70
     0
280
     1
281
     0
  0
BLOCK_RECORD
  5
2C1
330
1
100
AcDbSymbolTableRecord
100
AcDbBlockTableRecord
  2
*G33
340
0
102
{BLKREFS
331
2C7
102
}
 70
     0
280
     1
281
     0
  0
BLOCK_RECORD
  5
2D6
330
1
100
AcDbSymbolTableRecord
100
AcDbBlockTableRecord
  2
*G34
340
0
102
{BLKREFS
331
2DC
102
}
 70
     0
280
     1
281
     0
  0
BLOCK_RECORD
  5
2DD
330
1
100
AcDbSymbolTableRecord
100
AcDbBlockTableRecord
  2
*G35
340
0
102
{BLKREFS
331
2E8
102
}
 70
     0
280
     1
281
     0
  0
BLOCK_RECORD
  5
2ED
330
1
100
AcDbSymbolTableRecord
100
AcDbBlockTableRecord
  2
*G36
340
0
102
{BLKREFS
331
2F3
102
}
 70
     0
280
     1
281
     0
  0
BLOCK_RECORD
  5
2F5
330
1
100
AcDbSymbolTableRecord
100
AcDbBlockTableRecord
  2
*G37
340
0
102
{BLKREFS
331
2FB
102
}
 70
     0
280
     1
281
     0
  0
BLOCK_RECORD
  5
302
330
1
100
AcDbSymbolTableRecord
100
AcDbBlockTableRecord
  2
Dim10
340
0
 70
     0
280
     1
281
     0
  0
BLOCK_RECORD
  5
30C
330
1
100
AcDbSymbolTableRecord
100
AcDbBlockTableRecord
  2
Dim11
340
0
 70
     0
280
     1
281
     0
  0
BLOCK_RECORD
  5
315
330
1
100
AcDbSymbolTableRecord
100
AcDbBlockTableRecord
  2
Dim12
340
0
 70
     0
280
     1
281
     0
  0
BLOCK_RECORD
  5
32C
330
1
100
AcDbSymbolTableRecord
100
AcDbBlockTableRecord
  2
Dim13
340
0
 70
     0
280
     1
281
     0
  0
BLOCK_RECORD
  5
336
330
1
100
AcDbSymbolTableRecord
100
AcDbBlockTableRecord
  2
Dim14
340
0
 70
     0
280
     1
281
     0
  0
BLOCK_RECORD
  5
349
330
1
100
AcDbSymbolTableRecord
100
AcDbBlockTableRecord
  2
Dim15
340
0
 70
     0
280
     1
281
     0
  0
BLOCK_RECORD
  5
353
330
1
100
AcDbSymbolTableRecord
100
AcDbBlockTableRecord
  2
Dim16
340
0
 70
     0
280
     1
281
     0
  0
BLOCK_RECORD
  5
35C
330
1
100
AcDbSymbolTableRecord
100
AcDbBlockTableRecord
  2
Dim17
340
0
 70
     0
280
     1
281
     0
  0
BLOCK_RECORD
  5
366
330
1
100
AcDbSymbolTableRecord
100
AcDbBlockTableRecord
  2
Dim18
340
0
 70
     0
280
     1
281
     0
  0
BLOCK_RECORD
  5
36F
330
1
100
AcDbSymbolTableRecord
100
AcDbBlockTableRecord
  2
Dim19
340
0
 70
     0
280
     1
281
     0
  0
BLOCK_RECORD
  5
379
330
1
100
AcDbSymbolTableRecord
100
AcDbBlockTableRecord
  2
Dim20
340
0
 70
     0
280
     1
281
     0
  0
BLOCK_RECORD
  5
382
330
1
100
AcDbSymbolTableRecord
100
AcDbBlockTableRecord
  2
Dim21
340
0
 70
     0
280
     1
281
     0
  0
BLOCK_RECORD
  5
38C
330
1
100
AcDbSymbolTableRecord
100
AcDbBlockTableRecord
  2
Dim22
340
0
 70
     0
280
     1
281
     0
  0
ENDTAB
  0
ENDSEC
  0
SECTION
  2
BLOCKS
  0
BLOCK
  5
20
330
1F
100
AcDbEntity
  8
0
100
AcDbBlockBegin
  2
*Model_Space
 70
     0
 10
0.0
 20
0.0
 30
0.0
  3
*Model_Space
  1

  0
ENDBLK
  5
21
330
1F
100
AcDbEntity
  8
0
100
AcDbBlockEnd
  0
BLOCK
  5
1C
330
1B
100
AcDbEntity
 67
     1
  8
0
100
AcDbBlockBegin
  2
*Paper_Space
 70
     0
 10
0.0
 20
0.0
 30
0.0
  3
*Paper_Space
  1

  0
ENDBLK
  5
1D
330
1B
100
AcDbEntity
 67
     1
  8
0
100
AcDbBlockEnd
  0
BLOCK
  5
24
330
23
100
AcDbEntity
  8
0
100
AcDbBlockBegin
  2
*Paper_Space0
 70
     0
 10
0.0
 20
0.0
 30
0.0
  3
*Paper_Space0
  1

  0
ENDBLK
  5
25
330
23
100
AcDbEntity
  8
0
100
AcDbBlockEnd
  0
BLOCK
  5
45
330
42
100
AcDbEntity
  8
0
100
AcDbBlockBegin
  2
_ORIGIN
 70
     0
 10
0.0
 20
0.0
 30
0.0
  3
_ORIGIN
  1

  0
CIRCLE
  5
43
330
42
100
AcDbEntity
  8
0
 62
     0
100
AcDbCircle
 10
0.0
 20
0.0
 30
0.0
 40
0.5
  0
LINE
  5
44
330
42
100
AcDbEntity
  8
0
 62
     0
100
AcDbLine
 10
0.0
 20
0.0
 30
0.0
 11
-1.0
 21
0.0
 31
0.0
  0
ENDBLK
  5
46
330
42
100
AcDbEntity
  8
0
100
AcDbBlockEnd
  0
BLOCK
  5
4A
330
47
100
AcDbEntity
  8
0
100
AcDbBlockBegin
  2
_DOTBLANK
 70
     0
 10
0.0
 20
0.0
 30
0.0
  3
_DOTBLANK
  1

  0
CIRCLE
  5
48
330
47
100
AcDbEntity
  8
0
 62
     0
100
AcDbCircle
 10
0.0
 20
0.0
 30
0.0
 40
0.5
  0
LINE
  5
49
330
47
100
AcDbEntity
  8
0
 62
     0
100
AcDbLine
 10
-0.5
 20
0.0
 30
0.0
 11
-1.0
 21
0.0
 31
0.0
  0
ENDBLK
  5
4B
330
47
100
AcDbEntity
  8
0
100
AcDbBlockEnd
  0
BLOCK
  5
4F
330
4C
100
AcDbEntity
  8
0
100
AcDbBlockBegin
  2
_DOT
 70
     0
 10
0.0
 20
0.0
 30
0.0
  3
_DOT
  1

  0
LWPOLYLINE
  5
4D
330
4C
100
AcDbEntity
  8
0
 62
     0
100
AcDbPolyline
 90
        2
 70
     1
 43
0.5
 10
-0.25
 20
0.0
 42
1.0
 10
0.25
 20
0.0
 42
1.0
  0
LINE
  5
4E
330
4C
100
AcDbEntity
  8
0
 62
     0
100
AcDbLine
 10
-0.5
 20
0.0
 30
0.0
 11
-1.0
 21
0.0
 31
0.0
  0
ENDBLK
  5
50
330
4C
100
AcDbEntity
  8
0
100
AcDbBlockEnd
  0
BLOCK
  5
55
330
51
100
AcDbEntity
  8
0
100
AcDbBlockBegin
  2
_OPEN
 70
     0
 10
0.0
 20
0.0
 30
0.0
  3
_OPEN
  1

  0
LINE
  5
52
330
51
100
AcDbEntity
  8
0
 62
     0
100
AcDbLine
 10
0.0
 20
0.0
 30
0.0
 11
-1.0
 21
0.1666666666666667
 31
0.0
  0
LINE
  5
53
330
51
100
AcDbEntity
  8
0
 62
     0
100
AcDbLine
 10
0.0
 20
0.0
 30
0.0
 11
-1.0
 21
-0.1666666666666667
 31
0.0
  0
LINE
  5
54
330
51
100
AcDbEntity
  8
0
 62
     0
100
AcDbLine
 10
0.0
 20
0.0
 30
0.0
 11
-1.0
 21
0.0
 31
0.0
  0
ENDBLK
  5
56
330
51
100
AcDbEntity
  8
0
100
AcDbBlockEnd
  0
BLOCK
  5
5C
330
57
100
AcDbEntity
  8
0
100
AcDbBlockBegin
  2
_CLOSED
 70
     0
 10
0.0
 20
0.0
 30
0.0
  3
_CLOSED
  1

  0
LINE
  5
58
330
57
100
AcDbEntity
  8
0
 62
     0
100
AcDbLine
 10
0.0
 20
0.0
 30
0.0
 11
-1.0
 21
0.1666666666666667
 31
0.0
  0
LINE
  5
59
330
57
100
AcDbEntity
  8
0
 62
     0
100
AcDbLine
 10
0.0
 20
0.0
 30
0.0
 11
-1.0
 21
-0.1666666666666667
 31
0.0
  0
LINE
  5
5A
330
57
100
AcDbEntity
  8
0
 62
     0
100
AcDbLine
 10
-1.0
 20
0.1666666666666667
 30
0.0
 11
-1.0
 21
-0.1666666666666667
 31
0.0
  0
LINE
  5
5B
330
57
100
AcDbEntity
  8
0
 62
     0
100
AcDbLine
 10
0.0
 20
0.0
 30
0.0
 11
-1.0
 21
0.0
 31
0.0
  0
ENDBLK
  5
5D
330
57
100
AcDbEntity
  8
0
100
AcDbBlockEnd
  0
BLOCK
  5
62
330
5E
100
AcDbEntity
  8
0
100
AcDbBlockBegin
  2
_CLOSEDBLANK
 70
     0
 10
0.0
 20
0.0
 30
0.0
  3
_CLOSEDBLANK
  1

  0
LINE
  5
5F
330
5E
100
AcDbEntity
  8
0
 62
     0
100
AcDbLine
 10
0.0
 20
0.0
 30
0.0
 11
-1.0
 21
0.1666666666666667
 31
0.0
  0
LINE
  5
60
330
5E
100
AcDbEntity
  8
0
 62
     0
100
AcDbLine
 10
0.0
 20
0.0
 30
0.0
 11
-1.0
 21
-0.1666666666666667
 31
0.0
  0
LINE
  5
61
330
5E
100
AcDbEntity
  8
0
 62
     0
100
AcDbLine
 10
-1.0
 20
0.1666666666666667
 30
0.0
 11
-1.0
 21
-0.1666666666666667
 31
0.0
  0
ENDBLK
  5
63
330
5E
100
AcDbEntity
  8
0
100
AcDbBlockEnd
  0
BLOCK
  5
66
330
64
100
AcDbEntity
  8
0
100
AcDbBlockBegin
  2
_ARROWFILLED
 70
     0
 10
0.0
 20
0.0
 30
0.0
  3
_ARROWFILLED
  1

  0
SOLID
  5
65
330
64
100
AcDbEntity
  8
0
 62
     0
100
AcDbTrace
 10
0.0
 20
0.0
 30
0.0
 11
-1.0
 21
-0.1666666666666667
 31
0.0
 12
-1.0
 22
0.1666666666666667
 32
0.0
 13
0.0
 23
0.0
 33
0.0
  0
ENDBLK
  5
67
330
64
100
AcDbEntity
  8
0
100
AcDbBlockEnd
  0
BLOCK
  5
6E
330
68
100
AcDbEntity
  8
0
100
AcDbBlockBegin
  2
_BOXBLANK
 70
     0
 10
0.0
 20
0.0
 30
0.0
  3
_BOXBLANK
  1

  0
LINE
  5
69
330
68
100
AcDbEntity
  8
0
 62
     0
100
AcDbLine
 10
-0.5
 20
-0.5
 30
0.0
 11
0.5
 21
-0.5
 31
0.0
  0
LINE
  5
6A
330
68
100
AcDbEntity
  8
0
 62
     0
100
AcDbLine
 10
0.5
 20
-0.5
 30
0.0
 11
0.5
 21
0.5
 31
0.0
  0
LINE
  5
6B
330
68
100
AcDbEntity
  8
0
 62
     0
100
AcDbLine
 10
0.5
 20
0.5
 30
0.0
 11
-0.5
 21
0.5
 31
0.0
  0
LINE
  5
6C
330
68
100
AcDbEntity
  8
0
 62
     0
100
AcDbLine
 10
-0.5
 20
0.5
 30
0.0
 11
-0.5
 21
-0.5
 31
0.0
  0
LINE
  5
6D
330
68
100
AcDbEntity
  8
0
 62
     0
100
AcDbLine
 10
-0.5
 20
0.0
 30
0.0
 11
-1.0
 21
0.0
 31
0.0
  0
ENDBLK
  5
6F
330
68
100
AcDbEntity
  8
0
100
AcDbBlockEnd
  0
BLOCK
  5
73
330
70
100
AcDbEntity
  8
0
100
AcDbBlockBegin
  2
_BOXFILLED
 70
     0
 10
0.0
 20
0.0
 30
0.0
  3
_BOXFILLED
  1

  0
SOLID
  5
71
330
70
100
AcDbEntity
  8
0
 62
     0
100
AcDbTrace
 10
-0.5
 20
0.5
 30
0.0
 11
0.5
 21
0.5
 31
0.0
 12
-0.5
 22
-0.5
 32
0.0
 13
0.5
 23
-0.5
 33
0.0
  0
LINE
  5
72
330
70
100
AcDbEntity
  8
0
 62
     0
100
AcDbLine
 10
-0.5
 20
0.0
 30
0.0
 11
-1.0
 21
0.0
 31
0.0
  0
ENDBLK
  5
74
330
70
100
AcDbEntity
  8
0
100
AcDbBlockEnd
  0
BLOCK
  5
78
330
75
100
AcDbEntity
  8
0
100
AcDbBlockBegin
  2
_INTEGRAL
 70
     0
 10
0.0
 20
0.0
 30
0.0
  3
_INTEGRAL
  1

  0
ARC
  5
76
330
75
100
AcDbEntity
  8
0
 62
     0
100
AcDbCircle
 10
0.444888
 20
-0.0913346
 30
0.0
 40
0.4541666
100
AcDbArc
 50
101.9999999999999
 51
167.9999999999998
  0
ARC
  5
77
330
75
100
AcDbEntity
  8
0
 62
     0
100
AcDbCircle
 10
-0.444888
 20
0.0913346
 30
0.0
 40
0.4541666
100
AcDbArc
 50
281.9999999999997
 51
347.9999999999997
  0
ENDBLK
  5
79
330
75
100
AcDbEntity
  8
0
100
AcDbBlockEnd
  0
BLOCK
  5
7C
330
7A
100
AcDbEntity
  8
0
100
AcDbBlockBegin
  2
_OBLIQUE
 70
     0
 10
0.0
 20
0.0
 30
0.0
  3
_OBLIQUE
  1

  0
LINE
  5
7B
330
7A
100
AcDbEntity
  8
0
 62
     0
100
AcDbLine
 10
-0.5
 20
-0.5
 30
0.0
 11
0.5
 21
0.5
 31
0.0
  0
ENDBLK
  5
7D
330
7A
100
AcDbEntity
  8
0
100
AcDbBlockEnd
  0
BLOCK
  5
7F
330
7E
100
AcDbEntity
  8
0
100
AcDbBlockBegin
  2
_NONE
 70
     0
 10
0.0
 20
0.0
 30
0.0
  3
_NONE
  1

  0
ENDBLK
  5
80
330
7E
100
AcDbEntity
  8
0
100
AcDbBlockEnd
  0
BLOCK
  5
84
330
81
100
AcDbEntity
  8
0
100
AcDbBlockBegin
  2
MARK_OPEN
 70
     0
 10
0.0
 20
0.0
 30
0.0
  3
MARK_OPEN
  1

  0
LINE
  5
82
330
81
100
AcDbEntity
  8
0
 62
     0
100
AcDbLine
 10
0.0
 20
0.0
 30
0.0
 11
-1.0
 21
0.1666666666666667
 31
0.0
  0
LINE
  5
83
330
81
100
AcDbEntity
  8
0
 62
     0
100
AcDbLine
 10
0.0
 20
0.0
 30
0.0
 11
-1.0
 21
-0.1666666666666667
 31
0.0
  0
ENDBLK
  5
85
330
81
100
AcDbEntity
  8
0
100
AcDbBlockEnd
  0
BLOCK
  5
88
330
86
100
AcDbEntity
  8
0
100
AcDbBlockBegin
  2
MARK_ORIGIN
 70
     0
 10
0.0
 20
0.0
 30
0.0
  3
MARK_ORIGIN
  1

  0
CIRCLE
  5
87
330
86
100
AcDbEntity
  8
0
 62
     0
100
AcDbCircle
 10
0.0
 20
0.0
 30
0.0
 40
0.5
  0
ENDBLK
  5
89
330
86
100
AcDbEntity
  8
0
100
AcDbBlockEnd
  0
BLOCK
  5
8C
330
8A
100
AcDbEntity
  8
0
100
AcDbBlockBegin
  2
MARK_DOT
 70
     0
 10
0.0
 20
0.0
 30
0.0
  3
MARK_DOT
  1

  0
LWPOLYLINE
  5
8B
330
8A
100
AcDbEntity
  8
0
 62
     0
100
AcDbPolyline
 90
        2
 70
     1
 43
0.5
 10
-0.25
 20
0.0
 42
1.0
 10
0.25
 20
0.0
 42
1.0
  0
ENDBLK
  5
8D
330
8A
100
AcDbEntity
  8
0
100
AcDbBlockEnd
  0
BLOCK
  5
B5
330
B4
100
AcDbEntity
  8
0
100
AcDbBlockBegin
  2
*G16
 70
     1
 10
0.0
 20
0.0
 30
0.0
  3
*G16
  1

  0
MTEXT
  5
B7
330
B4
100
AcDbEntity
  8
1
  6
Continuous
 62
     7
370
     9
100
AcDbMText
 10
2400.28594402844
 20
454.1798135043525
 30
0.0
 40
32.0
 41
181.96878153216
 46
32.0
 71
     7
 72
     1
  1
{\fHG丸ｺﾞｼｯｸM-PRO|b1;\W0.875000;\T1.440576;（　　）}
 73
     1
 44
1.0
1001
ACAD
1000
ACAD_MTEXT_DEFINED_HEIGHT_BEGIN
1070
    46
1040
32.0
1000
ACAD_MTEXT_DEFINED_HEIGHT_END
  0
MTEXT
  5
B8
330
B4
100
AcDbEntity
  8
1
  6
Continuous
 62
     7
370
     9
100
AcDbMText
 10
2543.703944351566
 20
371.6839460330907
 30
0.0
 40
24.0
 41
90.73731592494
 46
24.0
 71
     7
 72
     1
  1
{\f@HG丸ｺﾞｼｯｸM-PRO|b1;\W1.166667;\T0.750000;図番}
  7
T_STANDARD
 11
2.832769448823990E-16
 21
-1.0
 31
0.0
 73
     1
 44
1.0
1001
ACAD
1000
ACAD_MTEXT_DEFINED_HEIGHT_BEGIN
1070
    46
1040
24.0
1000
ACAD_MTEXT_DEFINED_HEIGHT_END
  0
MTEXT
  5
B9
330
B4
100
AcDbEntity
  8
1
  6
Continuous
 62
     7
370
     9
100
AcDbMText
 10
2543.744794721296
 20
518.1561709289831
 30
0.0
 40
24.0
 41
139.32901980828
 46
24.0
 71
     7
 72
     1
  1
{\f@HG丸ｺﾞｼｯｸM-PRO|b1;\W1.166667;\T0.750000;名　称}
  7
T_STANDARD
 11
2.832769448823990E-16
 21
-1.0
 31
0.0
 73
     1
 44
1.0
1001
ACAD
1000
ACAD_MTEXT_DEFINED_HEIGHT_BEGIN
1070
    46
1040
24.0
1000
ACAD_MTEXT_DEFINED_HEIGHT_END
  0
MTEXT
  5
BA
330
B4
100
AcDbEntity
  8
1
  6
Continuous
 62
     7
370
     9
100
AcDbMText
 10
2543.738719644238
 20
621.0324198510912
 30
0.0
 40
24.0
 41
91.95100397868
 46
24.0
 71
     7
 72
     1
  1
{\f@HG丸ｺﾞｼｯｸM-PRO|b1;\W0.766667;\T0.750000;納入先}
  7
T_STANDARD
 11
2.832769448823990E-16
 21
-1.0
 31
0.0
 73
     1
 44
1.0
1001
ACAD
1000
ACAD_MTEXT_DEFINED_HEIGHT_BEGIN
1070
    46
1040
24.0
1000
ACAD_MTEXT_DEFINED_HEIGHT_END
  0
MTEXT
  5
BB
330
B4
100
AcDbEntity
  8
1
  6
Continuous
 62
     7
370
     9
100
AcDbMText
 10
2329.702106984196
 20
398.3855586119606
 30
0.0
 40
32.0
 41
211.63112
 46
32.0
 71
     7
 72
     1
  1
{\fHG丸ｺﾞｼｯｸM-PRO|b1;\T0.750000;第三角法}
 73
     1
 44
1.0
1001
ACAD
1000
ACAD_MTEXT_DEFINED_HEIGHT_BEGIN
1070
    46
1040
32.0
1000
ACAD_MTEXT_DEFINED_HEIGHT_END
  0
MTEXT
  5
BC
330
B4
100
AcDbEntity
  8
1
  6
Continuous
 62
     7
370
     9
100
AcDbMText
 10
2061.745040504348
 20
443.1775080605406
 30
0.0
 40
25.6
 41
79.978944
 46
25.6
 71
     7
 72
     1
  1
{\f@HG丸ｺﾞｼｯｸM-PRO|b1;\T0.750000;工番}
  7
T_STANDARD
 11
2.832769448823990E-16
 21
-1.0
 31
0.0
 73
     1
 44
1.0
1001
ACAD
1000
ACAD_MTEXT_DEFINED_HEIGHT_BEGIN
1070
    46
1040
25.6
1000
ACAD_MTEXT_DEFINED_HEIGHT_END
  0
MTEXT
  5
BD
330
B4
100
AcDbEntity
  8
1
  6
Continuous
 62
     7
370
     9
100
AcDbMText
 10
2068.947549433123
 20
454.3185502481577
 30
0.0
 40
32.0
 41
100.88248
 46
32.0
 71
     7
 72
     1
  1
{\fHG丸ｺﾞｼｯｸM-PRO|b1;\T0.750000;日付}
 73
     1
 44
1.0
1001
ACAD
1000
ACAD_MTEXT_DEFINED_HEIGHT_BEGIN
1070
    46
1040
32.0
1000
ACAD_MTEXT_DEFINED_HEIGHT_END
  0
MTEXT
  5
BE
330
B4
100
AcDbEntity
  8
1
  6
Continuous
 62
     7
370
     9
100
AcDbMText
 10
2428.947565526373
 20
586.3185173463941
 30
0.0
 40
32.0
 41
106.51704
 46
32.0
 71
     7
 72
     1
  1
{\fHG丸ｺﾞｼｯｸM-PRO|b1;\T0.750000;尺度}
 73
     1
 44
1.0
1001
ACAD
1000
ACAD_MTEXT_DEFINED_HEIGHT_BEGIN
1070
    46
1040
32.0
1000
ACAD_MTEXT_DEFINED_HEIGHT_END
  0
MTEXT
  5
BF
330
B4
100
AcDbEntity
  8
1
  6
Continuous
 62
     7
370
     9
100
AcDbMText
 10
2308.947572678931
 20
586.3185173463938
 30
0.0
 40
32.0
 41
104.654
 46
32.0
 71
     7
 72
     1
  1
{\fHG丸ｺﾞｼｯｸM-PRO|b1;\T0.750000;製図}
 73
     1
 44
1.0
1001
ACAD
1000
ACAD_MTEXT_DEFINED_HEIGHT_BEGIN
1070
    46
1040
32.0
1000
ACAD_MTEXT_DEFINED_HEIGHT_END
  0
MTEXT
  5
C0
330
B4
100
AcDbEntity
  8
1
  6
Continuous
 62
     7
370
     9
100
AcDbMText
 10
2188.947567314513
 20
586.3185173463941
 30
0.0
 40
32.0
 41
105.38104
 46
32.0
 71
     7
 72
     1
  1
{\fHG丸ｺﾞｼｯｸM-PRO|b1;\T0.750000;検図}
 73
     1
 44
1.0
1001
ACAD
1000
ACAD_MTEXT_DEFINED_HEIGHT_BEGIN
1070
    46
1040
32.0
1000
ACAD_MTEXT_DEFINED_HEIGHT_END
  0
MTEXT
  5
C1
330
B4
100
AcDbEntity
  8
1
  6
Continuous
 62
     7
370
     9
100
AcDbMText
 10
2068.947549433123
 20
586.3185173463938
 30
0.0
 40
32.0
 41
105.83544
 46
32.0
 71
     7
 72
     1
  1
{\fHG丸ｺﾞｼｯｸM-PRO|b1;\T0.750000;承認}
 73
     1
 44
1.0
1001
ACAD
1000
ACAD_MTEXT_DEFINED_HEIGHT_BEGIN
1070
    46
1040
32.0
1000
ACAD_MTEXT_DEFINED_HEIGHT_END
  0
MTEXT
  5
C2
330
B4
100
AcDbEntity
  8
1
  6
Continuous
 62
     7
370
     9
100
AcDbMText
 10
1655.446564421493
 20
528.3307531640171
 30
0.0
 40
32.0
 41
259.16704
 46
32.0
 71
     7
 72
     1
  1
{\f@HG丸ｺﾞｼｯｸM-PRO|b1;\T0.750000;訂　　　正}
  7
T_STANDARD
 11
2.832769448823990E-16
 21
-1.0
 31
0.0
 73
     1
 44
1.0
1001
ACAD
1000
ACAD_MTEXT_DEFINED_HEIGHT_BEGIN
1070
    46
1040
32.0
1000
ACAD_MTEXT_DEFINED_HEIGHT_END
  0
MTEXT
  5
C3
330
B4
100
AcDbEntity
  8
1
  6
Continuous
 62
     7
370
     9
100
AcDbMText
 10
3207.382616603466
 20
568.0417162817096
 30
0.0
 40
48.0
 41
32.45712987428571
 46
48.0
 71
     8
 72
     1
  1
{\fＦＡ 隷書Ｍ;\W0.833333;\T0.750000;殿}
 73
     1
 44
1.0
1001
ACAD
1000
ACAD_MTEXT_DEFINED_HEIGHT_BEGIN
1070
    46
1040
48.0
1000
ACAD_MTEXT_DEFINED_HEIGHT_END
  0
LINE
  5
C4
330
B4
100
AcDbEntity
  8
1
  6
Continuous
 62
     7
370
    50
100
AcDbLine
 10
1646.000039947884
 20
623.9999960064839
 30
0.0
 11
1646.000039947884
 21
300.0000028014129
 31
0.0
  0
LINE
  5
C5
330
B4
100
AcDbEntity
  8
1
  6
Continuous
 62
     7
370
    50
100
AcDbLine
 10
2041.999991310494
 20
300.0000028014132
 30
0.0
 11
2041.999991310494
 21
623.9999960064837
 31
0.0
  0
LINE
  5
C6
330
B4
100
AcDbEntity
  8
1
  6
Continuous
 62
     7
370
    50
100
AcDbLine
 10
2041.999991310494
 20
383.999997794623
 30
0.0
 11
3246.00000716533
 21
383.9999977946229
 31
0.0
  0
LINE
  5
C7
330
B4
100
AcDbEntity
  8
1
  6
Continuous
 62
     7
370
    50
100
AcDbLine
 10
2402.000007403748
 20
492.0000289082479
 30
0.0
 11
2041.999991310494
 21
492.0000289082476
 31
0.0
  0
LINE
  5
C8
330
B4
100
AcDbEntity
  8
1
  6
Continuous
 62
     7
370
    50
100
AcDbLine
 10
2041.999991310494
 20
447.9999814629504
 30
0.0
 11
2521.999987734215
 21
447.9999814629505
 31
0.0
  0
LINE
  5
C9
330
B4
100
AcDbEntity
  8
1
  6
Continuous
 62
     7
370
    50
100
AcDbLine
 10
1646.000039947884
 20
623.9999960064839
 30
0.0
 11
3246.00000716533
 21
623.9999960064836
 31
0.0
  0
LINE
  5
CA
330
B4
100
AcDbEntity
  8
1
  6
Continuous
 62
     7
370
    50
100
AcDbLine
 10
2521.999987734215
 20
623.9999960064838
 30
0.0
 11
2521.999987734215
 21
300.0000028014133
 31
0.0
  0
LINE
  5
CB
330
B4
100
AcDbEntity
  8
1
  6
Continuous
 62
     7
370
    50
100
AcDbLine
 10
2402.000007403748
 20
623.999996006484
 30
0.0
 11
2402.000007403748
 21
447.9999814629507
 31
0.0
  0
LINE
  5
CC
330
B4
100
AcDbEntity
  8
1
  6
Continuous
 62
     7
370
    50
100
AcDbLine
 10
3246.00000716533
 20
559.99997478723
 30
0.0
 11
2521.999987734215
 21
559.9999747872303
 31
0.0
  0
LINE
  5
CD
330
B4
100
AcDbEntity
  8
1
  6
Continuous
 62
     7
370
    20
100
AcDbLine
 10
1773.999994767563
 20
300.0000028014136
 30
0.0
 11
1773.999994767563
 21
623.9999960064837
 31
0.0
  0
LINE
  5
CE
330
B4
100
AcDbEntity
  8
1
  6
Continuous
 62
     7
370
    20
100
AcDbLine
 10
1693.999999535935
 20
300.0000028014128
 30
0.0
 11
1693.999999535935
 21
623.9999960064838
 31
0.0
  0
LINE
  5
CF
330
B4
100
AcDbEntity
  8
1
  6
Continuous
 62
     7
370
    20
100
AcDbLine
 10
2041.999991310494
 20
582.0000110268542
 30
0.0
 11
1693.999999535935
 21
582.0000110268543
 31
0.0
  0
LINE
  5
D0
330
B4
100
AcDbEntity
  8
1
  6
Continuous
 62
     7
370
    20
100
AcDbLine
 10
2041.999991310494
 20
542.00001341104
 30
0.0
 11
1693.999999535935
 21
542.0000134110401
 31
0.0
  0
LINE
  5
D1
330
B4
100
AcDbEntity
  8
1
  6
Continuous
 62
     7
370
    20
100
AcDbLine
 10
2041.999991310494
 20
501.9999657273241
 30
0.0
 11
1693.999999535935
 21
501.9999657273243
 31
0.0
  0
LINE
  5
D2
330
B4
100
AcDbEntity
  8
1
  6
Continuous
 62
     7
370
    20
100
AcDbLine
 10
2041.999991310494
 20
461.9999931454607
 30
0.0
 11
1693.999999535935
 21
461.9999931454604
 31
0.0
  0
LINE
  5
D3
330
B4
100
AcDbEntity
  8
1
  6
Continuous
 62
     7
370
    20
100
AcDbLine
 10
2041.999991310494
 20
421.9999704956957
 30
0.0
 11
1693.999999535935
 21
421.9999704956954
 31
0.0
  0
LINE
  5
D4
330
B4
100
AcDbEntity
  8
1
  6
Continuous
 62
     7
370
    20
100
AcDbLine
 10
2041.999991310494
 20
382.0000104308077
 30
0.0
 11
1693.999999535935
 21
382.0000104308074
 31
0.0
  0
LINE
  5
D5
330
B4
100
AcDbEntity
  8
1
  6
Continuous
 62
     7
370
    20
100
AcDbLine
 10
2041.999991310494
 20
582.0000110268542
 30
0.0
 11
2521.999987734215
 21
582.0000110268543
 31
0.0
  0
LINE
  5
D6
330
B4
100
AcDbEntity
  8
1
  6
Continuous
 62
     7
370
    20
100
AcDbLine
 10
2162.000009191887
 20
623.9999960064839
 30
0.0
 11
2162.000009191887
 21
447.9999814629502
 31
0.0
  0
LINE
  5
D7
330
B4
100
AcDbEntity
  8
1
  6
Continuous
 62
     7
370
    20
100
AcDbLine
 10
2590.00000871505
 20
623.9999960064837
 30
0.0
 11
2590.00000871505
 21
300.0000028014132
 31
0.0
  0
LINE
  5
D8
330
B4
100
AcDbEntity
  8
1
  6
Continuous
 62
     7
370
    20
100
AcDbLine
 10
2590.00000871505
 20
492.0000289082476
 30
0.0
 11
3246.00000716533
 21
492.0000289082475
 31
0.0
  0
LINE
  5
D9
330
B4
100
AcDbEntity
  8
1
  6
Continuous
 62
     7
370
    20
100
AcDbLine
 10
2282.000014556305
 20
447.9999814629509
 30
0.0
 11
2282.000014556305
 21
383.9999977946235
 31
0.0
  0
LINE
  5
DA
330
B4
100
AcDbEntity
  8
1
  6
Continuous
 62
     7
370
    20
100
AcDbLine
 10
2282.000014556305
 20
623.9999960064838
 30
0.0
 11
2282.000014556305
 21
492.0000289082477
 31
0.0
  0
LINE
  5
DB
330
B4
100
AcDbEntity
  8
1
  6
Continuous
 62
     7
370
    20
100
AcDbLine
 10
2106.000012529747
 20
447.9999814629502
 30
0.0
 11
2106.000012529747
 21
383.9999977946229
 31
0.0
  0
LINE
  5
DC
330
B4
100
AcDbEntity
  8
1
  6
Continuous
 62
     7
370
    20
100
AcDbLine
 10
2041.999991310494
 20
341.9999877810427
 30
0.0
 11
1693.999999535935
 21
341.9999877810424
 31
0.0
  0
LINE
  5
DD
330
B4
100
AcDbEntity
  8
1
  6
Continuous
 62
     7
370
    50
100
AcDbLine
 10
3246.000007165337
 20
4563.92450824141
 30
0.0
 11
237.9999928346775
 21
4563.924508241415
 31
0.0
  0
LINE
  5
DE
330
B4
100
AcDbEntity
  8
1
  6
Continuous
 62
     7
370
    50
100
AcDbLine
 10
237.9999928346706
 20
300.0000028014179
 30
0.0
 11
3246.00000716533
 21
300.0000028014131
 31
0.0
  0
LINE
  5
DF
330
B4
100
AcDbEntity
  8
1
  6
Continuous
 62
     7
370
    50
100
AcDbLine
 10
237.9999928346775
 20
4563.924508241415
 30
0.0
 11
237.9999928346706
 21
300.0000028014179
 31
0.0
  0
LINE
  5
E0
330
B4
100
AcDbEntity
  8
1
  6
Continuous
 62
     7
370
    50
100
AcDbLine
 10
3246.00000716533
 20
300.0000028014131
 30
0.0
 11
3246.000007165337
 21
4563.92450824141
 31
0.0
  0
MTEXT
  5
E1
330
B4
100
AcDbEntity
  8
1
  6
Continuous
 62
     7
370
     9
100
AcDbMText
 10
2158.797544480894
 20
314.0682373879319
 30
0.0
 40
48.0
 41
420.95069047524
 46
48.0
 71
     7
 72
     1
  1
{\fHG丸ｺﾞｼｯｸM-PRO|b1;\W0.666667;\T0.750000;株式会社　桜電社}
 73
     1
 44
1.0
1001
ACAD
1000
ACAD_MTEXT_DEFINED_HEIGHT_BEGIN
1070
    46
1040
48.0
1000
ACAD_MTEXT_DEFINED_HEIGHT_END
  0
ENDBLK
  5
B6
330
B4
100
AcDbEntity
  8
0
100
AcDbBlockEnd
  0
BLOCK
  5
EF
330
EE
100
AcDbEntity
  8
0
100
AcDbBlockBegin
  2
*G17
 70
     1
 10
0.0
 20
0.0
 30
0.0
  3
*G17
  1

  0
LINE
  5
F1
330
EE
100
AcDbEntity
  8
1
  6
Continuous
 62
     7
370
    20
100
AcDbLine
 10
786.3589021079649
 20
1931.431380196887
 30
0.0
 11
836.0154100921707
 21
1931.431380196887
 31
0.0
  0
ENDBLK
  5
F0
330
EE
100
AcDbEntity
  8
0
100
AcDbBlockEnd
  0
BLOCK
  5
145
330
144
100
AcDbEntity
  8
0
100
AcDbBlockBegin
  2
*G18
 70
     1
 10
0.0
 20
0.0
 30
0.0
  3
*G18
  1

  0
LINE
  5
147
330
144
100
AcDbEntity
  8
2
  6
Continuous
 62
     4
370
    20
100
AcDbLine
 10
1279.912292438077
 20
1931.431380196887
 30
0.0
 11
2219.912292438077
 21
1931.431380196887
 31
0.0
  0
ENDBLK
  5
146
330
144
100
AcDbEntity
  8
0
100
AcDbBlockEnd
  0
BLOCK
  5
14C
330
14B
100
AcDbEntity
  8
0
100
AcDbBlockBegin
  2
Dim1
 70
     0
 10
0.0
 20
0.0
 30
0.0
  3
Dim1
  1

  0
LINE
  5
14E
330
14B
100
AcDbEntity
  8
1
  6
Continuous
 62
     7
370
     9
100
AcDbLine
 10
1279.912292438076
 20
1723.431380196887
 30
0.0
 11
1279.912292438075
 21
1491.069734961555
 31
0.0
  0
LINE
  5
14F
330
14B
100
AcDbEntity
  8
1
  6
Continuous
 62
     7
370
     9
100
AcDbLine
 10
2219.912292438077
 20
1723.431380196887
 30
0.0
 11
2219.912292438076
 21
1491.069734961555
 31
0.0
  0
LINE
  5
150
330
14B
100
AcDbEntity
  8
1
  6
Continuous
 62
     7
370
     9
100
AcDbLine
 10
1279.912292438075
 20
1499.069734961555
 30
0.0
 11
2219.912292438076
 21
1499.069734961555
 31
0.0
  0
MTEXT
  5
151
330
14B
100
AcDbEntity
  8
1
  6
Continuous
 62
     7
370
     9
100
AcDbMText
 10
1749.912292438076
 20
1499.069734961555
 30
0.0
 40
48.0
 41
605.2800000000001
 46
48.0
 71
     8
 72
     1
  1
940
  7
ＭＳ ゴシック
 73
     1
 44
1.0
1001
ACAD
1000
ACAD_MTEXT_DEFINED_HEIGHT_BEGIN
1070
    46
1040
48.0
1000
ACAD_MTEXT_DEFINED_HEIGHT_END
  0
INSERT
  5
152
330
14B
100
AcDbEntity
  8
1
  6
Continuous
 62
     7
370
     9
100
AcDbBlockReference
  2
_OPEN
 10
1279.912292438075
 20
1499.069734961555
 30
0.0
 41
8.28220944
 42
8.28220944
 43
8.28220944
 50
179.9999999999998
  0
INSERT
  5
153
330
14B
100
AcDbEntity
  8
1
  6
Continuous
 62
     7
370
     9
100
AcDbBlockReference
  2
_OPEN
 10
2219.912292438076
 20
1499.069734961555
 30
0.0
 41
8.28220944
 42
8.28220944
 43
8.28220944
 50
359.9999999999997
  0
ENDBLK
  5
14D
330
14B
100
AcDbEntity
  8
0
100
AcDbBlockEnd
  0
BLOCK
  5
169
330
168
100
AcDbEntity
  8
0
100
AcDbBlockBegin
  2
*G20
 70
     1
 10
0.0
 20
0.0
 30
0.0
  3
*G20
  1

  0
INSERT
  5
16B
330
168
100
AcDbEntity
  8
2
  6
Continuous
 62
     4
370
    20
100
AcDbBlockReference
  2
_OPEN
 10
1901.661590360996
 20
1856.431380196887
 30
0.0
 41
32.0
 42
32.0
 43
32.0
 50
109.9731048989056
  0
POLYLINE
  5
16C
330
168
100
AcDbEntity
  8
2
  6
Continuous
 62
     4
370
    20
100
AcDb2dPolyline
 66
     1
 10
0.0
 20
0.0
 30
0.0
  0
VERTEX
  5
16D
330
16C
100
AcDbEntity
  8
2
  6
Continuous
 62
     4
370
    20
100
AcDbVertex
100
AcDb2dVertex
 10
1901.661590360996
 20
1856.431380196887
 30
0.0
  0
VERTEX
  5
16E
330
16C
100
AcDbEntity
  8
2
  6
Continuous
 62
     4
370
    20
100
AcDbVertex
100
AcDb2dVertex
 10
2054.701856658252
 20
1435.341791681007
 30
0.0
  0
VERTEX
  5
16F
330
16C
100
AcDbEntity
  8
2
  6
Continuous
 62
     4
370
    20
100
AcDbVertex
100
AcDb2dVertex
 10
2141.875777122495
 20
1435.341791681007
 30
0.0
  0
SEQEND
  5
170
330
16C
100
AcDbEntity
  8
2
  6
Continuous
 62
     4
370
    20
  0
MTEXT
  5
171
330
168
100
AcDbEntity
  8
2
  6
Continuous
 62
     4
370
     9
100
AcDbMText
 10
2069.875777122495
 20
1435.341791681007
 30
0.0
 40
48.0
 41
165.1806231308108
 46
48.0
 71
     7
 72
     1
  1
{\fＭＳ 明朝|b1;\W0.666667;\T0.750000;吸気口}
 73
     1
 44
1.0
1001
ACAD
1000
ACAD_MTEXT_DEFINED_HEIGHT_BEGIN
1070
    46
1040
48.0
1000
ACAD_MTEXT_DEFINED_HEIGHT_END
  0
ENDBLK
  5
16A
330
168
100
AcDbEntity
  8
0
100
AcDbBlockEnd
  0
BLOCK
  5
183
330
182
100
AcDbEntity
  8
0
100
AcDbBlockBegin
  2
Dim2
 70
     0
 10
0.0
 20
0.0
 30
0.0
  3
Dim2
  1

  0
LINE
  5
185
330
182
100
AcDbEntity
  8
1
  6
Continuous
 62
     7
370
     9
100
AcDbLine
 10
1275.112292438081
 20
3761.142909151987
 30
0.0
 11
1275.112292438081
 21
3647.450124779451
 31
0.0
  0
LINE
  5
186
330
182
100
AcDbEntity
  8
1
  6
Continuous
 62
     7
370
     9
100
AcDbLine
 10
1765.112292438077
 20
3756.948515874865
 30
0.0
 11
1765.112292438077
 21
3647.450124779451
 31
0.0
  0
LINE
  5
187
330
182
100
AcDbEntity
  8
1
  6
Continuous
 62
     7
370
     9
100
AcDbLine
 10
1275.112292438081
 20
3655.450124779451
 30
0.0
 11
1765.112292438077
 21
3655.450124779451
 31
0.0
  0
MTEXT
  5
188
330
182
100
AcDbEntity
  8
1
  6
Continuous
 62
     7
370
     9
100
AcDbMText
 10
1520.112292438078
 20
3655.450124779451
 30
0.0
 40
48.0
 41
608.1600000000001
 46
48.0
 71
     8
 72
     1
  1
490
  7
ＭＳ ゴシック
 73
     1
 44
1.0
1001
ACAD
1000
ACAD_MTEXT_DEFINED_HEIGHT_BEGIN
1070
    46
1040
48.0
1000
ACAD_MTEXT_DEFINED_HEIGHT_END
  0
INSERT
  5
189
330
182
100
AcDbEntity
  8
1
  6
Continuous
 62
     7
370
     9
100
AcDbBlockReference
  2
_OPEN
 10
1275.112292438081
 20
3655.450124779451
 30
0.0
 41
8.28220944
 42
8.28220944
 43
8.28220944
 50
179.9999999999998
  0
INSERT
  5
18A
330
182
100
AcDbEntity
  8
1
  6
Continuous
 62
     7
370
     9
100
AcDbBlockReference
  2
_OPEN
 10
1765.112292438077
 20
3655.450124779451
 30
0.0
 41
8.28220944
 42
8.28220944
 43
8.28220944
 50
359.9999999999997
  0
ENDBLK
  5
184
330
182
100
AcDbEntity
  8
0
100
AcDbBlockEnd
  0
BLOCK
  5
18D
330
18C
100
AcDbEntity
  8
0
100
AcDbBlockBegin
  2
Dim3
 70
     0
 10
0.0
 20
0.0
 30
0.0
  3
Dim3
  1

  0
LINE
  5
18F
330
18C
100
AcDbEntity
  8
1
  6
Continuous
 62
     7
370
     9
100
AcDbLine
 10
1771.912292438071
 20
3761.142909151987
 30
0.0
 11
1771.912292438071
 21
3647.450124779451
 31
0.0
  0
LINE
  5
190
330
18C
100
AcDbEntity
  8
1
  6
Continuous
 62
     7
370
     9
100
AcDbLine
 10
1765.112292438077
 20
3655.450124779451
 30
0.0
 11
1771.912292438071
 21
3655.450124779451
 31
0.0
  0
MTEXT
  5
191
330
18C
100
AcDbEntity
  8
1
  6
Continuous
 62
     7
370
     9
100
AcDbMText
 10
1769.495324437508
 20
3648.959700419621
 30
0.0
 40
48.0
 41
164.16
 46
48.0
 71
     2
 72
     1
  1
7
  7
ＭＳ ゴシック
 73
     1
 44
1.0
1001
ACAD
1000
ACAD_MTEXT_DEFINED_HEIGHT_BEGIN
1070
    46
1040
48.0
1000
ACAD_MTEXT_DEFINED_HEIGHT_END
  0
INSERT
  5
192
330
18C
100
AcDbEntity
  8
1
  6
Continuous
 62
     7
370
     9
100
AcDbBlockReference
  2
_OPEN
 10
1765.112292438077
 20
3655.450124779451
 30
0.0
 41
8.28220944
 42
8.28220944
 43
8.28220944
 50
179.9999999999998
  0
INSERT
  5
193
330
18C
100
AcDbEntity
  8
1
  6
Continuous
 62
     7
370
     9
100
AcDbBlockReference
  2
_OPEN
 10
1771.912292438071
 20
3655.450124779451
 30
0.0
 41
8.28220944
 42
8.28220944
 43
8.28220944
 50
359.9999999999997
  0
ENDBLK
  5
18E
330
18C
100
AcDbEntity
  8
0
100
AcDbBlockEnd
  0
BLOCK
  5
196
330
195
100
AcDbEntity
  8
0
100
AcDbBlockBegin
  2
Dim4
 70
     0
 10
0.0
 20
0.0
 30
0.0
  3
Dim4
  1

  0
LINE
  5
198
330
195
100
AcDbEntity
  8
1
  6
Continuous
 62
     7
370
     9
100
AcDbLine
 10
2224.912292438075
 20
3762.242909151985
 30
0.0
 11
2224.912292438075
 21
3647.450124779451
 31
0.0
  0
LINE
  5
199
330
195
100
AcDbEntity
  8
1
  6
Continuous
 62
     7
370
     9
100
AcDbLine
 10
1771.912292438071
 20
3655.450124779451
 30
0.0
 11
2224.912292438075
 21
3655.450124779451
 31
0.0
  0
MTEXT
  5
19A
330
195
100
AcDbEntity
  8
1
  6
Continuous
 62
     7
370
     9
100
AcDbMText
 10
1998.412292438072
 20
3655.450124779451
 30
0.0
 40
48.0
 41
648.0
 46
48.0
 71
     8
 72
     1
  1
453
  7
ＭＳ ゴシック
 73
     1
 44
1.0
1001
ACAD
1000
ACAD_MTEXT_DEFINED_HEIGHT_BEGIN
1070
    46
1040
48.0
1000
ACAD_MTEXT_DEFINED_HEIGHT_END
  0
INSERT
  5
19B
330
195
100
AcDbEntity
  8
1
  6
Continuous
 62
     7
370
     9
100
AcDbBlockReference
  2
_OPEN
 10
1771.912292438071
 20
3655.450124779451
 30
0.0
 41
8.28220944
 42
8.28220944
 43
8.28220944
 50
179.9999999999998
  0
INSERT
  5
19C
330
195
100
AcDbEntity
  8
1
  6
Continuous
 62
     7
370
     9
100
AcDbBlockReference
  2
_OPEN
 10
2224.912292438075
 20
3655.450124779451
 30
0.0
 41
8.28220944
 42
8.28220944
 43
8.28220944
 50
359.9999999999997
  0
ENDBLK
  5
197
330
195
100
AcDbEntity
  8
0
100
AcDbBlockEnd
  0
BLOCK
  5
1C1
330
1C0
100
AcDbEntity
  8
0
100
AcDbBlockBegin
  2
Dim5
 70
     0
 10
0.0
 20
0.0
 30
0.0
  3
Dim5
  1

  0
LINE
  5
1C3
330
1C0
100
AcDbEntity
  8
1
  6
Continuous
 62
     7
370
     9
100
AcDbLine
 10
1266.912292438077
 20
1931.431380196887
 30
0.0
 11
1192.381267806269
 21
1931.431380196887
 31
0.0
  0
LINE
  5
1C4
330
1C0
100
AcDbEntity
  8
1
  6
Continuous
 62
     7
370
     9
100
AcDbLine
 10
1271.912292438076
 20
1831.431380196887
 30
0.0
 11
1192.381267806269
 21
1831.431380196887
 31
0.0
  0
LINE
  5
1C5
330
1C0
100
AcDbEntity
  8
1
  6
Continuous
 62
     7
370
     9
100
AcDbLine
 10
1200.381267806269
 20
1931.431380196887
 30
0.0
 11
1200.381267806269
 21
1831.431380196887
 31
0.0
  0
MTEXT
  5
1C6
330
1C0
100
AcDbEntity
  8
1
  6
Continuous
 62
     7
370
     9
100
AcDbMText
 10
1200.381267806269
 20
1881.431380196888
 30
0.0
 40
48.0
 41
484.8000000000001
 46
48.0
 71
     8
 72
     1
  1
100
  7
ＭＳ ゴシック
 11
1.615544574432587E-15
 21
1.0
 31
0.0
 73
     1
 44
1.0
1001
ACAD
1000
ACAD_MTEXT_DEFINED_HEIGHT_BEGIN
1070
    46
1040
48.0
1000
ACAD_MTEXT_DEFINED_HEIGHT_END
  0
INSERT
  5
1C7
330
1C0
100
AcDbEntity
  8
1
  6
Continuous
 62
     7
370
     9
100
AcDbBlockReference
  2
_OPEN
 10
1200.381267806269
 20
1931.431380196887
 30
0.0
 41
8.28220944
 42
8.28220944
 43
8.28220944
 50
89.99999999999991
  0
INSERT
  5
1C8
330
1C0
100
AcDbEntity
  8
1
  6
Continuous
 62
     7
370
     9
100
AcDbBlockReference
  2
_OPEN
 10
1200.381267806269
 20
1831.431380196887
 30
0.0
 41
8.28220944
 42
8.28220944
 43
8.28220944
 50
269.9999999999998
  0
ENDBLK
  5
1C2
330
1C0
100
AcDbEntity
  8
0
100
AcDbBlockEnd
  0
BLOCK
  5
1D4
330
1D3
100
AcDbEntity
  8
0
100
AcDbBlockBegin
  2
*G25
 70
     1
 10
0.0
 20
0.0
 30
0.0
  3
*G25
  1

  0
LINE
  5
1D6
330
1D3
100
AcDbEntity
  8
1
  6
Continuous
 62
     7
370
    20
100
AcDbLine
 10
2511.261290244318
 20
1931.431380196887
 30
0.0
 11
2461.604782260113
 21
1931.431380196887
 31
0.0
  0
ENDBLK
  5
1D5
330
1D3
100
AcDbEntity
  8
0
100
AcDbBlockEnd
  0
BLOCK
  5
1FA
330
1F9
100
AcDbEntity
  8
0
100
AcDbBlockBegin
  2
Dim6
 70
     0
 10
0.0
 20
0.0
 30
0.0
  3
Dim6
  1

  0
LINE
  5
1FC
330
1F9
100
AcDbEntity
  8
1
  6
Continuous
 62
     7
370
     9
100
AcDbLine
 10
2413.351124744892
 20
1723.431380196887
 30
0.0
 11
2413.351124744892
 21
1493.018509572832
 31
0.0
  0
LINE
  5
1FD
330
1F9
100
AcDbEntity
  8
1
  6
Continuous
 62
     7
370
     9
100
AcDbLine
 10
2888.351124744892
 20
1723.431380196888
 30
0.0
 11
2888.351124744892
 21
1493.018509572831
 31
0.0
  0
LINE
  5
1FE
330
1F9
100
AcDbEntity
  8
1
  6
Continuous
 62
     7
370
     9
100
AcDbLine
 10
2413.351124744892
 20
1501.018509572832
 30
0.0
 11
2888.351124744892
 21
1501.018509572831
 31
0.0
  0
MTEXT
  5
1FF
330
1F9
100
AcDbEntity
  8
1
  6
Continuous
 62
     7
370
     9
100
AcDbMText
 10
2650.851124744892
 20
1501.018509572832
 30
0.0
 40
48.0
 41
648.0
 46
48.0
 71
     8
 72
     1
  1
475
  7
ＭＳ ゴシック
 73
     1
 44
1.0
1001
ACAD
1000
ACAD_MTEXT_DEFINED_HEIGHT_BEGIN
1070
    46
1040
48.0
1000
ACAD_MTEXT_DEFINED_HEIGHT_END
  0
INSERT
  5
200
330
1F9
100
AcDbEntity
  8
1
  6
Continuous
 62
     7
370
     9
100
AcDbBlockReference
  2
_OPEN
 10
2413.351124744892
 20
1501.018509572832
 30
0.0
 41
8.28220944
 42
8.28220944
 43
8.28220944
 50
179.9999999999998
  0
INSERT
  5
201
330
1F9
100
AcDbEntity
  8
1
  6
Continuous
 62
     7
370
     9
100
AcDbBlockReference
  2
_OPEN
 10
2888.351124744892
 20
1501.018509572831
 30
0.0
 41
8.28220944
 42
8.28220944
 43
8.28220944
 50
359.9999999999997
  0
ENDBLK
  5
1FB
330
1F9
100
AcDbEntity
  8
0
100
AcDbBlockEnd
  0
BLOCK
  5
204
330
203
100
AcDbEntity
  8
0
100
AcDbBlockBegin
  2
Dim7
 70
     0
 10
0.0
 20
0.0
 30
0.0
  3
Dim7
  1

  0
LINE
  5
206
330
203
100
AcDbEntity
  8
1
  6
Continuous
 62
     7
370
     9
100
AcDbLine
 10
2413.351124744892
 20
1723.431380196887
 30
0.0
 11
2413.351124744892
 21
1576.257326111735
 31
0.0
  0
LINE
  5
207
330
203
100
AcDbEntity
  8
1
  6
Continuous
 62
     7
370
     9
100
AcDbLine
 10
2483.351124744892
 20
1714.700698368749
 30
0.0
 11
2483.351124744892
 21
1576.257326111735
 31
0.0
  0
LINE
  5
208
330
203
100
AcDbEntity
  8
1
  6
Continuous
 62
     7
370
     9
100
AcDbLine
 10
2405.351124744892
 20
1584.257326111735
 30
0.0
 11
2483.351124744892
 21
1584.257326111735
 31
0.0
  0
MTEXT
  5
209
330
203
100
AcDbEntity
  8
1
  6
Continuous
 62
     7
370
     9
100
AcDbMText
 10
2448.351124744892
 20
1584.257326111735
 30
0.0
 40
48.0
 41
362.64
 46
48.0
 71
     8
 72
     1
  1
70
  7
ＭＳ ゴシック
 73
     1
 44
1.0
1001
ACAD
1000
ACAD_MTEXT_DEFINED_HEIGHT_BEGIN
1070
    46
1040
48.0
1000
ACAD_MTEXT_DEFINED_HEIGHT_END
  0
INSERT
  5
20A
330
203
100
AcDbEntity
  8
1
  6
Continuous
 62
     7
370
     9
100
AcDbBlockReference
  2
_OPEN
 10
2413.351124744892
 20
1584.257326111735
 30
0.0
 41
8.28220944
 42
8.28220944
 43
8.28220944
 50
359.9999999999997
  0
INSERT
  5
20B
330
203
100
AcDbEntity
  8
1
  6
Continuous
 62
     7
370
     9
100
AcDbBlockReference
  2
_OPEN
 10
2483.351124744892
 20
1584.257326111735
 30
0.0
 41
8.28220944
 42
8.28220944
 43
8.28220944
 50
359.9999999999997
  0
ENDBLK
  5
205
330
203
100
AcDbEntity
  8
0
100
AcDbBlockEnd
  0
BLOCK
  5
20E
330
20D
100
AcDbEntity
  8
0
100
AcDbBlockBegin
  2
Dim8
 70
     0
 10
0.0
 20
0.0
 30
0.0
  3
Dim8
  1

  0
LINE
  5
210
330
20D
100
AcDbEntity
  8
1
  6
Continuous
 62
     7
370
     9
100
AcDbLine
 10
2818.351124744892
 20
1717.377775064808
 30
0.0
 11
2818.351124744892
 21
1576.257326111735
 31
0.0
  0
LINE
  5
211
330
20D
100
AcDbEntity
  8
1
  6
Continuous
 62
     7
370
     9
100
AcDbLine
 10
2475.351124744892
 20
1584.257326111735
 30
0.0
 11
2818.351124744892
 21
1584.257326111735
 31
0.0
  0
MTEXT
  5
212
330
20D
100
AcDbEntity
  8
1
  6
Continuous
 62
     7
370
     9
100
AcDbMText
 10
2650.851124744892
 20
1584.257326111735
 30
0.0
 40
48.0
 41
644.4
 46
48.0
 71
     8
 72
     1
  1
335
  7
ＭＳ ゴシック
 73
     1
 44
1.0
1001
ACAD
1000
ACAD_MTEXT_DEFINED_HEIGHT_BEGIN
1070
    46
1040
48.0
1000
ACAD_MTEXT_DEFINED_HEIGHT_END
  0
INSERT
  5
213
330
20D
100
AcDbEntity
  8
1
  6
Continuous
 62
     7
370
     9
100
AcDbBlockReference
  2
_OPEN
 10
2818.351124744892
 20
1584.257326111735
 30
0.0
 41
8.28220944
 42
8.28220944
 43
8.28220944
 50
359.9999999999997
  0
ENDBLK
  5
20F
330
20D
100
AcDbEntity
  8
0
100
AcDbBlockEnd
  0
BLOCK
  5
216
330
215
100
AcDbEntity
  8
0
100
AcDbBlockBegin
  2
Dim9
 70
     0
 10
0.0
 20
0.0
 30
0.0
  3
Dim9
  1

  0
LINE
  5
218
330
215
100
AcDbEntity
  8
1
  6
Continuous
 62
     7
370
     9
100
AcDbLine
 10
2888.351124744892
 20
1692.253754793123
 30
0.0
 11
2888.351124744892
 21
1576.257326111735
 31
0.0
  0
LINE
  5
219
330
215
100
AcDbEntity
  8
1
  6
Continuous
 62
     7
370
     9
100
AcDbLine
 10
2810.351124744892
 20
1584.257326111735
 30
0.0
 11
2896.351124744892
 21
1584.257326111735
 31
0.0
  0
MTEXT
  5
21A
330
215
100
AcDbEntity
  8
1
  6
Continuous
 62
     7
370
     9
100
AcDbMText
 10
2853.351124744892
 20
1584.257326111735
 30
0.0
 40
48.0
 41
362.64
 46
48.0
 71
     8
 72
     1
  1
70
  7
ＭＳ ゴシック
 73
     1
 44
1.0
1001
ACAD
1000
ACAD_MTEXT_DEFINED_HEIGHT_BEGIN
1070
    46
1040
48.0
1000
ACAD_MTEXT_DEFINED_HEIGHT_END
  0
INSERT
  5
21B
330
215
100
AcDbEntity
  8
1
  6
Continuous
 62
     7
370
     9
100
AcDbBlockReference
  2
_OPEN
 10
2888.351124744892
 20
1584.257326111735
 30
0.0
 41
8.28220944
 42
8.28220944
 43
8.28220944
 50
179.9999999999999
  0
ENDBLK
  5
217
330
215
100
AcDbEntity
  8
0
100
AcDbBlockEnd
  0
BLOCK
  5
253
330
252
100
AcDbEntity
  8
0
100
AcDbBlockBegin
  2
*G30
 70
     1
 10
0.0
 20
0.0
 30
0.0
  3
*G30
  1

  0
INSERT
  5
2A4
330
252
100
AcDbEntity
  8
1
100
AcDbBlockReference
  2
*G31
 10
0.0
 20
0.0
 30
0.0
  0
ENDBLK
  5
254
330
252
100
AcDbEntity
  8
0
100
AcDbBlockEnd
  0
BLOCK
  5
256
330
255
100
AcDbEntity
  8
0
100
AcDbBlockBegin
  2
*G31
 70
     1
 10
0.0
 20
0.0
 30
0.0
  3
*G31
  1

  0
LINE
  5
258
330
255
100
AcDbEntity
  8
2
  6
Continuous
 62
     4
370
    20
100
AcDbLine
 10
1857.712292438075
 20
2300.431211543199
 30
0.0
 11
1857.112292438075
 21
2300.431211543199
 31
0.0
  0
LINE
  5
259
330
255
100
AcDbEntity
  8
2
  6
Continuous
 62
     4
370
    20
100
AcDbLine
 10
1857.712292438075
 20
2302.431211543199
 30
0.0
 11
1857.212292438075
 21
2302.431211543199
 31
0.0
  0
LINE
  5
25A
330
255
100
AcDbEntity
  8
2
  6
Continuous
 62
     4
370
    20
100
AcDbLine
 10
1857.212292438075
 20
2302.431211543199
 30
0.0
 11
1857.212292438075
 21
2301.131211543199
 31
0.0
  0
LINE
  5
25B
330
255
100
AcDbEntity
  8
2
  6
Continuous
 62
     4
370
    20
100
AcDbLine
 10
1856.312292438074
 20
2302.431211543199
 30
0.0
 11
1857.212292438075
 21
2301.131211543199
 31
0.0
  0
LINE
  5
25C
330
255
100
AcDbEntity
  8
2
  6
Continuous
 62
     4
370
    20
100
AcDbLine
 10
1856.312292438074
 20
2302.431211543199
 30
0.0
 11
1855.712292438075
 21
2302.431211543199
 31
0.0
  0
LINE
  5
25D
330
255
100
AcDbEntity
  8
2
  6
Continuous
 62
     4
370
    20
100
AcDbLine
 10
1855.712292438075
 20
2302.431211543199
 30
0.0
 11
1855.712292438075
 21
2300.431211543199
 31
0.0
  0
LINE
  5
25E
330
255
100
AcDbEntity
  8
2
  6
Continuous
 62
     4
370
    20
100
AcDbLine
 10
1855.712292438075
 20
2300.431211543199
 30
0.0
 11
1856.212292438075
 21
2300.431211543199
 31
0.0
  0
LINE
  5
25F
330
255
100
AcDbEntity
  8
2
  6
Continuous
 62
     4
370
    20
100
AcDbLine
 10
1856.212292438075
 20
2300.431211543199
 30
0.0
 11
1856.212292438075
 21
2301.7312115432
 31
0.0
  0
LINE
  5
260
330
255
100
AcDbEntity
  8
2
  6
Continuous
 62
     4
370
    20
100
AcDbLine
 10
1855.612292438075
 20
2300.431211543199
 30
0.0
 11
1855.612292438075
 21
2300.931211543199
 31
0.0
  0
LINE
  5
261
330
255
100
AcDbEntity
  8
2
  6
Continuous
 62
     4
370
    20
100
AcDbLine
 10
1853.812292438074
 20
2301.631211543199
 30
0.0
 11
1853.812292438074
 21
2301.8312115432
 31
0.0
  0
LINE
  5
262
330
255
100
AcDbEntity
  8
2
  6
Continuous
 62
     4
370
    20
100
AcDbLine
 10
1853.312292438074
 20
2301.631211543199
 30
0.0
 11
1853.812292438074
 21
2301.631211543199
 31
0.0
  0
LINE
  5
263
330
255
100
AcDbEntity
  8
2
  6
Continuous
 62
     4
370
    20
100
AcDbLine
 10
1853.312292438074
 20
2301.7312115432
 30
0.0
 11
1853.312292438074
 21
2301.631211543199
 31
0.0
  0
LINE
  5
264
330
255
100
AcDbEntity
  8
2
  6
Continuous
 62
     4
370
    20
100
AcDbLine
 10
1852.512292438074
 20
2301.931211543199
 30
0.0
 11
1853.112292438075
 21
2301.931211543199
 31
0.0
  0
LINE
  5
265
330
255
100
AcDbEntity
  8
2
  6
Continuous
 62
     4
370
    20
100
AcDbLine
 10
1852.312292438074
 20
2301.131211543199
 30
0.0
 11
1852.312292438074
 21
2301.7312115432
 31
0.0
  0
LINE
  5
266
330
255
100
AcDbEntity
  8
2
  6
Continuous
 62
     4
370
    20
100
AcDbLine
 10
1853.112292438075
 20
2300.931211543199
 30
0.0
 11
1852.512292438074
 21
2300.931211543199
 31
0.0
  0
LINE
  5
267
330
255
100
AcDbEntity
  8
2
  6
Continuous
 62
     4
370
    20
100
AcDbLine
 10
1852.812292438074
 20
2301.131211543199
 30
0.0
 11
1853.312292438074
 21
2301.131211543199
 31
0.0
  0
LINE
  5
268
330
255
100
AcDbEntity
  8
2
  6
Continuous
 62
     4
370
    20
100
AcDbLine
 10
1852.812292438074
 20
2301.531211543199
 30
0.0
 11
1852.812292438074
 21
2301.131211543199
 31
0.0
  0
LINE
  5
269
330
255
100
AcDbEntity
  8
2
  6
Continuous
 62
     4
370
    20
100
AcDbLine
 10
1853.912292438074
 20
2300.431211543199
 30
0.0
 11
1855.612292438075
 21
2300.431211543199
 31
0.0
  0
ARC
  5
26A
330
255
100
AcDbEntity
  8
2
  6
Continuous
 62
     4
370
    20
100
AcDbCircle
 10
1853.212292438075
 20
2301.031211543199
 30
0.0
 40
0.5999999999999943
100
AcDbArc
 50
269.9999999999998
 51
0.0
  0
ARC
  5
26B
330
255
100
AcDbEntity
  8
2
  6
Continuous
 62
     4
370
    20
100
AcDbCircle
 10
1852.412292438074
 20
2301.031211543199
 30
0.0
 40
0.5999999999999943
100
AcDbArc
 50
179.9999999999998
 51
269.9999999999998
  0
ARC
  5
26C
330
255
100
AcDbEntity
  8
2
  6
Continuous
 62
     4
370
    20
100
AcDbCircle
 10
1853.112292438075
 20
2301.7312115432
 30
0.0
 40
0.2000000000000028
100
AcDbArc
 50
0.0
 51
89.99999999999991
  0
ARC
  5
26D
330
255
100
AcDbEntity
  8
2
  6
Continuous
 62
     4
370
    20
100
AcDbCircle
 10
1853.212292438075
 20
2301.8312115432
 30
0.0
 40
0.5999999999999943
100
AcDbArc
 50
0.0
 51
89.99999999999991
  0
LINE
  5
26E
330
255
100
AcDbEntity
  8
2
  6
Continuous
 62
     4
370
    20
100
AcDbLine
 10
1853.912292438074
 20
2302.431211543199
 30
0.0
 11
1853.912292438074
 21
2300.431211543199
 31
0.0
  0
LINE
  5
26F
330
255
100
AcDbEntity
  8
2
  6
Continuous
 62
     4
370
    20
100
AcDbLine
 10
1855.612292438075
 20
2302.431211543199
 30
0.0
 11
1853.912292438074
 21
2302.431211543199
 31
0.0
  0
LINE
  5
270
330
255
100
AcDbEntity
  8
2
  6
Continuous
 62
     4
370
    20
100
AcDbLine
 10
1857.712292438075
 20
2302.431211543199
 30
0.0
 11
1857.712292438075
 21
2300.431211543199
 31
0.0
  0
LINE
  5
271
330
255
100
AcDbEntity
  8
2
  6
Continuous
 62
     4
370
    20
100
AcDbLine
 10
1850.312292438074
 20
2301.531211543199
 30
0.0
 11
1851.012292438074
 21
2302.431211543199
 31
0.0
  0
LINE
  5
272
330
255
100
AcDbEntity
  8
2
  6
Continuous
 62
     4
370
    20
100
AcDbLine
 10
1851.212292438075
 20
2300.431211543199
 30
0.0
 11
1851.712292438075
 21
2300.431211543199
 31
0.0
  0
LINE
  5
273
330
255
100
AcDbEntity
  8
2
  6
Continuous
 62
     4
370
    20
100
AcDbLine
 10
1851.012292438074
 20
2302.431211543199
 30
0.0
 11
1850.412292438074
 21
2302.431211543199
 31
0.0
  0
LINE
  5
274
330
255
100
AcDbEntity
  8
2
  6
Continuous
 62
     4
370
    20
100
AcDbLine
 10
1850.412292438074
 20
2302.431211543199
 30
0.0
 11
1849.712292438075
 21
2301.531211543199
 31
0.0
  0
ARC
  5
275
330
255
100
AcDbEntity
  8
2
  6
Continuous
 62
     4
370
    20
100
AcDbCircle
 10
1852.512292438074
 20
2301.131211543199
 30
0.0
 40
0.2000000000000028
100
AcDbArc
 50
179.9999999999998
 51
269.9999999999998
  0
LINE
  5
276
330
255
100
AcDbEntity
  8
2
  6
Continuous
 62
     4
370
    20
100
AcDbLine
 10
1851.712292438075
 20
2302.431211543199
 30
0.0
 11
1851.212292438075
 21
2302.431211543199
 31
0.0
  0
LINE
  5
277
330
255
100
AcDbEntity
  8
2
  6
Continuous
 62
     4
370
    20
100
AcDbLine
 10
1850.512292438074
 20
2300.431211543199
 30
0.0
 11
1851.112292438075
 21
2300.431211543199
 31
0.0
  0
ARC
  5
278
330
255
100
AcDbEntity
  8
2
  6
Continuous
 62
     4
370
    20
100
AcDbCircle
 10
1852.412292438074
 20
2301.8312115432
 30
0.0
 40
0.5999999999999943
100
AcDbArc
 50
89.99999999999991
 51
179.9999999999998
  0
LINE
  5
279
330
255
100
AcDbEntity
  8
2
  6
Continuous
 62
     4
370
    20
100
AcDbLine
 10
1851.112292438075
 20
2300.431211543199
 30
0.0
 11
1850.312292438074
 21
2301.531211543199
 31
0.0
  0
LINE
  5
27A
330
255
100
AcDbEntity
  8
2
  6
Continuous
 62
     4
370
    20
100
AcDbLine
 10
1851.712292438075
 20
2300.431211543199
 30
0.0
 11
1851.712292438075
 21
2302.431211543199
 31
0.0
  0
LINE
  5
27B
330
255
100
AcDbEntity
  8
2
  6
Continuous
 62
     4
370
    20
100
AcDbLine
 10
1849.712292438075
 20
2302.431211543199
 30
0.0
 11
1849.212292438075
 21
2302.431211543199
 31
0.0
  0
LINE
  5
27C
330
255
100
AcDbEntity
  8
2
  6
Continuous
 62
     4
370
    20
100
AcDbLine
 10
1849.712292438075
 20
2301.531211543199
 30
0.0
 11
1850.512292438074
 21
2300.431211543199
 31
0.0
  0
LINE
  5
27D
330
255
100
AcDbEntity
  8
2
  6
Continuous
 62
     4
370
    20
100
AcDbLine
 10
1848.524292438075
 20
2300.7312115432
 30
0.0
 11
1848.632292438075
 21
2300.431211543199
 31
0.0
  0
LINE
  5
27E
330
255
100
AcDbEntity
  8
2
  6
Continuous
 62
     4
370
    20
100
AcDbLine
 10
1854.412292438074
 20
2300.931211543199
 30
0.0
 11
1854.412292438074
 21
2301.2312115432
 31
0.0
  0
LINE
  5
27F
330
255
100
AcDbEntity
  8
2
  6
Continuous
 62
     4
370
    20
100
AcDbLine
 10
1855.612292438075
 20
2300.931211543199
 30
0.0
 11
1854.412292438074
 21
2300.931211543199
 31
0.0
  0
LINE
  5
280
330
255
100
AcDbEntity
  8
2
  6
Continuous
 62
     4
370
    20
100
AcDbLine
 10
1848.112292438075
 20
2301.8756565432
 30
0.0
 11
1848.351492438075
 21
2301.211211543199
 31
0.0
  0
LINE
  5
281
330
255
100
AcDbEntity
  8
2
  6
Continuous
 62
     4
370
    20
100
AcDbLine
 10
1849.132292438075
 20
2300.431211543199
 30
0.0
 11
1848.632292438075
 21
2300.431211543199
 31
0.0
  0
LINE
  5
282
330
255
100
AcDbEntity
  8
2
  6
Continuous
 62
     4
370
    20
100
AcDbLine
 10
1848.112292438075
 20
2301.8756565432
 30
0.0
 11
1847.873092438075
 21
2301.211211543199
 31
0.0
  0
ARC
  5
283
330
255
100
AcDbEntity
  8
2
  6
Continuous
 62
     4
370
    20
100
AcDbCircle
 10
1853.112292438075
 20
2301.131211543199
 30
0.0
 40
0.2000000000000028
100
AcDbArc
 50
269.9999999999998
 51
0.0
  0
LINE
  5
284
330
255
100
AcDbEntity
  8
2
  6
Continuous
 62
     4
370
    20
100
AcDbLine
 10
1849.712292438075
 20
2300.431211543199
 30
0.0
 11
1849.712292438075
 21
2302.431211543199
 31
0.0
  0
LINE
  5
285
330
255
100
AcDbEntity
  8
2
  6
Continuous
 62
     4
370
    20
100
AcDbLine
 10
1847.092292438074
 20
2300.431211543199
 30
0.0
 11
1847.592292438074
 21
2300.431211543199
 31
0.0
  0
LINE
  5
286
330
255
100
AcDbEntity
  8
2
  6
Continuous
 62
     4
370
    20
100
AcDbLine
 10
1847.812292438074
 20
2302.431211543199
 30
0.0
 11
1848.412292438074
 21
2302.431211543199
 31
0.0
  0
LINE
  5
287
330
255
100
AcDbEntity
  8
2
  6
Continuous
 62
     4
370
    20
100
AcDbLine
 10
1848.412292438074
 20
2302.431211543199
 30
0.0
 11
1849.132292438075
 21
2300.431211543199
 31
0.0
  0
LINE
  5
288
330
255
100
AcDbEntity
  8
2
  6
Continuous
 62
     4
370
    20
100
AcDbLine
 10
1847.812292438074
 20
2302.431211543199
 30
0.0
 11
1847.092292438074
 21
2300.431211543199
 31
0.0
  0
LINE
  5
289
330
255
100
AcDbEntity
  8
2
  6
Continuous
 62
     4
370
    20
100
AcDbLine
 10
1851.212292438075
 20
2302.431211543199
 30
0.0
 11
1851.212292438075
 21
2300.431211543199
 31
0.0
  0
LINE
  5
28A
330
255
100
AcDbEntity
  8
2
  6
Continuous
 62
     4
370
    20
100
AcDbLine
 10
1856.212292438075
 20
2301.7312115432
 30
0.0
 11
1857.112292438075
 21
2300.431211543199
 31
0.0
  0
LINE
  5
28B
330
255
100
AcDbEntity
  8
2
  6
Continuous
 62
     4
370
    20
100
AcDbLine
 10
1847.873092438075
 20
2301.211211543199
 30
0.0
 11
1848.351492438075
 21
2301.211211543199
 31
0.0
  0
LINE
  5
28C
330
255
100
AcDbEntity
  8
2
  6
Continuous
 62
     4
370
    20
100
AcDbLine
 10
1847.700292438074
 20
2300.7312115432
 30
0.0
 11
1847.592292438074
 21
2300.431211543199
 31
0.0
  0
LINE
  5
28D
330
255
100
AcDbEntity
  8
2
  6
Continuous
 62
     4
370
    20
100
AcDbLine
 10
1848.524292438075
 20
2300.7312115432
 30
0.0
 11
1847.700292438074
 21
2300.7312115432
 31
0.0
  0
LINE
  5
28E
330
255
100
AcDbEntity
  8
2
  6
Continuous
 62
     4
370
    20
100
AcDbLine
 10
1853.212292438075
 20
2302.431211543199
 30
0.0
 11
1852.412292438074
 21
2302.431211543199
 31
0.0
  0
LINE
  5
28F
330
255
100
AcDbEntity
  8
2
  6
Continuous
 62
     4
370
    20
100
AcDbLine
 10
1847.612292438075
 20
2301.9912115432
 30
0.0
 11
1847.612292438075
 21
2302.431211543199
 31
0.0
  0
LINE
  5
290
330
255
100
AcDbEntity
  8
2
  6
Continuous
 62
     4
370
    20
100
AcDbLine
 10
1846.912292438074
 20
2301.9912115432
 30
0.0
 11
1847.612292438075
 21
2301.9912115432
 31
0.0
  0
LINE
  5
291
330
255
100
AcDbEntity
  8
2
  6
Continuous
 62
     4
370
    20
100
AcDbLine
 10
1846.912292438074
 20
2300.431211543199
 30
0.0
 11
1846.912292438074
 21
2301.9912115432
 31
0.0
  0
LINE
  5
292
330
255
100
AcDbEntity
  8
2
  6
Continuous
 62
     4
370
    20
100
AcDbLine
 10
1846.412292438074
 20
2300.431211543199
 30
0.0
 11
1846.912292438074
 21
2300.431211543199
 31
0.0
  0
LINE
  5
293
330
255
100
AcDbEntity
  8
2
  6
Continuous
 62
     4
370
    20
100
AcDbLine
 10
1846.412292438074
 20
2301.9912115432
 30
0.0
 11
1846.412292438074
 21
2300.431211543199
 31
0.0
  0
LINE
  5
294
330
255
100
AcDbEntity
  8
2
  6
Continuous
 62
     4
370
    20
100
AcDbLine
 10
1845.712292438075
 20
2301.9912115432
 30
0.0
 11
1846.412292438074
 21
2301.9912115432
 31
0.0
  0
LINE
  5
295
330
255
100
AcDbEntity
  8
2
  6
Continuous
 62
     4
370
    20
100
AcDbLine
 10
1845.712292438075
 20
2302.431211543199
 30
0.0
 11
1845.712292438075
 21
2301.9912115432
 31
0.0
  0
LINE
  5
296
330
255
100
AcDbEntity
  8
2
  6
Continuous
 62
     4
370
    20
100
AcDbLine
 10
1847.612292438075
 20
2302.431211543199
 30
0.0
 11
1845.712292438075
 21
2302.431211543199
 31
0.0
  0
LINE
  5
297
330
255
100
AcDbEntity
  8
2
  6
Continuous
 62
     4
370
    20
100
AcDbLine
 10
1849.212292438075
 20
2300.431211543199
 30
0.0
 11
1849.712292438075
 21
2300.431211543199
 31
0.0
  0
LINE
  5
298
330
255
100
AcDbEntity
  8
2
  6
Continuous
 62
     4
370
    20
100
AcDbLine
 10
1849.212292438075
 20
2302.431211543199
 30
0.0
 11
1849.212292438075
 21
2300.431211543199
 31
0.0
  0
LINE
  5
299
330
255
100
AcDbEntity
  8
2
  6
Continuous
 62
     4
370
    20
100
AcDbLine
 10
1851.812292438074
 20
2301.8312115432
 30
0.0
 11
1851.812292438074
 21
2301.031211543199
 31
0.0
  0
ARC
  5
29A
330
255
100
AcDbEntity
  8
2
  6
Continuous
 62
     4
370
    20
100
AcDbCircle
 10
1852.512292438074
 20
2301.7312115432
 30
0.0
 40
0.2000000000000028
100
AcDbArc
 50
89.99999999999991
 51
179.9999999999998
  0
LINE
  5
29B
330
255
100
AcDbEntity
  8
2
  6
Continuous
 62
     4
370
    20
100
AcDbLine
 10
1852.412292438074
 20
2300.431211543199
 30
0.0
 11
1853.212292438075
 21
2300.431211543199
 31
0.0
  0
LINE
  5
29C
330
255
100
AcDbEntity
  8
2
  6
Continuous
 62
     4
370
    20
100
AcDbLine
 10
1854.412292438074
 20
2301.2312115432
 30
0.0
 11
1855.512292438074
 21
2301.2312115432
 31
0.0
  0
LINE
  5
29D
330
255
100
AcDbEntity
  8
2
  6
Continuous
 62
     4
370
    20
100
AcDbLine
 10
1855.512292438074
 20
2301.2312115432
 30
0.0
 11
1855.512292438074
 21
2301.681211543199
 31
0.0
  0
LINE
  5
29E
330
255
100
AcDbEntity
  8
2
  6
Continuous
 62
     4
370
    20
100
AcDbLine
 10
1855.512292438074
 20
2301.681211543199
 30
0.0
 11
1854.412292438074
 21
2301.681211543199
 31
0.0
  0
LINE
  5
29F
330
255
100
AcDbEntity
  8
2
  6
Continuous
 62
     4
370
    20
100
AcDbLine
 10
1854.412292438074
 20
2301.681211543199
 30
0.0
 11
1854.412292438074
 21
2301.9912115432
 31
0.0
  0
LINE
  5
2A0
330
255
100
AcDbEntity
  8
2
  6
Continuous
 62
     4
370
    20
100
AcDbLine
 10
1854.412292438074
 20
2301.9912115432
 30
0.0
 11
1855.612292438075
 21
2301.9912115432
 31
0.0
  0
LINE
  5
2A1
330
255
100
AcDbEntity
  8
2
  6
Continuous
 62
     4
370
    20
100
AcDbLine
 10
1855.612292438075
 20
2301.9912115432
 30
0.0
 11
1855.612292438075
 21
2302.431211543199
 31
0.0
  0
LINE
  5
2A2
330
255
100
AcDbEntity
  8
2
  6
Continuous
 62
     4
370
    20
100
AcDbLine
 10
1853.812292438074
 20
2301.031211543199
 30
0.0
 11
1853.812292438074
 21
2301.531211543199
 31
0.0
  0
LINE
  5
2A3
330
255
100
AcDbEntity
  8
2
  6
Continuous
 62
     4
370
    20
100
AcDbLine
 10
1853.812292438074
 20
2301.531211543199
 30
0.0
 11
1852.812292438074
 21
2301.531211543199
 31
0.0
  0
ENDBLK
  5
257
330
255
100
AcDbEntity
  8
0
100
AcDbBlockEnd
  0
BLOCK
  5
2B9
330
2B8
100
AcDbEntity
  8
0
100
AcDbBlockBegin
  2
*G32
 70
     1
 10
0.0
 20
0.0
 30
0.0
  3
*G32
  1

  0
ARC
  5
2BB
330
2B8
100
AcDbEntity
  8
2
  6
Continuous
 62
     4
370
    20
100
AcDbCircle
 10
1023.967062441157
 20
2909.278748593786
 30
0.0
 40
114.8468443292827
100
AcDbArc
 50
183.9572755606943
 51
276.4496012447919
  0
LINE
  5
2BC
330
2B8
100
AcDbEntity
  8
2
  6
Continuous
 62
     4
370
    20
100
AcDbLine
 10
1036.867716612443
 20
2795.158764479052
 30
0.0
 11
1006.487517357333
 21
2781.119936974419
 31
0.0
  0
LINE
  5
2BD
330
2B8
100
AcDbEntity
  8
2
  6
Continuous
 62
     4
370
    20
100
AcDbLine
 10
1036.867716612443
 20
2795.158764479052
 30
0.0
 11
1006.062611237845
 21
2806.491693529069
 31
0.0
  0
ENDBLK
  5
2BA
330
2B8
100
AcDbEntity
  8
0
100
AcDbBlockEnd
  0
BLOCK
  5
2C2
330
2C1
100
AcDbEntity
  8
0
100
AcDbBlockBegin
  2
*G33
 70
     1
 10
0.0
 20
0.0
 30
0.0
  3
*G33
  1

  0
ARC
  5
2C4
330
2C1
100
AcDbEntity
  8
2
  6
Continuous
 62
     4
370
    20
100
AcDbCircle
 10
280.7561097896632
 20
2896.406035286724
 30
0.0
 40
114.8468443292827
100
AcDbArc
 50
263.3522709877911
 51
355.8445966718888
  0
LINE
  5
2C5
330
2C1
100
AcDbEntity
  8
2
  6
Continuous
 62
     4
370
    20
100
AcDbLine
 10
267.4609086981109
 20
2782.331343613551
 30
0.0
 11
297.7923804012862
 21
2768.187546075248
 31
0.0
  0
LINE
  5
2C6
330
2C1
100
AcDbEntity
  8
2
  6
Continuous
 62
     4
370
    20
100
AcDbLine
 10
267.4609086981109
 20
2782.331343613551
 30
0.0
 11
298.3050188799452
 21
2793.557681622166
 31
0.0
  0
ENDBLK
  5
2C3
330
2C1
100
AcDbEntity
  8
0
100
AcDbBlockEnd
  0
BLOCK
  5
2D7
330
2D6
100
AcDbEntity
  8
0
100
AcDbBlockBegin
  2
*G34
 70
     1
 10
0.0
 20
0.0
 30
0.0
  3
*G34
  1

  0
ARC
  5
2D9
330
2D6
100
AcDbEntity
  8
2
  6
Continuous
 62
     4
370
    20
100
AcDbCircle
 10
1155.218183390327
 20
2909.072556484025
 30
0.0
 40
114.8468443292827
100
AcDbArc
 50
263.6490982072377
 51
356.1414238913349
  0
LINE
  5
2DA
330
2D6
100
AcDbEntity
  8
2
  6
Continuous
 62
     4
370
    20
100
AcDbLine
 10
1142.514134817647
 20
2794.930518644072
 30
0.0
 11
1172.918472696012
 21
2780.944045798381
 31
0.0
  0
LINE
  5
2DB
330
2D6
100
AcDbEntity
  8
2
  6
Continuous
 62
     4
370
    20
100
AcDbLine
 10
1142.514134817647
 20
2794.930518644072
 30
0.0
 11
1173.29967204733
 21
2806.316496664101
 31
0.0
  0
ENDBLK
  5
2D8
330
2D6
100
AcDbEntity
  8
0
100
AcDbBlockEnd
  0
BLOCK
  5
2DE
330
2DD
100
AcDbEntity
  8
0
100
AcDbBlockBegin
  2
*G35
 70
     1
 10
0.0
 20
0.0
 30
0.0
  3
*G35
  1

  0
INSERT
  5
2E0
330
2DD
100
AcDbEntity
  8
2
  6
Continuous
 62
     4
370
    20
100
AcDbBlockReference
  2
_OPEN
 10
1266.999115312033
 20
2882.713100664348
 30
0.0
 41
32.0
 42
32.0
 43
32.0
 50
301.3086949576243
  0
POLYLINE
  5
2E1
330
2DD
100
AcDbEntity
  8
2
  6
Continuous
 62
     4
370
    20
100
AcDb2dPolyline
 66
     1
 10
0.0
 20
0.0
 30
0.0
  0
VERTEX
  5
2E2
330
2E1
100
AcDbEntity
  8
2
  6
Continuous
 62
     4
370
    20
100
AcDbVertex
100
AcDb2dVertex
 10
1266.999115312033
 20
2882.713100664348
 30
0.0
  0
VERTEX
  5
2E3
330
2E1
100
AcDbEntity
  8
2
  6
Continuous
 62
     4
370
    20
100
AcDbVertex
100
AcDb2dVertex
 10
1031.731766051541
 20
3269.52766266657
 30
0.0
  0
VERTEX
  5
2E4
330
2E1
100
AcDbEntity
  8
2
  6
Continuous
 62
     4
370
    20
100
AcDbVertex
100
AcDb2dVertex
 10
778.6035912505099
 20
3269.52766266657
 30
0.0
  0
SEQEND
  5
2E5
330
2E1
100
AcDbEntity
  8
2
  6
Continuous
 62
     4
370
    20
  0
MTEXT
  5
2E6
330
2DD
100
AcDbEntity
  8
2
  6
Continuous
 62
     4
370
     9
100
AcDbMText
 10
874.6035912505099
 20
3269.52766266657
 30
0.0
 40
48.0
 41
169.5927174289489
 46
48.0
 71
     9
 72
     1
  1
{\fＭＳ 明朝|b1;\W0.666667;\T0.750000;排風口}
 73
     1
 44
1.0
1001
ACAD
1000
ACAD_MTEXT_DEFINED_HEIGHT_BEGIN
1070
    46
1040
48.0
1000
ACAD_MTEXT_DEFINED_HEIGHT_END
  0
MTEXT
  5
2E7
330
2DD
100
AcDbEntity
  8
2
  6
DOT
 62
     4
370
     9
100
AcDbMText
 10
1042.60359125051
 20
3269.52766266657
 30
0.0
 40
48.0
 41
487.5819054524924
 46
48.0
 71
     3
 72
     1
  1
{\fＭＳ 明朝|b1;\W0.666667;\T0.750000;（左.前後面　3方向）}
 73
     1
 44
1.0
1001
ACAD
1000
ACAD_MTEXT_DEFINED_HEIGHT_BEGIN
1070
    46
1040
48.0
1000
ACAD_MTEXT_DEFINED_HEIGHT_END
  0
ENDBLK
  5
2DF
330
2DD
100
AcDbEntity
  8
0
100
AcDbBlockEnd
  0
BLOCK
  5
2EE
330
2ED
100
AcDbEntity
  8
0
100
AcDbBlockBegin
  2
*G36
 70
     1
 10
0.0
 20
0.0
 30
0.0
  3
*G36
  1

  0
ARC
  5
2F0
330
2ED
100
AcDbEntity
  8
2
  6
Continuous
 62
     4
370
    20
100
AcDbCircle
 10
2273.653129911127
 20
2909.278748593787
 30
0.0
 40
114.8468443292827
100
AcDbArc
 50
263.5503987552073
 51
356.0427244393047
  0
LINE
  5
2F1
330
2ED
100
AcDbEntity
  8
2
  6
Continuous
 62
     4
370
    20
100
AcDbLine
 10
2260.752475739841
 20
2795.158764479052
 30
0.0
 11
2291.132674994951
 21
2781.119936974419
 31
0.0
  0
LINE
  5
2F2
330
2ED
100
AcDbEntity
  8
2
  6
Continuous
 62
     4
370
    20
100
AcDbLine
 10
2260.752475739841
 20
2795.158764479052
 30
0.0
 11
2291.557581114439
 21
2806.491693529069
 31
0.0
  0
ENDBLK
  5
2EF
330
2ED
100
AcDbEntity
  8
0
100
AcDbBlockEnd
  0
BLOCK
  5
2F6
330
2F5
100
AcDbEntity
  8
0
100
AcDbBlockBegin
  2
*G37
 70
     1
 10
0.0
 20
0.0
 30
0.0
  3
*G37
  1

  0
ARC
  5
2F8
330
2F5
100
AcDbEntity
  8
2
  6
Continuous
 62
     4
370
    20
100
AcDbCircle
 10
3004.742082854581
 20
2910.664918538793
 30
0.0
 40
114.8468443292827
100
AcDbArc
 50
184.1554033281102
 51
276.6477290122077
  0
LINE
  5
2F9
330
2F5
100
AcDbEntity
  8
2
  6
Continuous
 62
     4
370
    20
100
AcDbLine
 10
3018.037283946133
 20
2796.59022686562
 30
0.0
 11
2987.705812242958
 21
2782.446429327317
 31
0.0
  0
LINE
  5
2FA
330
2F5
100
AcDbEntity
  8
2
  6
Continuous
 62
     4
370
    20
100
AcDbLine
 10
3018.037283946133
 20
2796.59022686562
 30
0.0
 11
2987.193173764299
 21
2807.816564874235
 31
0.0
  0
ENDBLK
  5
2F7
330
2F5
100
AcDbEntity
  8
0
100
AcDbBlockEnd
  0
BLOCK
  5
303
330
302
100
AcDbEntity
  8
0
100
AcDbBlockBegin
  2
Dim10
 70
     0
 10
0.0
 20
0.0
 30
0.0
  3
Dim10
  1

  0
LINE
  5
305
330
302
100
AcDbEntity
  8
1
  6
Continuous
 62
     7
370
     9
100
AcDbLine
 10
1279.912292438076
 20
1723.431380196887
 30
0.0
 11
1279.912292438076
 21
1564.412304463729
 31
0.0
  0
LINE
  5
306
330
302
100
AcDbEntity
  8
1
  6
Continuous
 62
     7
370
     9
100
AcDbLine
 10
1344.912292438076
 20
1721.877775064807
 30
0.0
 11
1344.912292438076
 21
1564.412304463729
 31
0.0
  0
LINE
  5
307
330
302
100
AcDbEntity
  8
1
  6
Continuous
 62
     7
370
     9
100
AcDbLine
 10
1279.912292438076
 20
1572.412304463729
 30
0.0
 11
1344.912292438076
 21
1572.412304463729
 31
0.0
  0
MTEXT
  5
308
330
302
100
AcDbEntity
  8
1
  6
Continuous
 62
     7
370
     9
100
AcDbMText
 10
1312.412292438075
 20
1572.412304463729
 30
0.0
 40
48.0
 41
405.12
 46
48.0
 71
     8
 72
     1
  1
65
  7
ＭＳ ゴシック
 73
     1
 44
1.0
1001
ACAD
1000
ACAD_MTEXT_DEFINED_HEIGHT_BEGIN
1070
    46
1040
48.0
1000
ACAD_MTEXT_DEFINED_HEIGHT_END
  0
INSERT
  5
309
330
302
100
AcDbEntity
  8
1
  6
Continuous
 62
     7
370
     9
100
AcDbBlockReference
  2
_OPEN
 10
1279.912292438076
 20
1572.412304463729
 30
0.0
 41
8.28220944
 42
8.28220944
 43
8.28220944
 50
179.9999999999998
  0
INSERT
  5
30A
330
302
100
AcDbEntity
  8
1
  6
Continuous
 62
     7
370
     9
100
AcDbBlockReference
  2
_OPEN
 10
1344.912292438076
 20
1572.412304463729
 30
0.0
 41
8.28220944
 42
8.28220944
 43
8.28220944
 50
359.9999999999997
  0
ENDBLK
  5
304
330
302
100
AcDbEntity
  8
0
100
AcDbBlockEnd
  0
BLOCK
  5
30D
330
30C
100
AcDbEntity
  8
0
100
AcDbBlockBegin
  2
Dim11
 70
     0
 10
0.0
 20
0.0
 30
0.0
  3
Dim11
  1

  0
LINE
  5
30F
330
30C
100
AcDbEntity
  8
1
  6
Continuous
 62
     7
370
     9
100
AcDbLine
 10
2154.912292438076
 20
1721.877775064807
 30
0.0
 11
2154.912292438076
 21
1564.412304463729
 31
0.0
  0
LINE
  5
310
330
30C
100
AcDbEntity
  8
1
  6
Continuous
 62
     7
370
     9
100
AcDbLine
 10
1344.912292438076
 20
1572.412304463729
 30
0.0
 11
2154.912292438076
 21
1572.412304463729
 31
0.0
  0
MTEXT
  5
311
330
30C
100
AcDbEntity
  8
1
  6
Continuous
 62
     7
370
     9
100
AcDbMText
 10
1749.912292438075
 20
1572.412304463729
 30
0.0
 40
48.0
 41
525.36
 46
48.0
 71
     8
 72
     1
  1
810
  7
ＭＳ ゴシック
 73
     1
 44
1.0
1001
ACAD
1000
ACAD_MTEXT_DEFINED_HEIGHT_BEGIN
1070
    46
1040
48.0
1000
ACAD_MTEXT_DEFINED_HEIGHT_END
  0
INSERT
  5
312
330
30C
100
AcDbEntity
  8
1
  6
Continuous
 62
     7
370
     9
100
AcDbBlockReference
  2
_OPEN
 10
1344.912292438076
 20
1572.412304463729
 30
0.0
 41
8.28220944
 42
8.28220944
 43
8.28220944
 50
179.9999999999998
  0
INSERT
  5
313
330
30C
100
AcDbEntity
  8
1
  6
Continuous
 62
     7
370
     9
100
AcDbBlockReference
  2
_OPEN
 10
2154.912292438076
 20
1572.412304463729
 30
0.0
 41
8.28220944
 42
8.28220944
 43
8.28220944
 50
359.9999999999997
  0
ENDBLK
  5
30E
330
30C
100
AcDbEntity
  8
0
100
AcDbBlockEnd
  0
BLOCK
  5
316
330
315
100
AcDbEntity
  8
0
100
AcDbBlockBegin
  2
Dim12
 70
     0
 10
0.0
 20
0.0
 30
0.0
  3
Dim12
  1

  0
LINE
  5
318
330
315
100
AcDbEntity
  8
1
  6
Continuous
 62
     7
370
     9
100
AcDbLine
 10
2219.912292438077
 20
1723.431380196887
 30
0.0
 11
2219.912292438076
 21
1564.412304463729
 31
0.0
  0
LINE
  5
319
330
315
100
AcDbEntity
  8
1
  6
Continuous
 62
     7
370
     9
100
AcDbLine
 10
2154.912292438075
 20
1572.412304463729
 30
0.0
 11
2219.912292438076
 21
1572.412304463729
 31
0.0
  0
MTEXT
  5
31A
330
315
100
AcDbEntity
  8
1
  6
Continuous
 62
     7
370
     9
100
AcDbMText
 10
2187.412292438075
 20
1572.412304463729
 30
0.0
 40
48.0
 41
405.12
 46
48.0
 71
     8
 72
     1
  1
65
  7
ＭＳ ゴシック
 73
     1
 44
1.0
1001
ACAD
1000
ACAD_MTEXT_DEFINED_HEIGHT_BEGIN
1070
    46
1040
48.0
1000
ACAD_MTEXT_DEFINED_HEIGHT_END
  0
INSERT
  5
31B
330
315
100
AcDbEntity
  8
1
  6
Continuous
 62
     7
370
     9
100
AcDbBlockReference
  2
_OPEN
 10
2154.912292438075
 20
1572.412304463729
 30
0.0
 41
8.28220944
 42
8.28220944
 43
8.28220944
 50
179.9999999999998
  0
INSERT
  5
31C
330
315
100
AcDbEntity
  8
1
  6
Continuous
 62
     7
370
     9
100
AcDbBlockReference
  2
_OPEN
 10
2219.912292438076
 20
1572.412304463729
 30
0.0
 41
8.28220944
 42
8.28220944
 43
8.28220944
 50
359.9999999999997
  0
ENDBLK
  5
317
330
315
100
AcDbEntity
  8
0
100
AcDbBlockEnd
  0
BLOCK
  5
32D
330
32C
100
AcDbEntity
  8
0
100
AcDbBlockBegin
  2
Dim13
 70
     0
 10
0.0
 20
0.0
 30
0.0
  3
Dim13
  1

  0
LINE
  5
32F
330
32C
100
AcDbEntity
  8
1
  6
Continuous
 62
     7
370
     9
100
AcDbLine
 10
1274.912292438077
 20
3089.431380196887
 30
0.0
 11
1274.912292438077
 21
3213.776277504237
 31
0.0
  0
LINE
  5
330
330
32C
100
AcDbEntity
  8
1
  6
Continuous
 62
     7
370
     9
100
AcDbLine
 10
2224.912292438077
 20
3089.431380196888
 30
0.0
 11
2224.912292438077
 21
3213.776277504237
 31
0.0
  0
LINE
  5
331
330
32C
100
AcDbEntity
  8
1
  6
Continuous
 62
     7
370
     9
100
AcDbLine
 10
1274.912292438077
 20
3205.776277504237
 30
0.0
 11
2224.912292438077
 21
3205.776277504237
 31
0.0
  0
MTEXT
  5
332
330
32C
100
AcDbEntity
  8
1
  6
Continuous
 62
     7
370
     9
100
AcDbMText
 10
1749.912292438077
 20
3205.776277504238
 30
0.0
 40
48.0
 41
605.2800000000001
 46
48.0
 71
     8
 72
     1
  1
950
  7
ＭＳ ゴシック
 73
     1
 44
1.0
1001
ACAD
1000
ACAD_MTEXT_DEFINED_HEIGHT_BEGIN
1070
    46
1040
48.0
1000
ACAD_MTEXT_DEFINED_HEIGHT_END
  0
INSERT
  5
333
330
32C
100
AcDbEntity
  8
1
  6
Continuous
 62
     7
370
     9
100
AcDbBlockReference
  2
_OPEN
 10
1274.912292438077
 20
3205.776277504237
 30
0.0
 41
8.28220944
 42
8.28220944
 43
8.28220944
 50
179.9999999999998
  0
INSERT
  5
334
330
32C
100
AcDbEntity
  8
1
  6
Continuous
 62
     7
370
     9
100
AcDbBlockReference
  2
_OPEN
 10
2224.912292438077
 20
3205.776277504237
 30
0.0
 41
8.28220944
 42
8.28220944
 43
8.28220944
 50
359.9999999999997
  0
ENDBLK
  5
32E
330
32C
100
AcDbEntity
  8
0
100
AcDbBlockEnd
  0
BLOCK
  5
337
330
336
100
AcDbEntity
  8
0
100
AcDbBlockBegin
  2
Dim14
 70
     0
 10
0.0
 20
0.0
 30
0.0
  3
Dim14
  1

  0
LINE
  5
339
330
336
100
AcDbEntity
  8
1
  6
Continuous
 62
     7
370
     9
100
AcDbLine
 10
2393.351124744892
 20
3089.431380196887
 30
0.0
 11
2393.351124744892
 21
3213.776277504237
 31
0.0
  0
LINE
  5
33A
330
336
100
AcDbEntity
  8
1
  6
Continuous
 62
     7
370
     9
100
AcDbLine
 10
2893.351124744892
 20
3079.431380196887
 30
0.0
 11
2893.351124744893
 21
3213.776277504237
 31
0.0
  0
LINE
  5
33B
330
336
100
AcDbEntity
  8
1
  6
Continuous
 62
     7
370
     9
100
AcDbLine
 10
2393.351124744892
 20
3205.776277504237
 30
0.0
 11
2893.351124744893
 21
3205.776277504237
 31
0.0
  0
MTEXT
  5
33C
330
336
100
AcDbEntity
  8
1
  6
Continuous
 62
     7
370
     9
100
AcDbMText
 10
2643.351124744891
 20
3205.776277504237
 30
0.0
 40
48.0
 41
565.44
 46
48.0
 71
     8
 72
     1
  1
500
  7
ＭＳ ゴシック
 73
     1
 44
1.0
1001
ACAD
1000
ACAD_MTEXT_DEFINED_HEIGHT_BEGIN
1070
    46
1040
48.0
1000
ACAD_MTEXT_DEFINED_HEIGHT_END
  0
INSERT
  5
33D
330
336
100
AcDbEntity
  8
1
  6
Continuous
 62
     7
370
     9
100
AcDbBlockReference
  2
_OPEN
 10
2393.351124744892
 20
3205.776277504237
 30
0.0
 41
8.28220944
 42
8.28220944
 43
8.28220944
 50
179.9999999999998
  0
INSERT
  5
33E
330
336
100
AcDbEntity
  8
1
  6
Continuous
 62
     7
370
     9
100
AcDbBlockReference
  2
_OPEN
 10
2893.351124744893
 20
3205.776277504237
 30
0.0
 41
8.28220944
 42
8.28220944
 43
8.28220944
 50
359.9999999999997
  0
ENDBLK
  5
338
330
336
100
AcDbEntity
  8
0
100
AcDbBlockEnd
  0
BLOCK
  5
34A
330
349
100
AcDbEntity
  8
0
100
AcDbBlockBegin
  2
Dim15
 70
     0
 10
0.0
 20
0.0
 30
0.0
  3
Dim15
  1

  0
LINE
  5
34C
330
349
100
AcDbEntity
  8
1
  6
Continuous
 62
     7
370
     9
100
AcDbLine
 10
2385.351124744892
 20
3081.431380196887
 30
0.0
 11
2321.534299785004
 21
3081.431380196887
 31
0.0
  0
LINE
  5
34D
330
349
100
AcDbEntity
  8
1
  6
Continuous
 62
     7
370
     9
100
AcDbLine
 10
2405.351124744892
 20
1831.431380196887
 30
0.0
 11
2321.534299785004
 21
1831.431380196887
 31
0.0
  0
LINE
  5
34E
330
349
100
AcDbEntity
  8
1
  6
Continuous
 62
     7
370
     9
100
AcDbLine
 10
2329.534299785004
 20
3081.431380196887
 30
0.0
 11
2329.534299785004
 21
1831.431380196887
 31
0.0
  0
MTEXT
  5
34F
330
349
100
AcDbEntity
  8
1
  6
Continuous
 62
     7
370
     9
100
AcDbMText
 10
2329.534299785004
 20
2456.431380196885
 30
0.0
 40
48.0
 41
764.64
 46
48.0
 71
     8
 72
     1
  1
1250
  7
ＭＳ ゴシック
 11
1.171455364582524E-15
 21
1.0
 31
0.0
 73
     1
 44
1.0
1001
ACAD
1000
ACAD_MTEXT_DEFINED_HEIGHT_BEGIN
1070
    46
1040
48.0
1000
ACAD_MTEXT_DEFINED_HEIGHT_END
  0
INSERT
  5
350
330
349
100
AcDbEntity
  8
1
  6
Continuous
 62
     7
370
     9
100
AcDbBlockReference
  2
_OPEN
 10
2329.534299785004
 20
3081.431380196887
 30
0.0
 41
8.28220944
 42
8.28220944
 43
8.28220944
 50
89.99999999999949
  0
INSERT
  5
351
330
349
100
AcDbEntity
  8
1
  6
Continuous
 62
     7
370
     9
100
AcDbBlockReference
  2
_OPEN
 10
2329.534299785004
 20
1831.431380196887
 30
0.0
 41
8.28220944
 42
8.28220944
 43
8.28220944
 50
269.9999999999998
  0
ENDBLK
  5
34B
330
349
100
AcDbEntity
  8
0
100
AcDbBlockEnd
  0
BLOCK
  5
354
330
353
100
AcDbEntity
  8
0
100
AcDbBlockBegin
  2
Dim16
 70
     0
 10
0.0
 20
0.0
 30
0.0
  3
Dim16
  1

  0
LINE
  5
356
330
353
100
AcDbEntity
  8
1
  6
Continuous
 62
     7
370
     9
100
AcDbLine
 10
2405.351124744892
 20
1731.431380196887
 30
0.0
 11
2321.534299785004
 21
1731.431380196887
 31
0.0
  0
LINE
  5
357
330
353
100
AcDbEntity
  8
1
  6
Continuous
 62
     7
370
     9
100
AcDbLine
 10
2329.534299785004
 20
1831.431380196887
 30
0.0
 11
2329.534299785004
 21
1731.431380196887
 31
0.0
  0
MTEXT
  5
358
330
353
100
AcDbEntity
  8
1
  6
Continuous
 62
     7
370
     9
100
AcDbMText
 10
2329.534299785004
 20
1781.431380196885
 30
0.0
 40
48.0
 41
484.8000000000001
 46
48.0
 71
     8
 72
     1
  1
100
  7
ＭＳ ゴシック
 11
1.171455364582524E-15
 21
1.0
 31
0.0
 73
     1
 44
1.0
1001
ACAD
1000
ACAD_MTEXT_DEFINED_HEIGHT_BEGIN
1070
    46
1040
48.0
1000
ACAD_MTEXT_DEFINED_HEIGHT_END
  0
INSERT
  5
359
330
353
100
AcDbEntity
  8
1
  6
Continuous
 62
     7
370
     9
100
AcDbBlockReference
  2
_OPEN
 10
2329.534299785004
 20
1831.431380196887
 30
0.0
 41
8.28220944
 42
8.28220944
 43
8.28220944
 50
89.99999999999949
  0
INSERT
  5
35A
330
353
100
AcDbEntity
  8
1
  6
Continuous
 62
     7
370
     9
100
AcDbBlockReference
  2
_OPEN
 10
2329.534299785004
 20
1731.431380196887
 30
0.0
 41
8.28220944
 42
8.28220944
 43
8.28220944
 50
269.9999999999998
  0
ENDBLK
  5
355
330
353
100
AcDbEntity
  8
0
100
AcDbBlockEnd
  0
BLOCK
  5
35D
330
35C
100
AcDbEntity
  8
0
100
AcDbBlockBegin
  2
Dim17
 70
     0
 10
0.0
 20
0.0
 30
0.0
  3
Dim17
  1

  0
LINE
  5
35F
330
35C
100
AcDbEntity
  8
1
  6
Continuous
 62
     7
370
     9
100
AcDbLine
 10
2901.351124744892
 20
3071.431380196887
 30
0.0
 11
2980.88670890709
 21
3071.431380196886
 31
0.0
  0
LINE
  5
360
330
35C
100
AcDbEntity
  8
1
  6
Continuous
 62
     7
370
     9
100
AcDbLine
 10
2896.351124744892
 20
1831.431380196887
 30
0.0
 11
2980.88670890709
 21
1831.431380196886
 31
0.0
  0
LINE
  5
361
330
35C
100
AcDbEntity
  8
1
  6
Continuous
 62
     7
370
     9
100
AcDbLine
 10
2972.88670890709
 20
3071.431380196886
 30
0.0
 11
2972.88670890709
 21
1831.431380196886
 31
0.0
  0
MTEXT
  5
362
330
35C
100
AcDbEntity
  8
1
  6
Continuous
 62
     7
370
     9
100
AcDbMText
 10
2972.88670890709
 20
2451.431380196886
 30
0.0
 40
48.0
 41
764.64
 46
48.0
 71
     8
 72
     1
  1
1240
  7
ＭＳ ゴシック
 11
1.615544574432587E-15
 21
1.0
 31
0.0
 73
     1
 44
1.0
1001
ACAD
1000
ACAD_MTEXT_DEFINED_HEIGHT_BEGIN
1070
    46
1040
48.0
1000
ACAD_MTEXT_DEFINED_HEIGHT_END
  0
INSERT
  5
363
330
35C
100
AcDbEntity
  8
1
  6
Continuous
 62
     7
370
     9
100
AcDbBlockReference
  2
_OPEN
 10
2972.88670890709
 20
3071.431380196886
 30
0.0
 41
8.28220944
 42
8.28220944
 43
8.28220944
 50
89.99999999999959
  0
INSERT
  5
364
330
35C
100
AcDbEntity
  8
1
  6
Continuous
 62
     7
370
     9
100
AcDbBlockReference
  2
_OPEN
 10
2972.88670890709
 20
1831.431380196886
 30
0.0
 41
8.28220944
 42
8.28220944
 43
8.28220944
 50
269.9999999999998
  0
ENDBLK
  5
35E
330
35C
100
AcDbEntity
  8
0
100
AcDbBlockEnd
  0
BLOCK
  5
367
330
366
100
AcDbEntity
  8
0
100
AcDbBlockBegin
  2
Dim18
 70
     0
 10
0.0
 20
0.0
 30
0.0
  3
Dim18
  1

  0
LINE
  5
369
330
366
100
AcDbEntity
  8
1
  6
Continuous
 62
     7
370
     9
100
AcDbLine
 10
2896.351124744892
 20
1731.431380196887
 30
0.0
 11
2980.88670890709
 21
1731.431380196887
 31
0.0
  0
LINE
  5
36A
330
366
100
AcDbEntity
  8
1
  6
Continuous
 62
     7
370
     9
100
AcDbLine
 10
2972.88670890709
 20
1831.431380196887
 30
0.0
 11
2972.88670890709
 21
1731.431380196887
 31
0.0
  0
MTEXT
  5
36B
330
366
100
AcDbEntity
  8
1
  6
Continuous
 62
     7
370
     9
100
AcDbMText
 10
2972.88670890709
 20
1781.431380196886
 30
0.0
 40
48.0
 41
484.8000000000001
 46
48.0
 71
     8
 72
     1
  1
100
  7
ＭＳ ゴシック
 11
1.615544574432587E-15
 21
1.0
 31
0.0
 73
     1
 44
1.0
1001
ACAD
1000
ACAD_MTEXT_DEFINED_HEIGHT_BEGIN
1070
    46
1040
48.0
1000
ACAD_MTEXT_DEFINED_HEIGHT_END
  0
INSERT
  5
36C
330
366
100
AcDbEntity
  8
1
  6
Continuous
 62
     7
370
     9
100
AcDbBlockReference
  2
_OPEN
 10
2972.88670890709
 20
1831.431380196887
 30
0.0
 41
8.28220944
 42
8.28220944
 43
8.28220944
 50
89.99999999999959
  0
INSERT
  5
36D
330
366
100
AcDbEntity
  8
1
  6
Continuous
 62
     7
370
     9
100
AcDbBlockReference
  2
_OPEN
 10
2972.88670890709
 20
1731.431380196887
 30
0.0
 41
8.28220944
 42
8.28220944
 43
8.28220944
 50
269.9999999999998
  0
ENDBLK
  5
368
330
366
100
AcDbEntity
  8
0
100
AcDbBlockEnd
  0
BLOCK
  5
370
330
36F
100
AcDbEntity
  8
0
100
AcDbBlockBegin
  2
Dim19
 70
     0
 10
0.0
 20
0.0
 30
0.0
  3
Dim19
  1

  0
LINE
  5
372
330
36F
100
AcDbEntity
  8
1
  6
Continuous
 62
     7
370
     9
100
AcDbLine
 10
1266.912292438077
 20
3081.431380196887
 30
0.0
 11
1116.436711248283
 21
3081.431380196889
 31
0.0
  0
LINE
  5
373
330
36F
100
AcDbEntity
  8
1
  6
Continuous
 62
     7
370
     9
100
AcDbLine
 10
1271.912292438076
 20
1831.431380196887
 30
0.0
 11
1116.436711248283
 21
1831.431380196889
 31
0.0
  0
LINE
  5
374
330
36F
100
AcDbEntity
  8
1
  6
Continuous
 62
     7
370
     9
100
AcDbLine
 10
1124.436711248283
 20
3081.431380196889
 30
0.0
 11
1124.436711248283
 21
1831.431380196889
 31
0.0
  0
MTEXT
  5
375
330
36F
100
AcDbEntity
  8
1
  6
Continuous
 62
     7
370
     9
100
AcDbMText
 10
1124.436711248285
 20
2456.431380196888
 30
0.0
 40
48.0
 41
764.64
 46
48.0
 71
     8
 72
     1
  1
1250
  7
ＭＳ ゴシック
 11
1.615544574432587E-15
 21
1.0
 31
0.0
 73
     1
 44
1.0
1001
ACAD
1000
ACAD_MTEXT_DEFINED_HEIGHT_BEGIN
1070
    46
1040
48.0
1000
ACAD_MTEXT_DEFINED_HEIGHT_END
  0
INSERT
  5
376
330
36F
100
AcDbEntity
  8
1
  6
Continuous
 62
     7
370
     9
100
AcDbBlockReference
  2
_OPEN
 10
1124.436711248283
 20
3081.431380196889
 30
0.0
 41
8.28220944
 42
8.28220944
 43
8.28220944
 50
89.99999999999991
  0
INSERT
  5
377
330
36F
100
AcDbEntity
  8
1
  6
Continuous
 62
     7
370
     9
100
AcDbBlockReference
  2
_OPEN
 10
1124.436711248283
 20
1831.431380196889
 30
0.0
 41
8.28220944
 42
8.28220944
 43
8.28220944
 50
269.9999999999998
  0
ENDBLK
  5
371
330
36F
100
AcDbEntity
  8
0
100
AcDbBlockEnd
  0
BLOCK
  5
37A
330
379
100
AcDbEntity
  8
0
100
AcDbBlockBegin
  2
Dim20
 70
     0
 10
0.0
 20
0.0
 30
0.0
  3
Dim20
  1

  0
LINE
  5
37C
330
379
100
AcDbEntity
  8
1
  6
Continuous
 62
     7
370
     9
100
AcDbLine
 10
1271.912292438076
 20
1731.431380196887
 30
0.0
 11
1116.436711248286
 21
1731.431380196889
 31
0.0
  0
LINE
  5
37D
330
379
100
AcDbEntity
  8
1
  6
Continuous
 62
     7
370
     9
100
AcDbLine
 10
1124.436711248286
 20
1831.431380196889
 30
0.0
 11
1124.436711248286
 21
1731.431380196889
 31
0.0
  0
MTEXT
  5
37E
330
379
100
AcDbEntity
  8
1
  6
Continuous
 62
     7
370
     9
100
AcDbMText
 10
1124.436711248286
 20
1781.431380196888
 30
0.0
 40
48.0
 41
484.8000000000001
 46
48.0
 71
     8
 72
     1
  1
100
  7
ＭＳ ゴシック
 11
1.615544574432587E-15
 21
1.0
 31
0.0
 73
     1
 44
1.0
1001
ACAD
1000
ACAD_MTEXT_DEFINED_HEIGHT_BEGIN
1070
    46
1040
48.0
1000
ACAD_MTEXT_DEFINED_HEIGHT_END
  0
INSERT
  5
37F
330
379
100
AcDbEntity
  8
1
  6
Continuous
 62
     7
370
     9
100
AcDbBlockReference
  2
_OPEN
 10
1124.436711248286
 20
1831.431380196889
 30
0.0
 41
8.28220944
 42
8.28220944
 43
8.28220944
 50
89.99999999999991
  0
INSERT
  5
380
330
379
100
AcDbEntity
  8
1
  6
Continuous
 62
     7
370
     9
100
AcDbBlockReference
  2
_OPEN
 10
1124.436711248286
 20
1731.431380196889
 30
0.0
 41
8.28220944
 42
8.28220944
 43
8.28220944
 50
269.9999999999998
  0
ENDBLK
  5
37B
330
379
100
AcDbEntity
  8
0
100
AcDbBlockEnd
  0
BLOCK
  5
383
330
382
100
AcDbEntity
  8
0
100
AcDbBlockBegin
  2
Dim21
 70
     0
 10
0.0
 20
0.0
 30
0.0
  3
Dim21
  1

  0
LINE
  5
385
330
382
100
AcDbEntity
  8
1
  6
Continuous
 62
     7
370
     9
100
AcDbLine
 10
912.2690676073914
 20
3081.431380196887
 30
0.0
 11
999.0312133652501
 21
3081.431380196886
 31
0.0
  0
LINE
  5
386
330
382
100
AcDbEntity
  8
1
  6
Continuous
 62
     7
370
     9
100
AcDbLine
 10
892.2690676073914
 20
1831.431380196887
 30
0.0
 11
999.0312133652501
 21
1831.431380196886
 31
0.0
  0
LINE
  5
387
330
382
100
AcDbEntity
  8
1
  6
Continuous
 62
     7
370
     9
100
AcDbLine
 10
991.0312133652501
 20
3081.431380196886
 30
0.0
 11
991.0312133652501
 21
1831.431380196886
 31
0.0
  0
MTEXT
  5
388
330
382
100
AcDbEntity
  8
1
  6
Continuous
 62
     7
370
     9
100
AcDbMText
 10
991.0312133652503
 20
2456.431380196886
 30
0.0
 40
48.0
 41
764.64
 46
48.0
 71
     8
 72
     1
  1
1250
  7
ＭＳ ゴシック
 11
2.832769448823990E-16
 21
1.0
 31
0.0
 73
     1
 44
1.0
1001
ACAD
1000
ACAD_MTEXT_DEFINED_HEIGHT_BEGIN
1070
    46
1040
48.0
1000
ACAD_MTEXT_DEFINED_HEIGHT_END
  0
INSERT
  5
389
330
382
100
AcDbEntity
  8
1
  6
Continuous
 62
     7
370
     9
100
AcDbBlockReference
  2
_OPEN
 10
991.0312133652501
 20
3081.431380196886
 30
0.0
 41
8.28220944
 42
8.28220944
 43
8.28220944
 50
89.99999999999996
  0
INSERT
  5
38A
330
382
100
AcDbEntity
  8
1
  6
Continuous
 62
     7
370
     9
100
AcDbBlockReference
  2
_OPEN
 10
991.0312133652501
 20
1831.431380196886
 30
0.0
 41
8.28220944
 42
8.28220944
 43
8.28220944
 50
269.9999999999998
  0
ENDBLK
  5
384
330
382
100
AcDbEntity
  8
0
100
AcDbBlockEnd
  0
BLOCK
  5
38D
330
38C
100
AcDbEntity
  8
0
100
AcDbBlockBegin
  2
Dim22
 70
     0
 10
0.0
 20
0.0
 30
0.0
  3
Dim22
  1

  0
LINE
  5
38F
330
38C
100
AcDbEntity
  8
1
  6
Continuous
 62
     7
370
     9
100
AcDbLine
 10
892.2690676073914
 20
1731.431380196887
 30
0.0
 11
999.0312133652503
 21
1731.431380196887
 31
0.0
  0
LINE
  5
390
330
38C
100
AcDbEntity
  8
1
  6
Continuous
 62
     7
370
     9
100
AcDbLine
 10
991.0312133652503
 20
1831.431380196887
 30
0.0
 11
991.0312133652503
 21
1731.431380196887
 31
0.0
  0
MTEXT
  5
391
330
38C
100
AcDbEntity
  8
1
  6
Continuous
 62
     7
370
     9
100
AcDbMText
 10
991.0312133652503
 20
1781.431380196886
 30
0.0
 40
48.0
 41
484.8000000000001
 46
48.0
 71
     8
 72
     1
  1
100
  7
ＭＳ ゴシック
 11
2.832769448823990E-16
 21
1.0
 31
0.0
 73
     1
 44
1.0
1001
ACAD
1000
ACAD_MTEXT_DEFINED_HEIGHT_BEGIN
1070
    46
1040
48.0
1000
ACAD_MTEXT_DEFINED_HEIGHT_END
  0
INSERT
  5
392
330
38C
100
AcDbEntity
  8
1
  6
Continuous
 62
     7
370
     9
100
AcDbBlockReference
  2
_OPEN
 10
991.0312133652503
 20
1831.431380196887
 30
0.0
 41
8.28220944
 42
8.28220944
 43
8.28220944
 50
89.99999999999996
  0
INSERT
  5
393
330
38C
100
AcDbEntity
  8
1
  6
Continuous
 62
     7
370
     9
100
AcDbBlockReference
  2
_OPEN
 10
991.0312133652503
 20
1731.431380196887
 30
0.0
 41
8.28220944
 42
8.28220944
 43
8.28220944
 50
269.9999999999998
  0
ENDBLK
  5
38E
330
38C
100
AcDbEntity
  8
0
100
AcDbBlockEnd
  0
ENDSEC
  0
SECTION
  2
ENTITIES
  0
LINE
  5
AF
330
1F
100
AcDbEntity
  8
4
  6
PHANTOM
 62
     6
370
     9
100
AcDbLine
 10
-2500000000.0
 20
2079.68283448785
 30
0.0
 11
-2499999999.0
 21
2079.68283448785
 31
0.0
  0
MTEXT
  5
B0
330
1F
100
AcDbEntity
  8
1
  6
Continuous
 62
     7
370
     9
100
AcDbMText
 10
2074.700746319284
 20
510.330450068879
 30
0.0
 40
48.0
 41
102.90461145228
 46
48.0
 71
     7
 72
     1
  1
{\fＭＳ ゴシック|b1;\W0.666667;\T0.750000;黒澤}
 73
     1
 44
1.0
1001
ACAD
1000
ACAD_MTEXT_DEFINED_HEIGHT_BEGIN
1070
    46
1040
48.0
1000
ACAD_MTEXT_DEFINED_HEIGHT_END
  0
MTEXT
  5
B1
330
1F
100
AcDbEntity
  8
1
  6
Continuous
 62
     7
370
     9
100
AcDbMText
 10
2199.262289166201
 20
508.0496813276291
 30
0.0
 40
48.0
 41
102.17757108876
 46
48.0
 71
     7
 72
     1
  1
{\fＭＳ ゴシック|b1;\W0.666667;\T0.750000;柿間}
 73
     1
 44
1.0
1001
ACAD
1000
ACAD_MTEXT_DEFINED_HEIGHT_BEGIN
1070
    46
1040
48.0
1000
ACAD_MTEXT_DEFINED_HEIGHT_END
  0
MTEXT
  5
B2
330
1F
100
AcDbEntity
  8
1
  6
Continuous
 62
     7
370
     9
100
AcDbMText
 10
2311.279591419269
 20
506.3391047716917
 30
0.0
 40
48.0
 41
102.17757108876
 46
48.0
 71
     7
 72
     1
  1
{\fＭＳ ゴシック|b1;\W0.666667;\T0.750000;淳一}
 73
     1
 44
1.0
1001
ACAD
1000
ACAD_MTEXT_DEFINED_HEIGHT_BEGIN
1070
    46
1040
48.0
1000
ACAD_MTEXT_DEFINED_HEIGHT_END
  0
MTEXT
  5
B3
330
1F
100
AcDbEntity
  8
1
  6
Continuous
 62
     7
370
     9
100
AcDbMText
 10
2683.911084161533
 20
397.3823181770706
 30
0.0
 40
60.0
 41
639.674919305105
 46
60.0
 71
     7
 72
     1
  1
{\fＭＳ 明朝|b1;\W0.833333;\T0.750000;屋外型　外形図}
 73
     1
 44
1.0
1001
ACAD
1000
ACAD_MTEXT_DEFINED_HEIGHT_BEGIN
1070
    46
1040
60.0
1000
ACAD_MTEXT_DEFINED_HEIGHT_END
  0
INSERT
  5
E2
330
1F
100
AcDbEntity
  8
0
100
AcDbBlockReference
  2
*G16
 10
0.0
 20
0.0
 30
0.0
  0
MTEXT
  5
E3
330
1F
100
AcDbEntity
  8
3
  6
DASHDOT
 62
     3
370
     9
100
AcDbMText
 10
2679.115613143817
 20
502.0685546473431
 30
0.0
 40
44.0
 41
691.6215973718718
 46
44.0
 71
     7
 72
     1
  1
{\fＭＳ 明朝|b1;\W0.545455;\T0.750000;自動起動式交通信号機用発動発電機}
 73
     1
 44
1.0
1001
ACAD
1000
ACAD_MTEXT_DEFINED_HEIGHT_BEGIN
1070
    46
1040
44.0
1000
ACAD_MTEXT_DEFINED_HEIGHT_END
  0
MTEXT
  5
E4
330
1F
100
AcDbEntity
  8
1
  6
Continuous
 62
     7
370
     9
100
AcDbMText
 10
2856.213476228523
 20
321.0998890979475
 30
0.0
 40
40.0
 41
60.39619619619619
 46
40.0
 71
     7
 72
     1
  1
{\fＭＳ 明朝|b1;\T0.750000;01}
 73
     1
 44
1.0
1001
ACAD
1000
ACAD_MTEXT_DEFINED_HEIGHT_BEGIN
1070
    46
1040
40.0
1000
ACAD_MTEXT_DEFINED_HEIGHT_END
  0
LINE
  5
E5
330
1F
100
AcDbEntity
  8
1
  6
Continuous
 62
     7
370
    20
100
AcDbLine
 10
884.2690676073914
 20
1831.431380196887
 30
0.0
 11
884.2690676073914
 21
1835.931380196887
 31
0.0
  0
LINE
  5
E6
330
1F
100
AcDbEntity
  8
1
  6
Continuous
 62
     7
370
    20
100
AcDbLine
 10
844.2690676073914
 20
1831.431380196887
 30
0.0
 11
884.2690676073914
 21
1831.431380196887
 31
0.0
  0
LINE
  5
E7
330
1F
100
AcDbEntity
  8
1
  6
Continuous
 62
     7
370
    20
100
AcDbLine
 10
884.2690676073914
 20
1835.931380196887
 30
0.0
 11
848.7690676073914
 21
1835.931380196887
 31
0.0
  0
LINE
  5
E8
330
1F
100
AcDbEntity
  8
1
  6
Continuous
 62
     7
370
    20
100
AcDbLine
 10
868.2690676073914
 20
1842.680831758842
 30
0.0
 11
868.2690676073914
 21
1822.700698368749
 31
0.0
  0
LINE
  5
E9
330
1F
100
AcDbEntity
  8
1
  6
Continuous
 62
     7
370
    20
100
AcDbLine
 10
884.2690676073914
 20
1835.931380196887
 30
0.0
 11
884.2690676073914
 21
1931.431380196887
 31
0.0
  0
LINE
  5
EA
330
1F
100
AcDbEntity
  8
1
  6
Continuous
 62
     7
370
    20
100
AcDbLine
 10
848.7690676073914
 20
1835.931380196887
 30
0.0
 11
848.7690676073914
 21
1926.931380196887
 31
0.0
  0
LINE
  5
EB
330
1F
100
AcDbEntity
  8
1
  6
Continuous
 62
     7
370
    20
100
AcDbLine
 10
844.2690676073914
 20
1926.931380196887
 30
0.0
 11
844.2690676073914
 21
1831.431380196887
 31
0.0
  0
LINE
  5
EC
330
1F
100
AcDbEntity
  8
2
  6
Continuous
 62
     4
370
    20
100
AcDbLine
 10
804.2690676073914
 20
1931.431380196887
 30
0.0
 11
859.2690676073914
 21
1931.431380196887
 31
0.0
  0
LINE
  5
ED
330
1F
100
AcDbEntity
  8
2
  6
Continuous
 62
     4
370
    20
100
AcDbLine
 10
859.2690676073914
 20
1983.231380196888
 30
0.0
 11
859.2690676073914
 21
1931.431380196887
 31
0.0
  0
INSERT
  5
F2
330
1F
100
AcDbEntity
  8
0
100
AcDbBlockReference
  2
*G17
 10
0.0
 20
0.0
 30
0.0
  0
LINE
  5
F3
330
1F
100
AcDbEntity
  8
3
  6
Continuous
 62
     3
370
    20
100
AcDbLine
 10
864.36906760739
 20
1938.130901110722
 30
0.0
 11
864.3690676073909
 21
1953.130901110722
 31
0.0
  0
LINE
  5
F4
330
1F
100
AcDbEntity
  8
4
  6
Continuous
 62
     6
370
    20
100
AcDbLine
 10
884.2690676073914
 20
1731.431380196887
 30
0.0
 11
884.2690676073914
 21
1831.431380196887
 31
0.0
  0
LINE
  5
F5
330
1F
100
AcDbEntity
  8
4
  6
HIDDEN
 62
     6
370
    20
100
AcDbLine
 10
879.7690676073914
 20
1735.931380196887
 30
0.0
 11
879.7690676073914
 21
1826.931380196887
 31
0.0
  0
LINE
  5
F6
330
1F
100
AcDbEntity
  8
1
  6
Continuous
 62
     7
370
    20
100
AcDbLine
 10
814.2690676073914
 20
1742.680831758842
 30
0.0
 11
814.2690676073914
 21
1722.700698368749
 31
0.0
  0
LINE
  5
F7
330
1F
100
AcDbEntity
  8
9
  6
Continuous
 62
   190
370
     9
100
AcDbLine
 10
724.2690676073933
 20
1752.598339533216
 30
0.0
 11
724.2690676073933
 21
1722.612704647172
 31
0.0
  0
LINE
  5
F8
330
1F
100
AcDbEntity
  8
9
  6
Continuous
 62
   190
370
     9
100
AcDbLine
 10
724.2690676073933
 20
1722.612704647172
 30
0.0
 11
799.2690676073933
 21
1752.598339533216
 31
0.0
  0
LINE
  5
F9
330
1F
100
AcDbEntity
  8
9
  6
Continuous
 62
   190
370
     9
100
AcDbLine
 10
724.2690676073933
 20
1752.598339533216
 30
0.0
 11
799.2690676073923
 21
1722.612704647172
 31
0.0
  0
LINE
  5
FA
330
1F
100
AcDbEntity
  8
9
  6
Continuous
 62
   190
370
     9
100
AcDbLine
 10
799.2690676073933
 20
1722.612704647172
 30
0.0
 11
799.2690676073933
 21
1752.598339533216
 31
0.0
  0
LINE
  5
FB
330
1F
100
AcDbEntity
  8
4
  6
HIDDEN
 62
     6
370
     9
100
AcDbLine
 10
844.2690676073914
 20
1831.431380196887
 30
0.0
 11
844.2690676073914
 21
1738.822205013623
 31
0.0
  0
INSERT
  5
FC
330
1F
100
AcDbEntity
  8
2
  6
Continuous
 62
     4
370
    20
100
AcDbBlockReference
  2
_OPEN
 10
782.0382685101874
 20
1729.501723987486
 30
0.0
 41
32.0
 42
32.0
 43
32.0
 50
104.0476442175913
  0
POLYLINE
  5
FD
330
1F
100
AcDbEntity
  8
2
  6
Continuous
 62
     4
370
    20
100
AcDb2dPolyline
 66
     1
 10
0.0
 20
0.0
 30
0.0
  0
VERTEX
  5
FE
330
FD
100
AcDbEntity
  8
2
  6
Continuous
 62
     4
370
    20
100
AcDbVertex
100
AcDb2dVertex
 10
782.0382685101874
 20
1729.501723987486
 30
0.0
  0
VERTEX
  5
FF
330
FD
100
AcDbEntity
  8
2
  6
Continuous
 62
     4
370
    20
100
AcDbVertex
100
AcDb2dVertex
 10
823.70102491064
 20
1562.991517684165
 30
0.0
  0
VERTEX
  5
100
330
FD
100
AcDbEntity
  8
2
  6
Continuous
 62
     4
370
    20
100
AcDbVertex
100
AcDb2dVertex
 10
919.7010249106397
 20
1562.991517684165
 30
0.0
  0
SEQEND
  5
101
330
FD
100
AcDbEntity
  8
2
  6
Continuous
 62
     4
370
    20
  0
MTEXT
  5
102
330
1F
100
AcDbEntity
  8
2
  6
Continuous
 62
     4
370
     9
100
AcDbMText
 10
823.70102491064
 20
1562.991517684165
 30
0.0
 40
48.0
 41
167.2729565093093
 46
48.0
 71
     7
 72
     1
  1
{\fＭＳ 明朝|b1;\W0.666667;\T0.750000;通線口}
 73
     1
 44
1.0
1001
ACAD
1000
ACAD_MTEXT_DEFINED_HEIGHT_BEGIN
1070
    46
1040
48.0
1000
ACAD_MTEXT_DEFINED_HEIGHT_END
  0
LINE
  5
103
330
1F
100
AcDbEntity
  8
1
  6
Continuous
 62
     7
370
    20
100
AcDbLine
 10
521.8690676073948
 20
1926.931380196887
 30
0.0
 11
521.8690676073948
 21
1835.931380196887
 31
0.0
  0
LINE
  5
104
330
1F
100
AcDbEntity
  8
1
  6
Continuous
 62
     7
370
    20
100
AcDbLine
 10
409.3690676073948
 20
1835.931380196888
 30
0.0
 11
409.3690676073948
 21
1831.431380196888
 31
0.0
  0
LINE
  5
105
330
1F
100
AcDbEntity
  8
1
  6
Continuous
 62
     7
370
    20
100
AcDbLine
 10
444.8690676073948
 20
1835.931380196888
 30
0.0
 11
409.3690676073948
 21
1835.931380196888
 31
0.0
  0
LINE
  5
106
330
1F
100
AcDbEntity
  8
1
  6
Continuous
 62
     7
370
    20
100
AcDbLine
 10
409.3690676073948
 20
1831.431380196888
 30
0.0
 11
449.3690676073948
 21
1831.431380196888
 31
0.0
  0
LINE
  5
107
330
1F
100
AcDbEntity
  8
1
  6
Continuous
 62
     7
370
    20
100
AcDbLine
 10
794.3690676073948
 20
1831.431380196887
 30
0.0
 11
449.3690676073948
 21
1831.431380196888
 31
0.0
  0
LINE
  5
108
330
1F
100
AcDbEntity
  8
1
  6
Continuous
 62
     7
370
    20
100
AcDbLine
 10
425.3690676073948
 20
1841.048467919783
 30
0.0
 11
425.3690676073948
 21
1825.377775064808
 31
0.0
  0
LINE
  5
109
330
1F
100
AcDbEntity
  8
1
  6
Continuous
 62
     7
370
    20
100
AcDbLine
 10
409.3690676073948
 20
1931.431380196888
 30
0.0
 11
409.3690676073948
 21
1831.967861582637
 31
0.0
  0
LINE
  5
10A
330
1F
100
AcDbEntity
  8
1
  6
Continuous
 62
     7
370
    20
100
AcDbLine
 10
444.8690676073948
 20
1835.931380196888
 30
0.0
 11
444.8690676073948
 21
1926.931380196888
 31
0.0
  0
LINE
  5
10B
330
1F
100
AcDbEntity
  8
1
  6
Continuous
 62
     7
370
    20
100
AcDbLine
 10
449.3690676073948
 20
1926.931380196888
 30
0.0
 11
449.3690676073948
 21
1831.431380196888
 31
0.0
  0
LINE
  5
10C
330
1F
100
AcDbEntity
  8
13
  6
DOT
 62
    91
370
    20
100
AcDbLine
 10
543.869067607402
 20
1926.931380196889
 30
0.0
 11
543.869067607402
 21
1931.431380196887
 31
0.0
  0
LINE
  5
10D
330
1F
100
AcDbEntity
  8
2
  6
Continuous
 62
     4
370
    20
100
AcDbLine
 10
754.3690676073948
 20
1931.431380196887
 30
0.0
 11
408.8477641488971
 21
1931.431380196887
 31
0.0
  0
LINE
  5
10E
330
1F
100
AcDbEntity
  8
13
  6
DOT
 62
    91
370
    20
100
AcDbLine
 10
528.869067607402
 20
1926.931380196889
 30
0.0
 11
528.869067607402
 21
1931.431380196887
 31
0.0
  0
LINE
  5
10F
330
1F
100
AcDbEntity
  8
1
  6
Continuous
 62
     7
370
    20
100
AcDbLine
 10
404.3690676073948
 20
2236.431380196887
 30
0.0
 11
401.1690676073949
 21
2236.431380196887
 31
0.0
  0
LINE
  5
110
330
1F
100
AcDbEntity
  8
1
  6
Continuous
 62
     7
370
    20
100
AcDbLine
 10
401.169067607394
 20
2006.431380196887
 30
0.0
 11
404.3690676073948
 21
2006.431380196887
 31
0.0
  0
LINE
  5
111
330
1F
100
AcDbEntity
  8
1
  6
Continuous
 62
     7
370
    20
100
AcDbLine
 10
401.1690676073949
 20
2236.431380196887
 30
0.0
 11
401.169067607394
 21
2006.431380196887
 31
0.0
  0
LINE
  5
112
330
1F
100
AcDbEntity
  8
4
  6
Continuous
 62
     6
370
    20
100
AcDbLine
 10
409.3690676073948
 20
1831.431380196887
 30
0.0
 11
409.3690676073948
 21
1731.431380196887
 31
0.0
  0
LINE
  5
113
330
1F
100
AcDbEntity
  8
4
  6
HIDDEN
 62
     6
370
    20
100
AcDbLine
 10
413.8690676073948
 20
1826.931380196887
 30
0.0
 11
413.8690676073948
 21
1735.931380196887
 31
0.0
  0
LINE
  5
114
330
1F
100
AcDbEntity
  8
1
  6
Continuous
 62
     7
370
    20
100
AcDbLine
 10
479.3690676073948
 20
1742.680831758842
 30
0.0
 11
479.3690676073948
 21
1722.700698368749
 31
0.0
  0
LINE
  5
115
330
1F
100
AcDbEntity
  8
4
  6
HIDDEN
 62
     6
370
     9
100
AcDbLine
 10
449.3690676073948
 20
1831.431380196887
 30
0.0
 11
449.3690676073948
 21
1735.931380196887
 31
0.0
  0
LINE
  5
116
330
1F
100
AcDbEntity
  8
1
  6
Continuous
 62
     7
370
    20
100
AcDbLine
 10
884.2690676073914
 20
1931.431380196887
 30
0.0
 11
409.3690676073948
 21
1931.431380196888
 31
0.0
  0
LINE
  5
117
330
1F
100
AcDbEntity
  8
1
  6
Continuous
 62
     7
370
    20
100
AcDbLine
 10
409.3690676073948
 20
1926.931380196888
 30
0.0
 11
884.2690676073914
 21
1926.931380196888
 31
0.0
  0
LINE
  5
118
330
1F
100
AcDbEntity
  8
1
  6
Continuous
 62
     7
370
    20
100
AcDbLine
 10
844.2690676073914
 20
1835.931380196887
 30
0.0
 11
444.8690676073948
 21
1835.931380196888
 31
0.0
  0
LINE
  5
119
330
1F
100
AcDbEntity
  8
4
  6
Continuous
 62
     6
370
    20
100
AcDbLine
 10
884.2690676073914
 20
1831.431380196887
 30
0.0
 11
409.3690676073948
 21
1831.431380196887
 31
0.0
  0
LINE
  5
11A
330
1F
100
AcDbEntity
  8
4
  6
HIDDEN
 62
     6
370
    20
100
AcDbLine
 10
879.7690676073914
 20
1826.931380196887
 30
0.0
 11
413.8690676073948
 21
1826.931380196887
 31
0.0
  0
LINE
  5
11B
330
1F
100
AcDbEntity
  8
4
  6
Continuous
 62
     6
370
    20
100
AcDbLine
 10
409.3690676073948
 20
1731.431380196887
 30
0.0
 11
884.2690676073914
 21
1731.431380196887
 31
0.0
  0
LINE
  5
11C
330
1F
100
AcDbEntity
  8
4
  6
HIDDEN
 62
     6
370
    20
100
AcDbLine
 10
413.8690676073948
 20
1735.931380196887
 30
0.0
 11
879.7690676073914
 21
1735.931380196887
 31
0.0
  0
INSERT
  5
11D
330
1F
100
AcDbEntity
  8
2
  6
Continuous
 62
     4
370
    20
100
AcDbBlockReference
  2
_OPEN
 10
470.362094625405
 20
1773.309215695997
 30
0.0
 41
32.0
 42
32.0
 43
32.0
 50
65.00559194646104
  0
POLYLINE
  5
11E
330
1F
100
AcDbEntity
  8
2
  6
Continuous
 62
     4
370
    20
100
AcDb2dPolyline
 66
     1
 10
0.0
 20
0.0
 30
0.0
  0
VERTEX
  5
11F
330
11E
100
AcDbEntity
  8
2
  6
Continuous
 62
     4
370
    20
100
AcDbVertex
100
AcDb2dVertex
 10
470.362094625405
 20
1773.309215695997
 30
0.0
  0
VERTEX
  5
120
330
11E
100
AcDbEntity
  8
2
  6
Continuous
 62
     4
370
    20
100
AcDbVertex
100
AcDb2dVertex
 10
411.3012693275243
 20
1646.620587058145
 30
0.0
  0
VERTEX
  5
121
330
11E
100
AcDbEntity
  8
2
  6
Continuous
 62
     4
370
    20
100
AcDbVertex
100
AcDb2dVertex
 10
251.3012693275243
 20
1646.620587058145
 30
0.0
  0
SEQEND
  5
122
330
11E
100
AcDbEntity
  8
2
  6
Continuous
 62
     4
370
    20
  0
MTEXT
  5
123
330
1F
100
AcDbEntity
  8
2
  6
Continuous
 62
     4
370
     9
100
AcDbMText
 10
411.3012693275243
 20
1646.620587058145
 30
0.0
 40
48.0
 41
289.1058902986186
 46
48.0
 71
     9
 72
     1
  1
{\fＭＳ 明朝|b1;\W0.666667;\T0.750000;スペーサー}
 73
     1
 44
1.0
1001
ACAD
1000
ACAD_MTEXT_DEFINED_HEIGHT_BEGIN
1070
    46
1040
48.0
1000
ACAD_MTEXT_DEFINED_HEIGHT_END
  0
MTEXT
  5
124
330
1F
100
AcDbEntity
  8
2
  6
Continuous
 62
     4
370
     9
100
AcDbMText
 10
411.3012693275243
 20
1646.620587058145
 30
0.0
 40
48.0
 41
293.563470104985
 46
48.0
 71
     3
 72
     1
  1
{\fＭＳ 明朝|b1;\W0.666667;\T0.750000;補助ベッド}
 73
     1
 44
1.0
1001
ACAD
1000
ACAD_MTEXT_DEFINED_HEIGHT_BEGIN
1070
    46
1040
48.0
1000
ACAD_MTEXT_DEFINED_HEIGHT_END
  0
LINE
  5
125
330
1F
100
AcDbEntity
  8
1
  6
Continuous
 62
     7
370
    20
100
AcDbLine
 10
1279.912292438075
 20
1926.931380196887
 30
0.0
 11
1279.912292438075
 21
1931.431380196887
 31
0.0
  0
LINE
  5
126
330
1F
100
AcDbEntity
  8
1
  6
Continuous
 62
     7
370
    20
100
AcDbLine
 10
1319.912292438076
 20
1831.431380196887
 30
0.0
 11
1279.912292438076
 21
1831.431380196887
 31
0.0
  0
LINE
  5
127
330
1F
100
AcDbEntity
  8
1
  6
Continuous
 62
     7
370
    20
100
AcDbLine
 10
2219.912292438077
 20
1835.931380196887
 30
0.0
 11
2219.912292438077
 21
1831.431380196887
 31
0.0
  0
LINE
  5
128
330
1F
100
AcDbEntity
  8
1
  6
Continuous
 62
     7
370
    20
100
AcDbLine
 10
2219.912292438077
 20
1831.431380196887
 30
0.0
 11
2179.912292438077
 21
1831.431380196887
 31
0.0
  0
LINE
  5
129
330
1F
100
AcDbEntity
  8
1
  6
Continuous
 62
     7
370
    20
100
AcDbLine
 10
1319.912292438076
 20
1831.431380196887
 30
0.0
 11
2179.912292438077
 21
1831.431380196887
 31
0.0
  0
LINE
  5
12A
330
1F
100
AcDbEntity
  8
1
  6
Continuous
 62
     7
370
    20
100
AcDbLine
 10
1315.412292438076
 20
1835.931380196887
 30
0.0
 11
2184.412292438077
 21
1835.931380196887
 31
0.0
  0
LINE
  5
12B
330
1F
100
AcDbEntity
  8
1
  6
DOT
 62
     7
370
     9
100
AcDbLine
 10
1809.912292438076
 20
1931.431380196887
 30
0.0
 11
1809.912292438075
 21
1856.431380196887
 31
0.0
  0
LINE
  5
12C
330
1F
100
AcDbEntity
  8
1
  6
DOT
 62
     7
370
     9
100
AcDbLine
 10
1929.912292438077
 20
1856.431380196887
 30
0.0
 11
1929.912292438077
 21
1931.431380196887
 31
0.0
  0
LINE
  5
12D
330
1F
100
AcDbEntity
  8
1
  6
DOT
 62
     7
370
     9
100
AcDbLine
 10
1809.912292438076
 20
1931.431380196887
 30
0.0
 11
1929.912292438077
 21
1856.431380196887
 31
0.0
  0
LINE
  5
12E
330
1F
100
AcDbEntity
  8
1
  6
DOT
 62
     7
370
     9
100
AcDbLine
 10
1929.912292438077
 20
1931.431380196887
 30
0.0
 11
1809.912292438075
 21
1856.431380196887
 31
0.0
  0
LINE
  5
12F
330
1F
100
AcDbEntity
  8
1
  6
DOT
 62
     7
370
     9
100
AcDbLine
 10
1809.912292438075
 20
1856.431380196887
 30
0.0
 11
1929.912292438077
 21
1856.431380196887
 31
0.0
  0
LINE
  5
130
330
1F
100
AcDbEntity
  8
1
  6
DOT
 62
     7
370
     9
100
AcDbLine
 10
1569.912292438076
 20
1931.431380196887
 30
0.0
 11
1569.912292438075
 21
1856.431380196887
 31
0.0
  0
LINE
  5
131
330
1F
100
AcDbEntity
  8
1
  6
DOT
 62
     7
370
     9
100
AcDbLine
 10
1689.912292438075
 20
1856.431380196887
 30
0.0
 11
1689.912292438076
 21
1931.431380196887
 31
0.0
  0
LINE
  5
132
330
1F
100
AcDbEntity
  8
1
  6
DOT
 62
     7
370
     9
100
AcDbLine
 10
1569.912292438076
 20
1931.431380196887
 30
0.0
 11
1689.912292438075
 21
1856.431380196887
 31
0.0
  0
LINE
  5
133
330
1F
100
AcDbEntity
  8
1
  6
DOT
 62
     7
370
     9
100
AcDbLine
 10
1689.912292438076
 20
1931.431380196887
 30
0.0
 11
1569.912292438075
 21
1856.431380196887
 31
0.0
  0
LINE
  5
134
330
1F
100
AcDbEntity
  8
1
  6
DOT
 62
     7
370
     9
100
AcDbLine
 10
1569.912292438075
 20
1856.431380196887
 30
0.0
 11
1689.912292438075
 21
1856.431380196887
 31
0.0
  0
LINE
  5
135
330
1F
100
AcDbEntity
  8
1
  6
Continuous
 62
     7
370
    20
100
AcDbLine
 10
1369.912292438076
 20
1842.680831758842
 30
0.0
 11
1369.912292438076
 21
1822.700698368749
 31
0.0
  0
LINE
  5
136
330
1F
100
AcDbEntity
  8
1
  6
Continuous
 62
     7
370
    20
100
AcDbLine
 10
2129.912292438077
 20
1841.048467919783
 30
0.0
 11
2129.912292438077
 21
1825.377775064807
 31
0.0
  0
LINE
  5
137
330
1F
100
AcDbEntity
  8
1
  6
Continuous
 62
     7
370
    20
100
AcDbLine
 10
2219.912292438077
 20
1931.431380196887
 30
0.0
 11
2219.912292438077
 21
1835.278315088577
 31
0.0
  0
LINE
  5
138
330
1F
100
AcDbEntity
  8
1
  6
Continuous
 62
     7
370
    20
100
AcDbLine
 10
1279.912292438076
 20
1831.431380196887
 30
0.0
 11
1279.912292438075
 21
1926.931380196887
 31
0.0
  0
LINE
  5
139
330
1F
100
AcDbEntity
  8
1
  6
Continuous
 62
     7
370
    20
100
AcDbLine
 10
1424.412292438075
 20
1835.931380196887
 30
0.0
 11
1424.412292438076
 21
1926.931380196887
 31
0.0
  0
LINE
  5
13A
330
1F
100
AcDbEntity
  8
1
  6
Continuous
 62
     7
370
    20
100
AcDbLine
 10
1419.912292438076
 20
1926.931380196887
 30
0.0
 11
1419.912292438075
 21
1835.931380196887
 31
0.0
  0
LINE
  5
13B
330
1F
100
AcDbEntity
  8
1
  6
Continuous
 62
     7
370
    20
100
AcDbLine
 10
2079.912292438077
 20
1835.931380196887
 30
0.0
 11
2079.912292438077
 21
1926.931380196887
 31
0.0
  0
LINE
  5
13C
330
1F
100
AcDbEntity
  8
1
  6
Continuous
 62
     7
370
    20
100
AcDbLine
 10
2075.412292438077
 20
1926.931380196887
 30
0.0
 11
2075.412292438077
 21
1835.931380196887
 31
0.0
  0
LINE
  5
13D
330
1F
100
AcDbEntity
  8
1
  6
Continuous
 62
     7
370
    20
100
AcDbLine
 10
1724.912292438077
 20
1926.931380196887
 30
0.0
 11
1724.912292438077
 21
1835.931380196887
 31
0.0
  0
LINE
  5
13E
330
1F
100
AcDbEntity
  8
1
  6
Continuous
 62
     7
370
    20
100
AcDbLine
 10
1774.912292438077
 20
1926.931380196887
 30
0.0
 11
1774.912292438077
 21
1835.931380196887
 31
0.0
  0
LINE
  5
13F
330
1F
100
AcDbEntity
  8
1
  6
Continuous
 62
     7
370
    20
100
AcDbLine
 10
1524.912292438077
 20
1926.931380196887
 30
0.0
 11
1524.912292438077
 21
1835.931380196887
 31
0.0
  0
LINE
  5
140
330
1F
100
AcDbEntity
  8
1
  6
Continuous
 62
     7
370
    20
100
AcDbLine
 10
1974.912292438076
 20
1926.931380196887
 30
0.0
 11
1974.912292438076
 21
1835.931380196887
 31
0.0
  0
LINE
  5
141
330
1F
100
AcDbEntity
  8
1
  6
Continuous
 62
     7
370
    20
100
AcDbLine
 10
1279.912292438076
 20
1835.931380196887
 30
0.0
 11
1315.412292438076
 21
1835.931380196887
 31
0.0
  0
LINE
  5
142
330
1F
100
AcDbEntity
  8
1
  6
Continuous
 62
     7
370
    20
100
AcDbLine
 10
2219.912292438077
 20
1926.931380196887
 30
0.0
 11
1279.912292438075
 21
1926.931380196887
 31
0.0
  0
LINE
  5
143
330
1F
100
AcDbEntity
  8
1
  6
Continuous
 62
     7
370
    20
100
AcDbLine
 10
2184.412292438077
 20
1835.931380196887
 30
0.0
 11
2219.912292438077
 21
1835.931380196887
 31
0.0
  0
INSERT
  5
148
330
1F
100
AcDbEntity
  8
0
100
AcDbBlockReference
  2
*G18
 10
0.0
 20
0.0
 30
0.0
  0
LINE
  5
149
330
1F
100
AcDbEntity
  8
2
  6
DASHDOT
 62
     4
370
     9
100
AcDbLine
 10
2204.912292438079
 20
1942.677352834123
 30
0.0
 11
2204.912292438079
 21
1922.815895366681
 31
0.0
  0
DIMENSION
  5
154
330
1F
100
AcDbEntity
  8
1
  6
Continuous
 62
     7
370
     9
100
AcDbDimension
  2
Dim1
 10
2219.912292438076
 20
1499.069734961555
 30
0.0
 11
1749.912292438076
 21
1499.069734961555
 31
0.0
 70
   160
  1
<>
 71
     8
 42
-1.0
 73
     0
 74
     0
 75
     0
  3
Standard
100
AcDbAlignedDimension
 13
1279.912292438076
 23
1731.431380196887
 33
0.0
 14
2219.912292438077
 24
1731.431380196887
 34
0.0
100
AcDbRotatedDimension
1001
ACAD
1000
DSTYLE
1002
{
1070
   279
1070
     1
1070
   340
1005
14A
1070
   140
1040
48.0
1070
    40
1040
1.0
1070
   147
1040
0.0
1070
    76
1070
     0
1070
    75
1070
     0
1070
   344
1005
51
1070
   343
1005
51
1070
   173
1070
     1
1070
   289
1070
     2
1070
   288
1070
     1
1070
    77
1070
     1
1070
   172
1070
     1
1070
   174
1070
     0
1070
    74
1070
     0
1070
    73
1070
     0
1070
   284
1070
     8
1070
    78
1070
     8
1070
    42
1040
8.0
1070
    44
1040
8.0
1070
    43
1040
10.0
1070
   271
1070
     2
1070
    41
1040
8.28220944
1002
}
  0
LINE
  5
155
330
1F
100
AcDbEntity
  8
4
  6
Continuous
 62
     6
370
    20
100
AcDbLine
 10
1279.912292438076
 20
1831.431380196887
 30
0.0
 11
1279.912292438076
 21
1731.431380196887
 31
0.0
  0
LINE
  5
156
330
1F
100
AcDbEntity
  8
4
  6
Continuous
 62
     6
370
    20
100
AcDbLine
 10
1279.912292438076
 20
1731.431380196887
 30
0.0
 11
2219.912292438077
 21
1731.431380196887
 31
0.0
  0
LINE
  5
157
330
1F
100
AcDbEntity
  8
4
  6
Continuous
 62
     6
370
    20
100
AcDbLine
 10
2219.912292438077
 20
1731.431380196887
 30
0.0
 11
2219.912292438077
 21
1831.431380196887
 31
0.0
  0
LINE
  5
158
330
1F
100
AcDbEntity
  8
4
  6
Continuous
 62
     6
370
    20
100
AcDbLine
 10
2219.912292438077
 20
1831.431380196887
 30
0.0
 11
1279.912292438076
 21
1831.431380196887
 31
0.0
  0
LINE
  5
159
330
1F
100
AcDbEntity
  8
4
  6
HIDDEN
 62
     6
370
    20
100
AcDbLine
 10
1284.412292438076
 20
1826.931380196887
 30
0.0
 11
1284.412292438076
 21
1735.133853157371
 31
0.0
  0
LINE
  5
15A
330
1F
100
AcDbEntity
  8
4
  6
HIDDEN
 62
     6
370
    20
100
AcDbLine
 10
2215.412292438077
 20
1826.931380196887
 30
0.0
 11
1279.912292438076
 21
1826.931380196887
 31
0.0
  0
LINE
  5
15B
330
1F
100
AcDbEntity
  8
4
  6
HIDDEN
 62
     6
370
    20
100
AcDbLine
 10
2215.412292438077
 20
1735.931380196887
 30
0.0
 11
2215.412292438077
 21
1826.931380196887
 31
0.0
  0
LINE
  5
15C
330
1F
100
AcDbEntity
  8
4
  6
HIDDEN
 62
     6
370
    20
100
AcDbLine
 10
1279.912292438076
 20
1735.931380196887
 30
0.0
 11
2215.412292438077
 21
1735.931380196887
 31
0.0
  0
INSERT
  5
15D
330
1F
100
AcDbEntity
  8
2
  6
Continuous
 62
     4
370
    20
100
AcDbBlockReference
  2
_OPEN
 10
1397.412292438076
 20
1735.247298573855
 30
0.0
 41
32.0
 42
32.0
 43
32.0
 50
40.44654319866681
  0
POLYLINE
  5
15E
330
1F
100
AcDbEntity
  8
2
  6
Continuous
 62
     4
370
    20
100
AcDb2dPolyline
 66
     1
 10
0.0
 20
0.0
 30
0.0
  0
VERTEX
  5
15F
330
15E
100
AcDbEntity
  8
2
  6
Continuous
 62
     4
370
    20
100
AcDbVertex
100
AcDb2dVertex
 10
1397.412292438076
 20
1735.247298573855
 30
0.0
  0
VERTEX
  5
160
330
15E
100
AcDbEntity
  8
2
  6
Continuous
 62
     4
370
    20
100
AcDbVertex
100
AcDb2dVertex
 10
1045.603933404796
 20
1435.341791681007
 30
0.0
  0
VERTEX
  5
161
330
15E
100
AcDbEntity
  8
2
  6
Continuous
 62
     4
370
    20
100
AcDbVertex
100
AcDb2dVertex
 10
949.603933404796
 20
1435.341791681007
 30
0.0
  0
SEQEND
  5
162
330
15E
100
AcDbEntity
  8
2
  6
Continuous
 62
     4
370
    20
  0
MTEXT
  5
163
330
1F
100
AcDbEntity
  8
2
  6
Continuous
 62
     4
370
     9
100
AcDbMText
 10
1045.603933404796
 20
1435.341791681007
 30
0.0
 40
48.0
 41
167.2729565093093
 46
48.0
 71
     9
 72
     1
  1
{\fＭＳ 明朝|b1;\W0.666667;\T0.750000;通線口}
 73
     1
 44
1.0
1001
ACAD
1000
ACAD_MTEXT_DEFINED_HEIGHT_BEGIN
1070
    46
1040
48.0
1000
ACAD_MTEXT_DEFINED_HEIGHT_END
  0
LINE
  5
164
330
1F
100
AcDbEntity
  8
9
  6
Continuous
 62
   190
370
     9
100
AcDbLine
 10
1519.912292438077
 20
1720.254481130833
 30
0.0
 11
1519.912292438077
 21
1750.240116016877
 31
0.0
  0
LINE
  5
165
330
1F
100
AcDbEntity
  8
9
  6
Continuous
 62
   190
370
     9
100
AcDbLine
 10
1374.912292438076
 20
1750.240116016877
 30
0.0
 11
1374.912292438076
 21
1720.254481130833
 31
0.0
  0
LINE
  5
166
330
1F
100
AcDbEntity
  8
9
  6
Continuous
 62
   190
370
     9
100
AcDbLine
 10
1374.912292438076
 20
1720.254481130833
 30
0.0
 11
1519.912292438077
 21
1750.240116016877
 31
0.0
  0
LINE
  5
167
330
1F
100
AcDbEntity
  8
9
  6
Continuous
 62
   190
370
     9
100
AcDbLine
 10
1374.912292438076
 20
1750.240116016877
 30
0.0
 11
1519.912292438077
 21
1720.254481130833
 31
0.0
  0
INSERT
  5
172
330
1F
100
AcDbEntity
  8
0
100
AcDbBlockReference
  2
*G20
 10
0.0
 20
0.0
 30
0.0
  0
LINE
  5
173
330
1F
100
AcDbEntity
  8
1
  6
Continuous
 62
     7
370
    20
100
AcDbLine
 10
2154.912292438076
 20
1745.548467919783
 30
0.0
 11
2154.912292438076
 21
1729.877775064807
 31
0.0
  0
LINE
  5
174
330
1F
100
AcDbEntity
  8
1
  6
Continuous
 62
     7
370
    20
100
AcDbLine
 10
1344.912292438076
 20
1745.548467919783
 30
0.0
 11
1344.912292438076
 21
1729.877775064807
 31
0.0
  0
LINE
  5
175
330
1F
100
AcDbEntity
  8
1
  6
HIDDEN
 62
     7
370
    20
100
AcDbLine
 10
1419.912292438075
 20
1826.931380196887
 30
0.0
 11
1419.912292438076
 21
1735.931380196887
 31
0.0
  0
LINE
  5
176
330
1F
100
AcDbEntity
  8
1
  6
HIDDEN
 62
     7
370
    20
100
AcDbLine
 10
1424.412292438075
 20
1826.931380196887
 30
0.0
 11
1424.412292438076
 21
1735.931380196887
 31
0.0
  0
LINE
  5
177
330
1F
100
AcDbEntity
  8
1
  6
HIDDEN
 62
     7
370
    20
100
AcDbLine
 10
2079.912292438077
 20
1826.931380196887
 30
0.0
 11
2079.912292438077
 21
1735.931380196887
 31
0.0
  0
LINE
  5
178
330
1F
100
AcDbEntity
  8
1
  6
HIDDEN
 62
     7
370
    20
100
AcDbLine
 10
2075.412292438077
 20
1826.931380196887
 30
0.0
 11
2075.412292438077
 21
1735.931380196887
 31
0.0
  0
LINE
  5
179
330
1F
100
AcDbEntity
  8
24
  6
Continuous
 62
   132
370
    20
100
AcDbLine
 10
1765.112292438077
 20
1963.431380196886
 30
0.0
 11
1765.112292438077
 21
1938.431380196887
 31
0.0
  0
INSERT
  5
17A
330
1F
100
AcDbEntity
  8
2
  6
Continuous
 62
     4
370
    20
100
AcDbBlockReference
  2
_OPEN
 10
2154.912292438076
 20
1731.431380196887
 30
0.0
 41
32.0
 42
32.0
 43
32.0
 50
114.5879876308286
  0
POLYLINE
  5
17B
330
1F
100
AcDbEntity
  8
2
  6
Continuous
 62
     4
370
    20
100
AcDb2dPolyline
 66
     1
 10
0.0
 20
0.0
 30
0.0
  0
VERTEX
  5
17C
330
17B
100
AcDbEntity
  8
2
  6
Continuous
 62
     4
370
    20
100
AcDbVertex
100
AcDb2dVertex
 10
2154.912292438076
 20
1731.431380196887
 30
0.0
  0
VERTEX
  5
17D
330
17B
100
AcDbEntity
  8
2
  6
Continuous
 62
     4
370
    20
100
AcDbVertex
100
AcDb2dVertex
 10
2287.720061730075
 20
1441.193301684972
 30
0.0
  0
VERTEX
  5
17E
330
17B
100
AcDbEntity
  8
2
  6
Continuous
 62
     4
370
    20
100
AcDbVertex
100
AcDb2dVertex
 10
2383.720061730075
 20
1441.193301684972
 30
0.0
  0
SEQEND
  5
17F
330
17B
100
AcDbEntity
  8
2
  6
Continuous
 62
     4
370
    20
  0
MTEXT
  5
180
330
1F
100
AcDbEntity
  8
2
  6
Continuous
 62
     4
370
     9
100
AcDbMText
 10
2287.720061730075
 20
1441.193301684972
 30
0.0
 40
48.0
 41
160.5638440456456
 46
48.0
 71
     7
 72
     1
  1
{\fＭＳ 明朝|b1;\W0.666667;\T0.750000;4-Φ20}
 73
     1
 44
1.0
1001
ACAD
1000
ACAD_MTEXT_DEFINED_HEIGHT_BEGIN
1070
    46
1040
48.0
1000
ACAD_MTEXT_DEFINED_HEIGHT_END
  0
LINE
  5
181
330
1F
100
AcDbEntity
  8
9
  6
PHANTOM
 62
   190
370
    20
100
AcDbLine
 10
1705.112292438077
 20
3772.342909151987
 30
0.0
 11
1703.912292438077
 21
3772.342909151987
 31
0.0
  0
DIMENSION
  5
18B
330
1F
100
AcDbEntity
  8
1
  6
Continuous
 62
     7
370
     9
100
AcDbDimension
  2
Dim2
 10
1765.112292438077
 20
3655.450124779451
 30
0.0
 11
1520.112292438078
 21
3655.450124779451
 31
0.0
 70
   160
  1
490
 71
     8
 42
-1.0
 73
     0
 74
     0
 75
     0
  3
Standard
100
AcDbAlignedDimension
 13
1275.112292438081
 23
3769.142909151987
 33
0.0
 14
1765.112292438077
 24
3764.948515874865
 34
0.0
100
AcDbRotatedDimension
1001
ACAD
1000
DSTYLE
1002
{
1070
   279
1070
     1
1070
   340
1005
14A
1070
   140
1040
48.0
1070
    40
1040
1.0
1070
   147
1040
0.0
1070
    76
1070
     0
1070
    75
1070
     0
1070
   344
1005
51
1070
   343
1005
51
1070
   173
1070
     1
1070
   289
1070
     2
1070
   288
1070
     1
1070
    77
1070
     1
1070
   172
1070
     1
1070
   174
1070
     0
1070
    74
1070
     0
1070
    73
1070
     0
1070
   284
1070
     8
1070
    78
1070
     8
1070
    42
1040
8.0
1070
    44
1040
8.0
1070
    43
1040
10.0
1070
   271
1070
     2
1070
    41
1040
8.28220944
1002
}
  0
DIMENSION
  5
194
330
1F
100
AcDbEntity
  8
1
  6
Continuous
 62
     7
370
     9
100
AcDbDimension
  2
Dim3
 10
1771.912292438071
 20
3655.450124779451
 30
0.0
 11
1769.495324437508
 21
3624.959700419621
 31
0.0
 70
   160
  1
7
 71
     5
 42
-1.0
 73
     0
 74
     0
 75
     0
  3
Standard
100
AcDbAlignedDimension
 13
1765.112292438077
 23
3764.948515874865
 33
0.0
 14
1771.912292438071
 24
3769.142909151987
 34
0.0
100
AcDbRotatedDimension
1001
ACAD
1000
DSTYLE
1002
{
1070
   279
1070
     2
1070
   340
1005
14A
1070
   140
1040
48.0
1070
    40
1040
1.0
1070
   147
1040
0.0
1070
    76
1070
     0
1070
    75
1070
     1
1070
   344
1005
51
1070
   343
1005
51
1070
   173
1070
     1
1070
   289
1070
     2
1070
   288
1070
     1
1070
    77
1070
     1
1070
   172
1070
     1
1070
   174
1070
     0
1070
    74
1070
     0
1070
    73
1070
     0
1070
   284
1070
     8
1070
    78
1070
     8
1070
    42
1040
8.0
1070
    44
1040
8.0
1070
    43
1040
10.0
1070
   271
1070
     2
1070
    41
1040
8.28220944
1002
}
  0
DIMENSION
  5
19D
330
1F
100
AcDbEntity
  8
1
  6
Continuous
 62
     7
370
     9
100
AcDbDimension
  2
Dim4
 10
2224.912292438075
 20
3655.450124779451
 30
0.0
 11
1998.412292438072
 21
3655.450124779451
 31
0.0
 70
   160
  1
453
 71
     8
 42
-1.0
 73
     0
 74
     0
 75
     0
  3
Standard
100
AcDbAlignedDimension
 13
1771.912292438071
 23
3769.142909151987
 33
0.0
 14
2224.912292438075
 24
3770.242909151985
 34
0.0
100
AcDbRotatedDimension
1001
ACAD
1000
DSTYLE
1002
{
1070
   279
1070
     1
1070
   340
1005
14A
1070
   140
1040
48.0
1070
    40
1040
1.0
1070
   147
1040
0.0
1070
    76
1070
     0
1070
    75
1070
     1
1070
   344
1005
51
1070
   343
1005
51
1070
   173
1070
     1
1070
   289
1070
     2
1070
   288
1070
     1
1070
    77
1070
     1
1070
   172
1070
     1
1070
   174
1070
     0
1070
    74
1070
     0
1070
    73
1070
     0
1070
   284
1070
     8
1070
    78
1070
     8
1070
    42
1040
8.0
1070
    44
1040
8.0
1070
    43
1040
10.0
1070
   271
1070
     2
1070
    41
1040
8.28220944
1002
}
  0
LINE
  5
19E
330
1F
100
AcDbEntity
  8
2
  6
Continuous
 62
     4
370
    20
100
AcDbLine
 10
1274.912292438077
 20
4270.242909151984
 30
0.0
 11
2224.912292438077
 21
4270.242909151984
 31
0.0
  0
LINE
  5
19F
330
1F
100
AcDbEntity
  8
2
  6
Continuous
 62
     4
370
    20
100
AcDbLine
 10
1274.912292438077
 20
3865.242909151985
 30
0.0
 11
1274.912292438077
 21
4270.242909151984
 31
0.0
  0
LINE
  5
1A0
330
1F
100
AcDbEntity
  8
2
  6
Continuous
 62
     4
370
    20
100
AcDbLine
 10
2224.912292438077
 20
4270.242909151984
 30
0.0
 11
2224.912292438077
 21
3865.242909151985
 31
0.0
  0
LINE
  5
1A1
330
1F
100
AcDbEntity
  8
12
  6
Continuous
 62
    13
370
    20
100
AcDbLine
 10
1274.912292438073
 20
4270.242909151984
 30
0.0
 11
2224.912292438075
 21
4270.242909151984
 31
0.0
  0
LINE
  5
1A2
330
1F
100
AcDbEntity
  8
5
  6
Continuous
 62
    94
370
    20
100
AcDbLine
 10
1405.908015333123
 20
4270.242909151984
 30
0.0
 11
1405.908015333123
 21
4273.442909151985
 31
0.0
  0
LINE
  5
1A3
330
1F
100
AcDbEntity
  8
5
  6
Continuous
 62
    94
370
    20
100
AcDbLine
 10
1405.908015333123
 20
4270.242909151984
 30
0.0
 11
1495.908015333123
 21
4270.242909151984
 31
0.0
  0
LINE
  5
1A4
330
1F
100
AcDbEntity
  8
5
  6
Continuous
 62
    94
370
    20
100
AcDbLine
 10
1495.908015333123
 20
4270.242909151984
 30
0.0
 11
1495.908015333123
 21
4273.442909151985
 31
0.0
  0
LINE
  5
1A5
330
1F
100
AcDbEntity
  8
5
  6
Continuous
 62
    94
370
    20
100
AcDbLine
 10
1495.908015333123
 20
4273.442909151985
 30
0.0
 11
1405.908015333123
 21
4273.442909151985
 31
0.0
  0
LINE
  5
1A6
330
1F
100
AcDbEntity
  8
1
  6
Continuous
 62
     7
370
    20
100
AcDbLine
 10
2109.912292438077
 20
4273.442909151985
 30
0.0
 11
2109.912292438076
 21
4270.242909151984
 31
0.0
  0
LINE
  5
1A7
330
1F
100
AcDbEntity
  8
1
  6
Continuous
 62
     7
370
    20
100
AcDbLine
 10
1759.912292438077
 20
4273.442909151985
 30
0.0
 11
2109.912292438077
 21
4273.442909151985
 31
0.0
  0
LINE
  5
1A8
330
1F
100
AcDbEntity
  8
1
  6
Continuous
 62
     7
370
    20
100
AcDbLine
 10
1759.912292438077
 20
4270.242909151984
 30
0.0
 11
1759.912292438076
 21
4273.442909151985
 31
0.0
  0
INSERT
  5
1A9
330
1F
100
AcDbEntity
  8
20
  6
Continuous
 62
    52
370
    20
100
AcDbBlockReference
  2
_OPEN
 10
1473.558015333123
 20
4270.242909151984
 30
0.0
 41
16.0
 42
16.0
 43
16.0
 50
227.533338993323
  0
POLYLINE
  5
1AA
330
1F
100
AcDbEntity
  8
20
  6
Continuous
 62
    52
370
    20
100
AcDb2dPolyline
 66
     1
 10
0.0
 20
0.0
 30
0.0
  0
VERTEX
  5
1AB
330
1AA
100
AcDbEntity
  8
20
  6
Continuous
 62
    52
370
    20
100
AcDbVertex
100
AcDb2dVertex
 10
1473.558015333123
 20
4270.242909151984
 30
0.0
  0
VERTEX
  5
1AC
330
1AA
100
AcDbEntity
  8
20
  6
Continuous
 62
    52
370
    20
100
AcDbVertex
100
AcDb2dVertex
 10
1595.143109584594
 20
4403.084858830265
 30
0.0
  0
VERTEX
  5
1AD
330
1AA
100
AcDbEntity
  8
20
  6
Continuous
 62
    52
370
    20
100
AcDbVertex
100
AcDb2dVertex
 10
1691.143109584595
 20
4403.084858830265
 30
0.0
  0
SEQEND
  5
1AE
330
1AA
100
AcDbEntity
  8
20
  6
Continuous
 62
    52
370
    20
  0
MTEXT
  5
1AF
330
1F
100
AcDbEntity
  8
20
  6
Continuous
 62
    52
370
     9
100
AcDbMText
 10
1595.143109584594
 20
4403.084858830265
 30
0.0
 40
48.0
 41
169.5927174289489
 46
48.0
 71
     7
 72
     1
  1
{\fＭＳ 明朝|b1;\W0.666667;\T0.750000;排気口}
 73
     1
 44
1.0
1001
ACAD
1000
ACAD_MTEXT_DEFINED_HEIGHT_BEGIN
1070
    46
1040
48.0
1000
ACAD_MTEXT_DEFINED_HEIGHT_END
  0
INSERT
  5
1B0
330
1F
100
AcDbEntity
  8
2
  6
Continuous
 62
     4
370
    20
100
AcDbBlockReference
  2
_OPEN
 10
1933.585435166799
 20
4273.442909151985
 30
0.0
 41
32.0
 42
32.0
 43
32.0
 50
218.1027787238172
  0
POLYLINE
  5
1B1
330
1F
100
AcDbEntity
  8
2
  6
Continuous
 62
     4
370
    20
100
AcDb2dPolyline
 66
     1
 10
0.0
 20
0.0
 30
0.0
  0
VERTEX
  5
1B2
330
1B1
100
AcDbEntity
  8
2
  6
Continuous
 62
     4
370
    20
100
AcDbVertex
100
AcDb2dVertex
 10
1933.585435166799
 20
4273.442909151985
 30
0.0
  0
VERTEX
  5
1B3
330
1B1
100
AcDbEntity
  8
2
  6
Continuous
 62
     4
370
    20
100
AcDbVertex
100
AcDb2dVertex
 10
2108.491888011397
 20
4410.600784802973
 30
0.0
  0
VERTEX
  5
1B4
330
1B1
100
AcDbEntity
  8
2
  6
Continuous
 62
     4
370
    20
100
AcDbVertex
100
AcDb2dVertex
 10
2325.523808504111
 20
4410.600784802973
 30
0.0
  0
SEQEND
  5
1B5
330
1B1
100
AcDbEntity
  8
2
  6
Continuous
 62
     4
370
    20
  0
MTEXT
  5
1B6
330
1F
100
AcDbEntity
  8
2
  6
Continuous
 62
     4
370
     9
100
AcDbMText
 10
2101.523808504111
 20
4410.600784802973
 30
0.0
 40
48.0
 41
395.3372947656455
 46
48.0
 71
     7
 72
     1
  1
{\fＭＳ 明朝|b1;\W0.666667;\T0.750000;メンテナンス口}
 73
     1
 44
1.0
1001
ACAD
1000
ACAD_MTEXT_DEFINED_HEIGHT_BEGIN
1070
    46
1040
48.0
1000
ACAD_MTEXT_DEFINED_HEIGHT_END
  0
LINE
  5
1B7
330
1F
100
AcDbEntity
  8
1
  6
Continuous
 62
     7
370
    20
100
AcDbLine
 10
1467.970305314324
 20
4335.614206985265
 30
0.0
 11
1464.805659284913
 21
4323.803587215531
 31
0.0
  0
LINE
  5
1B8
330
1F
100
AcDbEntity
  8
1
  6
Continuous
 62
     7
370
    20
100
AcDbLine
 10
1472.383962529311
 20
4323.967056001271
 30
0.0
 11
1467.970305314324
 21
4335.614206985265
 31
0.0
  0
LINE
  5
1B9
330
1F
100
AcDbEntity
  8
1
  6
Continuous
 62
     7
370
    20
100
AcDbLine
 10
1467.970305314323
 20
4293.405022454879
 30
0.0
 11
1467.970305314324
 21
4335.614206985265
 31
0.0
  0
LINE
  5
1BA
330
1F
100
AcDbEntity
  8
1
  6
Continuous
 62
     7
370
    20
100
AcDbLine
 10
1434.224217858068
 20
4335.123800628044
 30
0.0
 11
1431.059571828656
 21
4323.313180858309
 31
0.0
  0
LINE
  5
1BB
330
1F
100
AcDbEntity
  8
1
  6
Continuous
 62
     7
370
    20
100
AcDbLine
 10
1438.637875073055
 20
4323.47664964405
 30
0.0
 11
1434.224217858068
 21
4335.123800628044
 31
0.0
  0
LINE
  5
1BC
330
1F
100
AcDbEntity
  8
1
  6
Continuous
 62
     7
370
    20
100
AcDbLine
 10
1434.224217858069
 20
4292.914616097658
 30
0.0
 11
1434.224217858068
 21
4335.123800628044
 31
0.0
  0
LINE
  5
1BD
330
1F
100
AcDbEntity
  8
12
  6
Continuous
 62
    13
370
    20
100
AcDbLine
 10
1274.912292438075
 20
3770.242909151985
 30
0.0
 11
1274.912292438075
 21
4270.242909151984
 31
0.0
  0
LINE
  5
1BE
330
1F
100
AcDbEntity
  8
12
  6
Continuous
 62
    13
370
    20
100
AcDbLine
 10
2224.912292438073
 20
4270.242909151984
 30
0.0
 11
2224.912292438075
 21
3770.242909151985
 31
0.0
  0
LINE
  5
1BF
330
1F
100
AcDbEntity
  8
12
  6
Continuous
 62
    13
370
    20
100
AcDbLine
 10
2224.912292438075
 20
3770.242909151985
 30
0.0
 11
1274.912292438075
 21
3770.242909151985
 31
0.0
  0
DIMENSION
  5
1C9
330
1F
100
AcDbEntity
  8
1
  6
Continuous
 62
     7
370
     9
100
AcDbDimension
  2
Dim5
 10
1200.381267806269
 20
1831.431380196887
 30
0.0
 11
1200.381267806269
 21
1881.431380196888
 31
0.0
 70
   160
  1
<>
 71
     8
 42
-1.0
 73
     0
 74
     0
 75
     0
 53
89.99999999999991
  3
Standard
100
AcDbAlignedDimension
 13
1274.912292438077
 23
1931.431380196887
 33
0.0
 14
1279.912292438076
 24
1831.431380196887
 34
0.0
 50
-89.99999999999991
100
AcDbRotatedDimension
1001
ACAD
1000
DSTYLE
1002
{
1070
   279
1070
     1
1070
   340
1005
14A
1070
   140
1040
48.0
1070
    40
1040
1.0
1070
   147
1040
0.0
1070
    76
1070
     0
1070
    75
1070
     0
1070
   344
1005
51
1070
   343
1005
51
1070
   173
1070
     1
1070
   289
1070
     2
1070
   288
1070
     1
1070
    77
1070
     1
1070
   172
1070
     1
1070
   174
1070
     0
1070
    74
1070
     0
1070
    73
1070
     0
1070
   284
1070
     8
1070
    78
1070
     8
1070
    42
1040
8.0
1070
    44
1040
8.0
1070
    43
1040
10.0
1070
   271
1070
     2
1070
    41
1040
8.28220944
1002
}
  0
LINE
  5
1CA
330
1F
100
AcDbEntity
  8
1
  6
Continuous
 62
     7
370
    20
100
AcDbLine
 10
2413.351124744892
 20
1831.431380196887
 30
0.0
 11
2413.351124744892
 21
1835.931380196887
 31
0.0
  0
LINE
  5
1CB
330
1F
100
AcDbEntity
  8
1
  6
Continuous
 62
     7
370
    20
100
AcDbLine
 10
2453.351124744892
 20
1831.431380196887
 30
0.0
 11
2413.351124744892
 21
1831.431380196887
 31
0.0
  0
LINE
  5
1CC
330
1F
100
AcDbEntity
  8
1
  6
Continuous
 62
     7
370
    20
100
AcDbLine
 10
2413.351124744892
 20
1835.931380196887
 30
0.0
 11
2448.851124744892
 21
1835.931380196887
 31
0.0
  0
LINE
  5
1CD
330
1F
100
AcDbEntity
  8
1
  6
Continuous
 62
     7
370
    20
100
AcDbLine
 10
2429.351124744892
 20
1842.680831758842
 30
0.0
 11
2429.351124744892
 21
1822.700698368749
 31
0.0
  0
LINE
  5
1CE
330
1F
100
AcDbEntity
  8
1
  6
Continuous
 62
     7
370
    20
100
AcDbLine
 10
2413.351124744892
 20
1835.931380196887
 30
0.0
 11
2413.351124744892
 21
1931.431380196887
 31
0.0
  0
LINE
  5
1CF
330
1F
100
AcDbEntity
  8
1
  6
Continuous
 62
     7
370
    20
100
AcDbLine
 10
2448.851124744892
 20
1835.931380196887
 30
0.0
 11
2448.851124744892
 21
1926.931380196887
 31
0.0
  0
LINE
  5
1D0
330
1F
100
AcDbEntity
  8
1
  6
Continuous
 62
     7
370
    20
100
AcDbLine
 10
2453.351124744892
 20
1926.931380196887
 30
0.0
 11
2453.351124744892
 21
1831.431380196887
 31
0.0
  0
LINE
  5
1D1
330
1F
100
AcDbEntity
  8
2
  6
Continuous
 62
     4
370
    20
100
AcDbLine
 10
2493.351124744892
 20
1931.431380196887
 30
0.0
 11
2438.351124744892
 21
1931.431380196887
 31
0.0
  0
LINE
  5
1D2
330
1F
100
AcDbEntity
  8
2
  6
Continuous
 62
     4
370
    20
100
AcDbLine
 10
2438.351124744892
 20
1983.231380196888
 30
0.0
 11
2438.351124744892
 21
1931.431380196887
 31
0.0
  0
INSERT
  5
1D7
330
1F
100
AcDbEntity
  8
0
100
AcDbBlockReference
  2
*G25
 10
0.0
 20
0.0
 30
0.0
  0
LINE
  5
1D8
330
1F
100
AcDbEntity
  8
3
  6
Continuous
 62
     3
370
    20
100
AcDbLine
 10
2433.251124744893
 20
1938.130901110722
 30
0.0
 11
2433.251124744893
 21
1953.130901110722
 31
0.0
  0
LINE
  5
1D9
330
1F
100
AcDbEntity
  8
1
  6
Continuous
 62
     7
370
    20
100
AcDbLine
 10
2483.351124744892
 20
1742.680831758842
 30
0.0
 11
2483.351124744892
 21
1722.700698368749
 31
0.0
  0
LINE
  5
1DA
330
1F
100
AcDbEntity
  8
4
  6
HIDDEN
 62
     6
370
     9
100
AcDbLine
 10
2453.351124744892
 20
1831.431380196887
 30
0.0
 11
2453.351124744892
 21
1735.931380196887
 31
0.0
  0
LINE
  5
1DB
330
1F
100
AcDbEntity
  8
1
  6
Continuous
 62
     7
370
    20
100
AcDbLine
 10
2775.851124744892
 20
1926.931380196887
 30
0.0
 11
2775.851124744892
 21
1835.931380196887
 31
0.0
  0
LINE
  5
1DC
330
1F
100
AcDbEntity
  8
1
  6
Continuous
 62
     7
370
    20
100
AcDbLine
 10
2888.351124744892
 20
1835.931380196888
 30
0.0
 11
2888.351124744892
 21
1831.431380196888
 31
0.0
  0
LINE
  5
1DD
330
1F
100
AcDbEntity
  8
1
  6
Continuous
 62
     7
370
    20
100
AcDbLine
 10
2852.851124744892
 20
1835.931380196888
 30
0.0
 11
2888.351124744892
 21
1835.931380196888
 31
0.0
  0
LINE
  5
1DE
330
1F
100
AcDbEntity
  8
1
  6
Continuous
 62
     7
370
    20
100
AcDbLine
 10
2888.351124744892
 20
1831.431380196888
 30
0.0
 11
2848.351124744892
 21
1831.431380196888
 31
0.0
  0
LINE
  5
1DF
330
1F
100
AcDbEntity
  8
1
  6
Continuous
 62
     7
370
    20
100
AcDbLine
 10
2503.351124744892
 20
1831.431380196887
 30
0.0
 11
2848.351124744892
 21
1831.431380196888
 31
0.0
  0
LINE
  5
1E0
330
1F
100
AcDbEntity
  8
1
  6
Continuous
 62
     7
370
    20
100
AcDbLine
 10
2872.351124744892
 20
1841.048467919783
 30
0.0
 11
2872.351124744892
 21
1825.377775064808
 31
0.0
  0
LINE
  5
1E1
330
1F
100
AcDbEntity
  8
1
  6
Continuous
 62
     7
370
    20
100
AcDbLine
 10
2888.351124744892
 20
1931.431380196888
 30
0.0
 11
2888.351124744892
 21
1831.967861582637
 31
0.0
  0
LINE
  5
1E2
330
1F
100
AcDbEntity
  8
1
  6
Continuous
 62
     7
370
    20
100
AcDbLine
 10
2852.851124744892
 20
1835.931380196888
 30
0.0
 11
2852.851124744892
 21
1926.931380196888
 31
0.0
  0
LINE
  5
1E3
330
1F
100
AcDbEntity
  8
1
  6
Continuous
 62
     7
370
    20
100
AcDbLine
 10
2848.351124744892
 20
1926.931380196888
 30
0.0
 11
2848.351124744892
 21
1831.431380196888
 31
0.0
  0
LINE
  5
1E4
330
1F
100
AcDbEntity
  8
13
  6
DOT
 62
    91
370
    20
100
AcDbLine
 10
2753.851124744885
 20
1926.931380196889
 30
0.0
 11
2753.851124744885
 21
1931.431380196887
 31
0.0
  0
LINE
  5
1E5
330
1F
100
AcDbEntity
  8
2
  6
Continuous
 62
     4
370
    20
100
AcDbLine
 10
2543.351124744892
 20
1931.431380196887
 30
0.0
 11
2888.87242820339
 21
1931.431380196887
 31
0.0
  0
LINE
  5
1E6
330
1F
100
AcDbEntity
  8
13
  6
DOT
 62
    91
370
    20
100
AcDbLine
 10
2768.851124744885
 20
1926.931380196889
 30
0.0
 11
2768.851124744885
 21
1931.431380196887
 31
0.0
  0
LINE
  5
1E7
330
1F
100
AcDbEntity
  8
4
  6
Continuous
 62
     6
370
    20
100
AcDbLine
 10
2888.351124744892
 20
1731.431380196887
 30
0.0
 11
2888.351124744892
 21
1831.431380196887
 31
0.0
  0
LINE
  5
1E8
330
1F
100
AcDbEntity
  8
4
  6
HIDDEN
 62
     6
370
    20
100
AcDbLine
 10
2883.851124744892
 20
1735.931380196887
 30
0.0
 11
2883.851124744892
 21
1826.931380196887
 31
0.0
  0
LINE
  5
1E9
330
1F
100
AcDbEntity
  8
1
  6
Continuous
 62
     7
370
    20
100
AcDbLine
 10
2818.351124744892
 20
1742.680831758842
 30
0.0
 11
2818.351124744892
 21
1722.700698368749
 31
0.0
  0
LINE
  5
1EA
330
1F
100
AcDbEntity
  8
4
  6
HIDDEN
 62
     6
370
     9
100
AcDbLine
 10
2848.351124744892
 20
1831.431380196887
 30
0.0
 11
2848.351124744892
 21
1735.931380196887
 31
0.0
  0
INSERT
  5
1EB
330
1F
100
AcDbEntity
  8
2
  6
Continuous
 62
     4
370
    20
100
AcDbBlockReference
  2
_OPEN
 10
2814.754378306348
 20
1773.309215695997
 30
0.0
 41
32.0
 42
32.0
 43
32.0
 50
134.9114745554866
  0
POLYLINE
  5
1EC
330
1F
100
AcDbEntity
  8
2
  6
Continuous
 62
     4
370
    20
100
AcDb2dPolyline
 66
     1
 10
0.0
 20
0.0
 30
0.0
  0
VERTEX
  5
1ED
330
1EC
100
AcDbEntity
  8
2
  6
Continuous
 62
     4
370
    20
100
AcDbVertex
100
AcDb2dVertex
 10
2814.754378306348
 20
1773.309215695997
 30
0.0
  0
VERTEX
  5
1EE
330
1EC
100
AcDbEntity
  8
2
  6
Continuous
 62
     4
370
    20
100
AcDbVertex
100
AcDb2dVertex
 10
2965.707889832569
 20
1621.888517356624
 30
0.0
  0
VERTEX
  5
1EF
330
1EC
100
AcDbEntity
  8
2
  6
Continuous
 62
     4
370
    20
100
AcDbVertex
100
AcDb2dVertex
 10
3125.707889832569
 20
1621.888517356624
 30
0.0
  0
SEQEND
  5
1F0
330
1EC
100
AcDbEntity
  8
2
  6
Continuous
 62
     4
370
    20
  0
MTEXT
  5
1F1
330
1F
100
AcDbEntity
  8
2
  6
Continuous
 62
     4
370
     9
100
AcDbMText
 10
2965.707889832569
 20
1621.888517356624
 30
0.0
 40
48.0
 41
289.1058902986186
 46
48.0
 71
     7
 72
     1
  1
{\fＭＳ 明朝|b1;\W0.666667;\T0.750000;スペーサー}
 73
     1
 44
1.0
1001
ACAD
1000
ACAD_MTEXT_DEFINED_HEIGHT_BEGIN
1070
    46
1040
48.0
1000
ACAD_MTEXT_DEFINED_HEIGHT_END
  0
MTEXT
  5
1F2
330
1F
100
AcDbEntity
  8
2
  6
Continuous
 62
     4
370
     9
100
AcDbMText
 10
2965.707889832569
 20
1621.888517356624
 30
0.0
 40
48.0
 41
293.563470104985
 46
48.0
 71
     1
 72
     1
  1
{\fＭＳ 明朝|b1;\W0.666667;\T0.750000;補助ベッド}
 73
     1
 44
1.0
1001
ACAD
1000
ACAD_MTEXT_DEFINED_HEIGHT_BEGIN
1070
    46
1040
48.0
1000
ACAD_MTEXT_DEFINED_HEIGHT_END
  0
LINE
  5
1F3
330
1F
100
AcDbEntity
  8
4
  6
Continuous
 62
     6
370
    20
100
AcDbLine
 10
2888.351124744892
 20
1831.431380196887
 30
0.0
 11
2413.351124744892
 21
1831.431380196887
 31
0.0
  0
LINE
  5
1F4
330
1F
100
AcDbEntity
  8
4
  6
HIDDEN
 62
     6
370
    20
100
AcDbLine
 10
2883.851124744892
 20
1826.931380196887
 30
0.0
 11
2417.851124744892
 21
1826.931380196887
 31
0.0
  0
LINE
  5
1F5
330
1F
100
AcDbEntity
  8
4
  6
HIDDEN
 62
     6
370
    20
100
AcDbLine
 10
2417.851124744892
 20
1826.931380196887
 30
0.0
 11
2417.851124744892
 21
1735.931380196887
 31
0.0
  0
LINE
  5
1F6
330
1F
100
AcDbEntity
  8
4
  6
HIDDEN
 62
     6
370
    20
100
AcDbLine
 10
2417.851124744892
 20
1735.931380196887
 30
0.0
 11
2883.851124744892
 21
1735.931380196887
 31
0.0
  0
LINE
  5
1F7
330
1F
100
AcDbEntity
  8
4
  6
Continuous
 62
     6
370
    20
100
AcDbLine
 10
2413.351124744892
 20
1731.431380196887
 30
0.0
 11
2888.351124744892
 21
1731.431380196887
 31
0.0
  0
LINE
  5
1F8
330
1F
100
AcDbEntity
  8
4
  6
Continuous
 62
     6
370
    20
100
AcDbLine
 10
2413.351124744892
 20
1831.431380196887
 30
0.0
 11
2413.351124744892
 21
1731.431380196887
 31
0.0
  0
DIMENSION
  5
202
330
1F
100
AcDbEntity
  8
1
  6
Continuous
 62
     7
370
     9
100
AcDbDimension
  2
Dim6
 10
2888.351124744892
 20
1501.018509572831
 30
0.0
 11
2650.851124744892
 21
1501.018509572832
 31
0.0
 70
   160
  1
<>
 71
     8
 42
-1.0
 73
     0
 74
     0
 75
     0
  3
Standard
100
AcDbAlignedDimension
 13
2413.351124744892
 23
1731.431380196887
 33
0.0
 14
2888.351124744892
 24
1731.431380196888
 34
0.0
 50
-0.0000000000000549
100
AcDbRotatedDimension
1001
ACAD
1000
DSTYLE
1002
{
1070
   279
1070
     1
1070
   340
1005
14A
1070
   140
1040
48.0
1070
    40
1040
1.0
1070
   147
1040
0.0
1070
    76
1070
     0
1070
    75
1070
     0
1070
   344
1005
51
1070
   343
1005
51
1070
   173
1070
     1
1070
   289
1070
     2
1070
   288
1070
     1
1070
    77
1070
     1
1070
   172
1070
     1
1070
   174
1070
     0
1070
    74
1070
     0
1070
    73
1070
     0
1070
   284
1070
     8
1070
    78
1070
     8
1070
    42
1040
8.0
1070
    44
1040
8.0
1070
    43
1040
10.0
1070
   271
1070
     2
1070
    41
1040
8.28220944
1002
}
  0
DIMENSION
  5
20C
330
1F
100
AcDbEntity
  8
1
  6
Continuous
 62
     7
370
     9
100
AcDbDimension
  2
Dim7
 10
2483.351124744892
 20
1584.257326111735
 30
0.0
 11
2448.351124744892
 21
1584.257326111735
 31
0.0
 70
   160
  1
70
 71
     8
 42
-1.0
 73
     0
 74
     0
 75
     0
  3
Standard
100
AcDbAlignedDimension
 13
2413.351124744892
 23
1731.431380196887
 33
0.0
 14
2483.351124744892
 24
1722.700698368749
 34
0.0
100
AcDbRotatedDimension
1001
ACAD
1000
DSTYLE
1002
{
1070
   279
1070
     1
1070
   340
1005
14A
1070
   140
1040
48.0
1070
    40
1040
1.0
1070
   147
1040
0.0
1070
    76
1070
     0
1070
    75
1070
     0
1070
   344
1005
51
1070
   343
1005
51
1070
   173
1070
     1
1070
   289
1070
     2
1070
   288
1070
     1
1070
    77
1070
     1
1070
   172
1070
     1
1070
   174
1070
     0
1070
    74
1070
     0
1070
    73
1070
     0
1070
   284
1070
     8
1070
    78
1070
     8
1070
    42
1040
8.0
1070
    44
1040
8.0
1070
    43
1040
10.0
1070
   271
1070
     2
1070
    41
1040
8.28220944
1002
}
  0
DIMENSION
  5
214
330
1F
100
AcDbEntity
  8
1
  6
Continuous
 62
     7
370
     9
100
AcDbDimension
  2
Dim8
 10
2818.351124744892
 20
1584.257326111735
 30
0.0
 11
2650.851124744892
 21
1584.257326111735
 31
0.0
 70
   160
  1
335
 71
     8
 42
-1.0
 73
     0
 74
     0
 75
     0
  3
Standard
100
AcDbAlignedDimension
 13
2483.351124744892
 23
1722.700698368749
 33
0.0
 14
2818.351124744892
 24
1725.377775064808
 34
0.0
100
AcDbRotatedDimension
1001
ACAD
1000
DSTYLE
1002
{
1070
   279
1070
     1
1070
   340
1005
14A
1070
   140
1040
48.0
1070
    40
1040
1.0
1070
   147
1040
0.0
1070
    76
1070
     0
1070
    75
1070
     1
1070
   344
1005
51
1070
   343
1005
7E
1070
   173
1070
     1
1070
   289
1070
     2
1070
   288
1070
     1
1070
    77
1070
     1
1070
   172
1070
     1
1070
   174
1070
     0
1070
    74
1070
     0
1070
    73
1070
     0
1070
   284
1070
     8
1070
    78
1070
     8
1070
    42
1040
8.0
1070
    44
1040
8.0
1070
    43
1040
10.0
1070
   271
1070
     2
1070
    41
1040
8.28220944
1002
}
  0
DIMENSION
  5
21C
330
1F
100
AcDbEntity
  8
1
  6
Continuous
 62
     7
370
     9
100
AcDbDimension
  2
Dim9
 10
2888.351124744892
 20
1584.257326111735
 30
0.0
 11
2853.351124744892
 21
1584.257326111735
 31
0.0
 70
   160
  1
70
 71
     8
 42
-1.0
 73
     0
 74
     0
 75
     0
  3
Standard
100
AcDbAlignedDimension
 13
2818.351124744892
 23
1725.377775064808
 33
0.0
 14
2888.351124744892
 24
1700.253754793123
 34
0.0
100
AcDbRotatedDimension
1001
ACAD
1000
DSTYLE
1002
{
1070
   279
1070
     1
1070
   340
1005
14A
1070
   140
1040
48.0
1070
    40
1040
1.0
1070
   147
1040
0.0
1070
    76
1070
     0
1070
    75
1070
     1
1070
   344
1005
51
1070
   343
1005
7E
1070
   173
1070
     1
1070
   289
1070
     2
1070
   288
1070
     1
1070
    77
1070
     1
1070
   172
1070
     1
1070
   174
1070
     0
1070
    74
1070
     0
1070
    73
1070
     0
1070
   284
1070
     8
1070
    78
1070
     8
1070
    42
1040
8.0
1070
    44
1040
8.0
1070
    43
1040
10.0
1070
   271
1070
     2
1070
    41
1040
8.28220944
1002
}
  0
INSERT
  5
21D
330
1F
100
AcDbEntity
  8
2
  6
Continuous
 62
     4
370
    20
100
AcDbBlockReference
  2
_OPEN
 10
2896.551124744893
 20
2106.026699004606
 30
0.0
 41
32.0
 42
32.0
 43
32.0
 50
119.7393549286385
  0
POLYLINE
  5
21E
330
1F
100
AcDbEntity
  8
2
  6
Continuous
 62
     4
370
    20
100
AcDb2dPolyline
 66
     1
 10
0.0
 20
0.0
 30
0.0
  0
VERTEX
  5
21F
330
21E
100
AcDbEntity
  8
2
  6
Continuous
 62
     4
370
    20
100
AcDbVertex
100
AcDb2dVertex
 10
2896.551124744893
 20
2106.026699004606
 30
0.0
  0
VERTEX
  5
220
330
21E
100
AcDbEntity
  8
2
  6
Continuous
 62
     4
370
    20
100
AcDbVertex
100
AcDb2dVertex
 10
2990.20282346954
 20
1942.099523407546
 30
0.0
  0
VERTEX
  5
221
330
21E
100
AcDbEntity
  8
2
  6
Continuous
 62
     4
370
    20
100
AcDbVertex
100
AcDb2dVertex
 10
3214.20282346954
 20
1942.099523407546
 30
0.0
  0
SEQEND
  5
222
330
21E
100
AcDbEntity
  8
2
  6
Continuous
 62
     4
370
    20
  0
MTEXT
  5
223
330
1F
100
AcDbEntity
  8
2
  6
Continuous
 62
     4
370
     9
100
AcDbMText
 10
2990.20282346954
 20
1942.099523407546
 30
0.0
 40
48.0
 41
395.3372947656455
 46
48.0
 71
     7
 72
     1
  1
{\fＭＳ 明朝|b1;\W0.666667;\T0.750000;メンテナンス口}
 73
     1
 44
1.0
1001
ACAD
1000
ACAD_MTEXT_DEFINED_HEIGHT_BEGIN
1070
    46
1040
48.0
1000
ACAD_MTEXT_DEFINED_HEIGHT_END
  0
LINE
  5
224
330
1F
100
AcDbEntity
  8
1
  6
Continuous
 62
     7
370
    20
100
AcDbLine
 10
2888.351124744892
 20
1926.931380196888
 30
0.0
 11
2413.351124744892
 21
1926.931380196888
 31
0.0
  0
LINE
  5
225
330
1F
100
AcDbEntity
  8
1
  6
Continuous
 62
     7
370
    20
100
AcDbLine
 10
2413.351124744892
 20
1931.431380196887
 30
0.0
 11
2888.351124744892
 21
1931.431380196888
 31
0.0
  0
LINE
  5
226
330
1F
100
AcDbEntity
  8
2
  6
DASHDOT
 62
     4
370
    20
100
AcDbLine
 10
1826.712292438075
 20
2407.431211543199
 30
0.0
 11
1876.712292438075
 21
2407.431211543199
 31
0.0
  0
ARC
  5
227
330
1F
100
AcDbEntity
  8
2
  6
Continuous
 62
     4
370
    20
100
AcDbCircle
 10
1851.712292438075
 20
2407.431211543199
 30
0.0
 40
13.24999999999999
100
AcDbArc
 50
0.0
 51
179.9999999999998
  0
LINE
  5
228
330
1F
100
AcDbEntity
  8
2
  6
Continuous
 62
     4
370
    20
100
AcDbLine
 10
1838.462292438075
 20
2407.431211543199
 30
0.0
 11
1838.462292438075
 21
2312.2312115432
 31
0.0
  0
LINE
  5
229
330
1F
100
AcDbEntity
  8
2
  6
Continuous
 62
     4
370
    20
100
AcDbLine
 10
1842.462292438075
 20
2308.2312115432
 30
0.0
 11
1860.962292438075
 21
2308.2312115432
 31
0.0
  0
LINE
  5
22A
330
1F
100
AcDbEntity
  8
2
  6
Continuous
 62
     4
370
    20
100
AcDbLine
 10
1864.962292438075
 20
2312.2312115432
 30
0.0
 11
1864.962292438075
 21
2407.431211543199
 31
0.0
  0
ARC
  5
22B
330
1F
100
AcDbEntity
  8
2
  6
Continuous
 62
     4
370
    20
100
AcDbCircle
 10
1860.962292438075
 20
2312.2312115432
 30
0.0
 40
4.0
100
AcDbArc
 50
269.9999999999998
 51
0.0
  0
ARC
  5
22C
330
1F
100
AcDbEntity
  8
2
  6
Continuous
 62
     4
370
    20
100
AcDbCircle
 10
1842.462292438075
 20
2312.2312115432
 30
0.0
 40
4.0
100
AcDbArc
 50
179.9999999999998
 51
269.9999999999998
  0
ARC
  5
22D
330
1F
100
AcDbEntity
  8
2
  6
Continuous
 62
     4
370
    20
100
AcDbCircle
 10
1851.712292438075
 20
2407.431211543199
 30
0.0
 40
13.7
100
AcDbArc
 50
0.0
 51
179.9999999999998
  0
ARC
  5
22E
330
1F
100
AcDbEntity
  8
2
  6
Continuous
 62
     4
370
    20
100
AcDbCircle
 10
1850.890498438074
 20
2279.9312115432
 30
0.0
 40
0.5
100
AcDbArc
 50
188.1545630000596
 51
269.9999999999998
  0
ARC
  5
22F
330
1F
100
AcDbEntity
  8
2
  6
Continuous
 62
     4
370
    20
100
AcDbCircle
 10
1852.534087438075
 20
2279.9312115432
 30
0.0
 40
0.5
100
AcDbArc
 50
269.9999999999998
 51
351.8454369999693
  0
ARC
  5
230
330
1F
100
AcDbEntity
  8
2
  6
Continuous
 62
     4
370
    20
100
AcDbCircle
 10
1852.534087438075
 20
2284.931211543199
 30
0.0
 40
0.5
100
AcDbArc
 50
8.154563000030414
 51
89.99999999999991
  0
ARC
  5
231
330
1F
100
AcDbEntity
  8
2
  6
Continuous
 62
     4
370
    20
100
AcDbCircle
 10
1850.890498438074
 20
2284.931211543199
 30
0.0
 40
0.5
100
AcDbArc
 50
89.99999999999991
 51
171.84543699994
  0
ARC
  5
232
330
1F
100
AcDbEntity
  8
2
  6
Continuous
 62
     4
370
    20
100
AcDbCircle
 10
1835.087292438075
 20
2282.4312115432
 30
0.0
 40
18.125
100
AcDbArc
 50
351.8454369999988
 51
8.154562999999426
  0
ARC
  5
233
330
1F
100
AcDbEntity
  8
2
  6
Continuous
 62
     4
370
    20
100
AcDbCircle
 10
1868.337292438075
 20
2282.4312115432
 30
0.0
 40
18.125
100
AcDbArc
 50
171.8454370000006
 51
188.1545630000005
  0
LINE
  5
234
330
1F
100
AcDbEntity
  8
2
  6
Continuous
 62
     4
370
    20
100
AcDbLine
 10
1852.534087438075
 20
2279.4312115432
 30
0.0
 11
1850.890498438074
 21
2279.4312115432
 31
0.0
  0
LINE
  5
235
330
1F
100
AcDbEntity
  8
2
  6
Continuous
 62
     4
370
    20
100
AcDbLine
 10
1852.534087438075
 20
2285.431211543199
 30
0.0
 11
1850.890498438074
 21
2285.431211543199
 31
0.0
  0
CIRCLE
  5
236
330
1F
100
AcDbEntity
  8
2
  6
Continuous
 62
     4
370
    20
100
AcDbCircle
 10
1851.712292438075
 20
2282.4312115432
 30
0.0
 40
6.999999999999986
  0
LINE
  5
237
330
1F
100
AcDbEntity
  8
2
  6
DASHDOT
 62
     4
370
    20
100
AcDbLine
 10
1866.712292438075
 20
2282.4312115432
 30
0.0
 11
1836.712292438075
 21
2282.4312115432
 31
0.0
  0
LINE
  5
238
330
1F
100
AcDbEntity
  8
2
  6
Continuous
 62
     4
370
    20
100
AcDbLine
 10
1865.412292438074
 20
2407.431211543199
 30
0.0
 11
1865.412292438074
 21
2311.431211543199
 31
0.0
  0
ARC
  5
239
330
1F
100
AcDbEntity
  8
2
  6
Continuous
 62
     4
370
    20
100
AcDbCircle
 10
1833.212292438075
 20
2268.9312115432
 30
0.0
 40
1.5
100
AcDbArc
 50
179.9999999999998
 51
269.9999999999998
  0
ARC
  5
23A
330
1F
100
AcDbEntity
  8
2
  6
Continuous
 62
     4
370
    20
100
AcDbCircle
 10
1870.212292438075
 20
2268.9312115432
 30
0.0
 40
1.5
100
AcDbArc
 50
269.9999999999998
 51
0.0
  0
ARC
  5
23B
330
1F
100
AcDbEntity
  8
2
  6
Continuous
 62
     4
370
    20
100
AcDbCircle
 10
1870.212292438075
 20
2425.931211543199
 30
0.0
 40
1.5
100
AcDbArc
 50
0.0
 51
89.99999999999991
  0
ARC
  5
23C
330
1F
100
AcDbEntity
  8
2
  6
Continuous
 62
     4
370
    20
100
AcDbCircle
 10
1833.212292438075
 20
2425.931211543199
 30
0.0
 40
1.5
100
AcDbArc
 50
89.99999999999991
 51
179.9999999999998
  0
LINE
  5
23D
330
1F
100
AcDbEntity
  8
2
  6
Continuous
 62
     4
370
    20
100
AcDbLine
 10
1835.712292438075
 20
2425.431211543199
 30
0.0
 11
1832.312292438074
 21
2427.131211543199
 31
0.0
  0
LINE
  5
23E
330
1F
100
AcDbEntity
  8
2
  6
Continuous
 62
     4
370
    20
100
AcDbLine
 10
1835.712292438075
 20
2269.4312115432
 30
0.0
 11
1832.312292438074
 21
2267.7312115432
 31
0.0
  0
LINE
  5
23F
330
1F
100
AcDbEntity
  8
2
  6
Continuous
 62
     4
370
    20
100
AcDbLine
 10
1835.712292438075
 20
2425.431211543199
 30
0.0
 11
1835.712292438075
 21
2269.4312115432
 31
0.0
  0
LINE
  5
240
330
1F
100
AcDbEntity
  8
2
  6
Continuous
 62
     4
370
    20
100
AcDbLine
 10
1867.712292438075
 20
2269.4312115432
 30
0.0
 11
1871.112292438075
 21
2267.7312115432
 31
0.0
  0
LINE
  5
241
330
1F
100
AcDbEntity
  8
2
  6
Continuous
 62
     4
370
    20
100
AcDbLine
 10
1867.712292438075
 20
2425.431211543199
 30
0.0
 11
1871.112292438075
 21
2427.131211543199
 31
0.0
  0
LINE
  5
242
330
1F
100
AcDbEntity
  8
2
  6
DASHDOT
 62
     4
370
    20
100
AcDbLine
 10
1851.712292438075
 20
2262.4312115432
 30
0.0
 11
1851.712292438075
 21
2432.431211543199
 31
0.0
  0
LINE
  5
243
330
1F
100
AcDbEntity
  8
2
  6
Continuous
 62
     4
370
    20
100
AcDbLine
 10
1867.712292438075
 20
2269.4312115432
 30
0.0
 11
1835.712292438075
 21
2269.4312115432
 31
0.0
  0
LINE
  5
244
330
1F
100
AcDbEntity
  8
2
  6
Continuous
 62
     4
370
    20
100
AcDbLine
 10
1867.712292438075
 20
2425.431211543199
 30
0.0
 11
1835.712292438075
 21
2425.431211543199
 31
0.0
  0
LINE
  5
245
330
1F
100
AcDbEntity
  8
2
  6
Continuous
 62
     4
370
    20
100
AcDbLine
 10
1867.712292438075
 20
2425.431211543199
 30
0.0
 11
1867.712292438075
 21
2269.4312115432
 31
0.0
  0
LINE
  5
246
330
1F
100
AcDbEntity
  8
2
  6
Continuous
 62
     4
370
    20
100
AcDbLine
 10
1870.212292438075
 20
2267.4312115432
 30
0.0
 11
1833.212292438075
 21
2267.4312115432
 31
0.0
  0
LINE
  5
247
330
1F
100
AcDbEntity
  8
2
  6
Continuous
 62
     4
370
    20
100
AcDbLine
 10
1871.712292438075
 20
2425.931211543199
 30
0.0
 11
1871.712292438075
 21
2268.9312115432
 31
0.0
  0
LINE
  5
248
330
1F
100
AcDbEntity
  8
2
  6
Continuous
 62
     4
370
    20
100
AcDbLine
 10
1833.212292438075
 20
2427.431211543199
 30
0.0
 11
1870.212292438075
 21
2427.431211543199
 31
0.0
  0
LINE
  5
249
330
1F
100
AcDbEntity
  8
2
  6
Continuous
 62
     4
370
    20
100
AcDbLine
 10
1831.712292438075
 20
2268.9312115432
 30
0.0
 11
1831.712292438075
 21
2425.931211543199
 31
0.0
  0
ARC
  5
24A
330
1F
100
AcDbEntity
  8
2
  6
Continuous
 62
     4
370
    20
100
AcDbCircle
 10
1842.012292438074
 20
2311.431211543199
 30
0.0
 40
4.0
100
AcDbArc
 50
179.9999999999998
 51
253.1420439999931
  0
ARC
  5
24B
330
1F
100
AcDbEntity
  8
2
  6
Continuous
 62
     4
370
    20
100
AcDbCircle
 10
1862.862292438075
 20
2306.646078543199
 30
0.0
 40
1.0
100
AcDbArc
 50
106.8579560000028
 51
179.9999999999998
  0
LINE
  5
24C
330
1F
100
AcDbEntity
  8
2
  6
Continuous
 62
     4
370
    20
100
AcDbLine
 10
1838.012292438074
 20
2311.431211543199
 30
0.0
 11
1838.012292438074
 21
2407.431211543199
 31
0.0
  0
ARC
  5
24D
330
1F
100
AcDbEntity
  8
2
  6
Continuous
 62
     4
370
    20
100
AcDbCircle
 10
1851.712292438075
 20
2282.4312115432
 30
0.0
 40
10.14999999999999
100
AcDbArc
 50
179.9999999999998
 51
0.0
  0
LINE
  5
24E
330
1F
100
AcDbEntity
  8
2
  6
Continuous
 62
     4
370
    20
100
AcDbLine
 10
1861.862292438075
 20
2306.646078543199
 30
0.0
 11
1861.862292438075
 21
2282.4312115432
 31
0.0
  0
LINE
  5
24F
330
1F
100
AcDbEntity
  8
2
  6
Continuous
 62
     4
370
    20
100
AcDbLine
 10
1841.562292438074
 20
2306.646078543199
 30
0.0
 11
1841.562292438074
 21
2282.4312115432
 31
0.0
  0
ARC
  5
250
330
1F
100
AcDbEntity
  8
2
  6
Continuous
 62
     4
370
    20
100
AcDbCircle
 10
1861.412292438074
 20
2311.431211543199
 30
0.0
 40
4.0
100
AcDbArc
 50
286.8579560000062
 51
0.0
  0
ARC
  5
251
330
1F
100
AcDbEntity
  8
2
  6
Continuous
 62
     4
370
    20
100
AcDbCircle
 10
1840.562292438074
 20
2306.646078543199
 30
0.0
 40
1.0
100
AcDbArc
 50
0.0
 51
73.14204399999724
  0
INSERT
  5
2A5
330
1F
100
AcDbEntity
  8
1
100
AcDbBlockReference
  2
*G30
 10
0.0
 20
0.0
 30
0.0
  0
LINE
  5
2A6
330
1F
100
AcDbEntity
  8
2
  6
Continuous
 62
     4
370
    20
100
AcDbLine
 10
1860.712292438075
 20
2307.431211543199
 30
0.0
 11
1842.712292438075
 21
2307.431211543199
 31
0.0
  0
ARC
  5
2A7
330
1F
100
AcDbEntity
  8
2
  6
Continuous
 62
     4
370
    20
100
AcDbCircle
 10
1860.712292438075
 20
2306.431211543199
 30
0.0
 40
1.0
100
AcDbArc
 50
0.0
 51
89.99999999999991
  0
ARC
  5
2A8
330
1F
100
AcDbEntity
  8
2
  6
Continuous
 62
     4
370
    20
100
AcDbCircle
 10
1842.712292438075
 20
2306.431211543199
 30
0.0
 40
1.0
100
AcDbArc
 50
89.99999999999991
 51
179.9999999999998
  0
ARC
  5
2A9
330
1F
100
AcDbEntity
  8
2
  6
Continuous
 62
     4
370
    20
100
AcDbCircle
 10
1851.712292438075
 20
2282.4312115432
 30
0.0
 40
9.999999999999986
100
AcDbArc
 50
179.9999999999998
 51
0.0
  0
LINE
  5
2AA
330
1F
100
AcDbEntity
  8
2
  6
Continuous
 62
     4
370
    20
100
AcDbLine
 10
1861.712292438075
 20
2308.3021535432
 30
0.0
 11
1861.712292438075
 21
2282.4312115432
 31
0.0
  0
LINE
  5
2AB
330
1F
100
AcDbEntity
  8
2
  6
Continuous
 62
     4
370
    20
100
AcDbLine
 10
1841.712292438075
 20
2282.4312115432
 30
0.0
 11
1841.712292438075
 21
2308.3021535432
 31
0.0
  0
INSERT
  5
2AC
330
1F
100
AcDbEntity
  8
2
  6
Continuous
 62
     4
370
    20
100
AcDbBlockReference
  2
_OPEN
 10
1860.068880281382
 20
2418.287428177786
 30
0.0
 41
32.0
 42
32.0
 43
32.0
 50
228.8879238006041
  0
POLYLINE
  5
2AD
330
1F
100
AcDbEntity
  8
2
  6
Continuous
 62
     4
370
    20
100
AcDb2dPolyline
 66
     1
 10
0.0
 20
0.0
 30
0.0
  0
VERTEX
  5
2AE
330
2AD
100
AcDbEntity
  8
2
  6
Continuous
 62
     4
370
    20
100
AcDbVertex
100
AcDb2dVertex
 10
1860.068880281382
 20
2418.287428177786
 30
0.0
  0
VERTEX
  5
2AF
330
2AD
100
AcDbEntity
  8
2
  6
Continuous
 62
     4
370
    20
100
AcDbVertex
100
AcDb2dVertex
 10
1990.835191955581
 20
2568.123902140285
 30
0.0
  0
VERTEX
  5
2B0
330
2AD
100
AcDbEntity
  8
2
  6
Continuous
 62
     4
370
    20
100
AcDbVertex
100
AcDb2dVertex
 10
2182.835191955581
 20
2568.123902140285
 30
0.0
  0
SEQEND
  5
2B1
330
2AD
100
AcDbEntity
  8
2
  6
Continuous
 62
     4
370
    20
  0
MTEXT
  5
2B2
330
1F
100
AcDbEntity
  8
2
  6
Continuous
 62
     4
370
     9
100
AcDbMText
 10
1990.835191955581
 20
2568.123902140285
 30
0.0
 40
48.0
 41
333.5566032146546
 46
48.0
 71
     7
 72
     1
  1
{\fＭＳ 明朝|b1;\W0.666667;\T0.750000;ドアハンドル}
 73
     1
 44
1.0
1001
ACAD
1000
ACAD_MTEXT_DEFINED_HEIGHT_BEGIN
1070
    46
1040
48.0
1000
ACAD_MTEXT_DEFINED_HEIGHT_END
  0
LINE
  5
2B3
330
1F
100
AcDbEntity
  8
3
  6
Continuous
 62
     3
370
    20
100
AcDbLine
 10
864.3690676073909
 20
2866.596061209606
 30
0.0
 11
864.3690676073909
 21
1937.971486982123
 31
0.0
  0
LINE
  5
2B4
330
1F
100
AcDbEntity
  8
3
  6
Continuous
 62
     3
370
    20
100
AcDbLine
 10
2433.251124744893
 20
2866.204999814632
 30
0.0
 11
2433.251124744893
 21
1937.971486982123
 31
0.0
  0
LINE
  5
2B5
330
1F
100
AcDbEntity
  8
2
  6
Continuous
 62
     4
370
    20
100
AcDbLine
 10
2438.351124744892
 20
1968.231380196887
 30
0.0
 11
2438.351124744892
 21
2833.431367264525
 31
0.0
  0
LINE
  5
2B6
330
1F
100
AcDbEntity
  8
3
  6
Continuous
 62
     3
370
    20
100
AcDbLine
 10
864.3690676073909
 20
2866.596061209606
 30
0.0
 11
864.3690676073909
 21
2851.596061209606
 31
0.0
  0
LINE
  5
2B7
330
1F
100
AcDbEntity
  8
2
  6
Continuous
 62
     4
370
    20
100
AcDbLine
 10
864.3690676073909
 20
2818.89652736341
 30
0.0
 11
859.2690676073914
 21
2818.89652736341
 31
0.0
  0
INSERT
  5
2BE
330
1F
100
AcDbEntity
  8
0
100
AcDbBlockReference
  2
*G32
 10
0.0
 20
0.0
 30
0.0
  0
LINE
  5
2BF
330
1F
100
AcDbEntity
  8
3
  6
Continuous
 62
     3
370
    20
100
AcDbLine
 10
904.3690676073948
 20
2866.596061209606
 30
0.0
 11
864.3690676073909
 21
2866.596061209606
 31
0.0
  0
LINE
  5
2C0
330
1F
100
AcDbEntity
  8
5
  6
Continuous
 62
    94
370
    20
100
AcDbLine
 10
404.3690676073948
 20
2921.29652253196
 30
0.0
 11
404.3690676073948
 21
3001.29652253196
 31
0.0
  0
INSERT
  5
2C7
330
1F
100
AcDbEntity
  8
0
100
AcDbBlockReference
  2
*G33
 10
0.0
 20
0.0
 30
0.0
  0
LINE
  5
2C8
330
1F
100
AcDbEntity
  8
1
  6
Continuous
 62
     7
370
    20
100
AcDbLine
 10
337.2068756987064
 20
2895.29100793044
 30
0.0
 11
349.0174954684408
 21
2892.126361901028
 31
0.0
  0
LINE
  5
2C9
330
1F
100
AcDbEntity
  8
1
  6
Continuous
 62
     7
370
    20
100
AcDbLine
 10
348.8540266827004
 20
2899.704665145427
 30
0.0
 11
337.2068756987064
 21
2895.29100793044
 31
0.0
  0
LINE
  5
2CA
330
1F
100
AcDbEntity
  8
1
  6
Continuous
 62
     7
370
    20
100
AcDbLine
 10
379.4160602290904
 20
2895.29100793044
 30
0.0
 11
337.2068756987064
 21
2895.29100793044
 31
0.0
  0
LINE
  5
2CB
330
1F
100
AcDbEntity
  8
1
  6
Continuous
 62
     7
370
    20
100
AcDbLine
 10
337.4520788773161
 20
2878.417964202311
 30
0.0
 11
349.2626986470505
 21
2875.2533181729
 31
0.0
  0
LINE
  5
2CC
330
1F
100
AcDbEntity
  8
1
  6
Continuous
 62
     7
370
    20
100
AcDbLine
 10
349.099229861311
 20
2882.831621417299
 30
0.0
 11
337.4520788773161
 21
2878.417964202311
 31
0.0
  0
LINE
  5
2CD
330
1F
100
AcDbEntity
  8
1
  6
Continuous
 62
     7
370
    20
100
AcDbLine
 10
379.661263407701
 20
2878.417964202311
 30
0.0
 11
337.4520788773161
 21
2878.417964202311
 31
0.0
  0
LINE
  5
2CE
330
1F
100
AcDbEntity
  8
2
  6
Continuous
 62
     4
370
    20
100
AcDbLine
 10
2194.912292438077
 20
2866.431380196887
 30
0.0
 11
2224.912292438077
 21
2866.431380196887
 31
0.0
  0
LINE
  5
2CF
330
1F
100
AcDbEntity
  8
2
  6
Continuous
 62
     4
370
    20
100
AcDbLine
 10
1274.912292438077
 20
2866.431380196887
 30
0.0
 11
1771.870656402015
 21
2866.430996371748
 31
0.0
  0
LINE
  5
2D0
330
1F
100
AcDbEntity
  8
12
  6
Continuous
 62
    13
370
    20
100
AcDbLine
 10
1292.912292438077
 20
2911.431380196887
 30
0.0
 11
1274.912292438077
 21
2911.431380196887
 31
0.0
  0
LINE
  5
2D1
330
1F
100
AcDbEntity
  8
12
  6
Continuous
 62
    13
370
    20
100
AcDbLine
 10
2224.912292438077
 20
2911.431380196887
 30
0.0
 11
2206.912292438077
 21
2911.431380196887
 31
0.0
  0
LINE
  5
2D2
330
1F
100
AcDbEntity
  8
12
  6
Continuous
 62
    13
370
    20
100
AcDbLine
 10
1292.912292438077
 20
2911.431380196887
 30
0.0
 11
2211.38117140548
 21
2911.431380196887
 31
0.0
  0
LINE
  5
2D3
330
1F
100
AcDbEntity
  8
2
  6
Continuous
 62
     4
370
    20
100
AcDbLine
 10
2194.912292438077
 20
2911.431380196887
 30
0.0
 11
2194.912292438077
 21
2866.431380196887
 31
0.0
  0
LINE
  5
2D4
330
1F
100
AcDbEntity
  8
24
  6
DOT
 62
   132
370
    20
100
AcDbLine
 10
1275.112292438077
 20
2866.431367264527
 30
0.0
 11
1277.412292438079
 21
2866.431367264527
 31
0.0
  0
LINE
  5
2D5
330
1F
100
AcDbEntity
  8
3
  6
DOT
 62
     3
370
    20
100
AcDbLine
 10
2224.712292438075
 20
2866.431367264527
 30
0.0
 11
2221.512292438074
 21
2866.431367264527
 31
0.0
  0
INSERT
  5
2DC
330
1F
100
AcDbEntity
  8
0
100
AcDbBlockReference
  2
*G34
 10
0.0
 20
0.0
 30
0.0
  0
INSERT
  5
2E8
330
1F
100
AcDbEntity
  8
0
100
AcDbBlockReference
  2
*G35
 10
0.0
 20
0.0
 30
0.0
  0
LINE
  5
2E9
330
1F
100
AcDbEntity
  8
24
  6
Continuous
 62
   132
370
    20
100
AcDbLine
 10
1275.112292438077
 20
2866.431367264527
 30
0.0
 11
1765.112292438077
 21
2866.431367264528
 31
0.0
  0
LINE
  5
2EA
330
1F
100
AcDbEntity
  8
3
  6
Continuous
 62
     3
370
    20
100
AcDbLine
 10
2224.712292438075
 20
2866.431367264527
 30
0.0
 11
1771.712292438075
 21
2866.431367264528
 31
0.0
  0
LINE
  5
2EB
330
1F
100
AcDbEntity
  8
2
  6
Continuous
 62
     4
370
    20
100
AcDbLine
 10
1304.912292438077
 20
2866.431367264527
 30
0.0
 11
1304.912292438077
 21
2911.431380196887
 31
0.0
  0
LINE
  5
2EC
330
1F
100
AcDbEntity
  8
2
  6
Continuous
 62
     4
370
    20
100
AcDbLine
 10
2433.251124744893
 20
2818.431367264526
 30
0.0
 11
2438.351124744892
 21
2818.431367264526
 31
0.0
  0
INSERT
  5
2F3
330
1F
100
AcDbEntity
  8
0
100
AcDbBlockReference
  2
*G36
 10
0.0
 20
0.0
 30
0.0
  0
LINE
  5
2F4
330
1F
100
AcDbEntity
  8
12
  6
Continuous
 62
    13
370
    20
100
AcDbLine
 10
2893.351124744892
 20
2911.431380196887
 30
0.0
 11
2875.351124744892
 21
2911.431380196887
 31
0.0
  0
INSERT
  5
2FB
330
1F
100
AcDbEntity
  8
0
100
AcDbBlockReference
  2
*G37
 10
0.0
 20
0.0
 30
0.0
  0
LINE
  5
2FC
330
1F
100
AcDbEntity
  8
12
  6
Continuous
 62
    13
370
    20
100
AcDbLine
 10
2883.049731324431
 20
2911.431380196887
 30
0.0
 11
2393.351124744892
 21
2911.431380196887
 31
0.0
  0
LINE
  5
2FD
330
1F
100
AcDbEntity
  8
2
  6
Continuous
 62
     4
370
    20
100
AcDbLine
 10
2893.351124744892
 20
2866.896540295771
 30
0.0
 11
2438.351124744892
 21
2866.896540295771
 31
0.0
  0
LINE
  5
2FE
330
1F
100
AcDbEntity
  8
3
  6
Continuous
 62
     3
370
    20
100
AcDbLine
 10
2393.251124744889
 20
2866.596061209606
 30
0.0
 11
2433.251124744893
 21
2866.596061209606
 31
0.0
  0
LINE
  5
2FF
330
1F
100
AcDbEntity
  8
3
  6
Continuous
 62
     3
370
    20
100
AcDbLine
 10
2433.251124744893
 20
2866.596061209606
 30
0.0
 11
2433.251124744893
 21
2851.204999814633
 31
0.0
  0
LINE
  5
300
330
1F
100
AcDbEntity
  8
24
  6
Continuous
 62
   132
370
    20
100
AcDbLine
 10
1765.112292438077
 20
2866.431005690936
 30
0.0
 11
1765.112292438077
 21
1948.431380196885
 31
0.0
  0
LINE
  5
301
330
1F
100
AcDbEntity
  8
3
  6
Continuous
 62
     3
370
    20
100
AcDbLine
 10
1771.712292438075
 20
2866.431367264527
 30
0.0
 11
1771.712292438075
 21
1928.431367264528
 31
0.0
  0
DIMENSION
  5
30B
330
1F
100
AcDbEntity
  8
1
  6
Continuous
 62
     7
370
     9
100
AcDbDimension
  2
Dim10
 10
1344.912292438076
 20
1572.412304463729
 30
0.0
 11
1312.412292438075
 21
1572.412304463729
 31
0.0
 70
   160
  1
65
 71
     8
 42
-1.0
 73
     0
 74
     0
 75
     0
  3
Standard
100
AcDbAlignedDimension
 13
1279.912292438076
 23
1731.431380196887
 33
0.0
 14
1344.912292438076
 24
1729.877775064807
 34
0.0
100
AcDbRotatedDimension
1001
ACAD
1000
DSTYLE
1002
{
1070
   279
1070
     1
1070
   340
1005
14A
1070
   140
1040
48.0
1070
    40
1040
1.0
1070
   147
1040
0.0
1070
    76
1070
     0
1070
    75
1070
     0
1070
   344
1005
51
1070
   343
1005
51
1070
   173
1070
     1
1070
   289
1070
     2
1070
   288
1070
     1
1070
    77
1070
     1
1070
   172
1070
     1
1070
   174
1070
     0
1070
    74
1070
     0
1070
    73
1070
     0
1070
   284
1070
     8
1070
    78
1070
     8
1070
    42
1040
8.0
1070
    44
1040
8.0
1070
    43
1040
10.0
1070
   271
1070
     2
1070
    41
1040
8.28220944
1002
}
  0
DIMENSION
  5
314
330
1F
100
AcDbEntity
  8
1
  6
Continuous
 62
     7
370
     9
100
AcDbDimension
  2
Dim11
 10
2154.912292438076
 20
1572.412304463729
 30
0.0
 11
1749.912292438075
 21
1572.412304463729
 31
0.0
 70
   160
  1
810
 71
     8
 42
-1.0
 73
     0
 74
     0
 75
     0
  3
Standard
100
AcDbAlignedDimension
 13
1344.912292438076
 23
1729.877775064807
 33
0.0
 14
2154.912292438076
 24
1729.877775064807
 34
0.0
100
AcDbRotatedDimension
1001
ACAD
1000
DSTYLE
1002
{
1070
   279
1070
     1
1070
   340
1005
14A
1070
   140
1040
48.0
1070
    40
1040
1.0
1070
   147
1040
0.0
1070
    76
1070
     0
1070
    75
1070
     1
1070
   344
1005
51
1070
   343
1005
51
1070
   173
1070
     1
1070
   289
1070
     2
1070
   288
1070
     1
1070
    77
1070
     1
1070
   172
1070
     1
1070
   174
1070
     0
1070
    74
1070
     0
1070
    73
1070
     0
1070
   284
1070
     8
1070
    78
1070
     8
1070
    42
1040
8.0
1070
    44
1040
8.0
1070
    43
1040
10.0
1070
   271
1070
     2
1070
    41
1040
8.28220944
1002
}
  0
DIMENSION
  5
31D
330
1F
100
AcDbEntity
  8
1
  6
Continuous
 62
     7
370
     9
100
AcDbDimension
  2
Dim12
 10
2219.912292438076
 20
1572.412304463729
 30
0.0
 11
2187.412292438075
 21
1572.412304463729
 31
0.0
 70
   160
  1
65
 71
     8
 42
-1.0
 73
     0
 74
     0
 75
     0
  3
Standard
100
AcDbAlignedDimension
 13
2154.912292438076
 23
1729.877775064807
 33
0.0
 14
2219.912292438077
 24
1731.431380196887
 34
0.0
100
AcDbRotatedDimension
1001
ACAD
1000
DSTYLE
1002
{
1070
   279
1070
     1
1070
   340
1005
14A
1070
   140
1040
48.0
1070
    40
1040
1.0
1070
   147
1040
0.0
1070
    76
1070
     0
1070
    75
1070
     1
1070
   344
1005
51
1070
   343
1005
51
1070
   173
1070
     1
1070
   289
1070
     2
1070
   288
1070
     1
1070
    77
1070
     1
1070
   172
1070
     1
1070
   174
1070
     0
1070
    74
1070
     0
1070
    73
1070
     0
1070
   284
1070
     8
1070
    78
1070
     8
1070
    42
1040
8.0
1070
    44
1040
8.0
1070
    43
1040
10.0
1070
   271
1070
     2
1070
    41
1040
8.28220944
1002
}
  0
LINE
  5
31E
330
1F
100
AcDbEntity
  8
3
  6
Continuous
 62
     3
370
    20
100
AcDbLine
 10
2393.251124744889
 20
2866.596061209606
 30
0.0
 11
2393.251124744893
 21
1938.130901110722
 31
0.0
  0
LINE
  5
31F
330
1F
100
AcDbEntity
  8
3
  6
Continuous
 62
     3
370
    20
100
AcDbLine
 10
2393.251124744893
 20
1938.130901110722
 30
0.0
 11
2433.251124744893
 21
1938.130901110722
 31
0.0
  0
LINE
  5
320
330
1F
100
AcDbEntity
  8
3
  6
Continuous
 62
     3
370
    20
100
AcDbLine
 10
2224.712292438075
 20
1938.431367264528
 30
0.0
 11
2224.712292438075
 21
2781.431367264526
 31
0.0
  0
LINE
  5
321
330
1F
100
AcDbEntity
  8
3
  6
Continuous
 62
     3
370
    20
100
AcDbLine
 10
1771.712292438075
 20
1938.431367264528
 30
0.0
 11
2224.712292438075
 21
1938.431367264528
 31
0.0
  0
LINE
  5
322
330
1F
100
AcDbEntity
  8
2
  6
Continuous
 62
     4
370
    20
100
AcDbLine
 10
2224.912292438077
 20
2866.431380196887
 30
0.0
 11
2224.912292438077
 21
1931.431380196887
 31
0.0
  0
LINE
  5
323
330
1F
100
AcDbEntity
  8
2
  6
Continuous
 62
     4
370
    20
100
AcDbLine
 10
2199.912292438077
 20
1931.431380196887
 30
0.0
 11
2224.912292438077
 21
1931.431380196887
 31
0.0
  0
LINE
  5
324
330
1F
100
AcDbEntity
  8
24
  6
Continuous
 62
   132
370
    20
100
AcDbLine
 10
1275.112292438077
 20
1938.431380196887
 30
0.0
 11
1275.112292438077
 21
2781.431367264526
 31
0.0
  0
LINE
  5
325
330
1F
100
AcDbEntity
  8
24
  6
Continuous
 62
   132
370
    20
100
AcDbLine
 10
1765.112292438077
 20
1938.431380196887
 30
0.0
 11
1275.112292438077
 21
1938.431380196887
 31
0.0
  0
LINE
  5
326
330
1F
100
AcDbEntity
  8
2
  6
Continuous
 62
     4
370
    20
100
AcDbLine
 10
1274.912292438077
 20
1931.431380196887
 30
0.0
 11
1274.912292438077
 21
2866.431367264527
 31
0.0
  0
LINE
  5
327
330
1F
100
AcDbEntity
  8
2
  6
Continuous
 62
     4
370
    20
100
AcDbLine
 10
1299.912292438077
 20
1931.431380196887
 30
0.0
 11
1274.912292438077
 21
1931.431380196887
 31
0.0
  0
LINE
  5
328
330
1F
100
AcDbEntity
  8
3
  6
Continuous
 62
     3
370
    20
100
AcDbLine
 10
904.3690676073948
 20
2866.596061209606
 30
0.0
 11
904.36906760739
 21
1938.130901110722
 31
0.0
  0
LINE
  5
329
330
1F
100
AcDbEntity
  8
3
  6
Continuous
 62
     3
370
    20
100
AcDbLine
 10
904.36906760739
 20
1938.130901110722
 30
0.0
 11
864.36906760739
 21
1938.130901110722
 31
0.0
  0
LINE
  5
32A
330
1F
100
AcDbEntity
  8
2
  6
Continuous
 62
     4
370
    20
100
AcDbLine
 10
404.3690676073948
 20
2866.896540295771
 30
0.0
 11
404.3690676073948
 21
1931.431380196887
 31
0.0
  0
LINE
  5
32B
330
1F
100
AcDbEntity
  8
2
  6
Continuous
 62
     4
370
    20
100
AcDbLine
 10
404.3690676073948
 20
1931.431380196887
 30
0.0
 11
429.3690676073948
 21
1931.431380196887
 31
0.0
  0
DIMENSION
  5
335
330
1F
100
AcDbEntity
  8
1
  6
Continuous
 62
     7
370
     9
100
AcDbDimension
  2
Dim13
 10
2224.912292438077
 20
3205.776277504237
 30
0.0
 11
1749.912292438077
 21
3205.776277504238
 31
0.0
 70
   160
  1
<>
 71
     8
 42
-1.0
 73
     0
 74
     0
 75
     0
  3
Standard
100
AcDbAlignedDimension
 13
1274.912292438077
 23
3081.431380196887
 33
0.0
 14
2224.912292438077
 24
3081.431380196888
 34
0.0
100
AcDbRotatedDimension
1001
ACAD
1000
DSTYLE
1002
{
1070
   279
1070
     1
1070
   340
1005
14A
1070
   140
1040
48.0
1070
    40
1040
1.0
1070
   147
1040
0.0
1070
    76
1070
     0
1070
    75
1070
     0
1070
   344
1005
51
1070
   343
1005
51
1070
   173
1070
     1
1070
   289
1070
     2
1070
   288
1070
     1
1070
    77
1070
     1
1070
   172
1070
     1
1070
   174
1070
     0
1070
    74
1070
     0
1070
    73
1070
     0
1070
   284
1070
     8
1070
    78
1070
     8
1070
    42
1040
8.0
1070
    44
1040
8.0
1070
    43
1040
10.0
1070
   271
1070
     2
1070
    41
1040
8.28220944
1002
}
  0
DIMENSION
  5
33F
330
1F
100
AcDbEntity
  8
1
  6
Continuous
 62
     7
370
     9
100
AcDbDimension
  2
Dim14
 10
2893.351124744893
 20
3205.776277504237
 30
0.0
 11
2643.351124744891
 21
3205.776277504237
 31
0.0
 70
   160
  1
<>
 71
     8
 42
-1.0
 73
     0
 74
     0
 75
     0
  3
Standard
100
AcDbAlignedDimension
 13
2393.351124744892
 23
3081.431380196887
 33
0.0
 14
2893.351124744892
 24
3071.431380196887
 34
0.0
100
AcDbRotatedDimension
1001
ACAD
1000
DSTYLE
1002
{
1070
   279
1070
     1
1070
   340
1005
14A
1070
   140
1040
48.0
1070
    40
1040
1.0
1070
   147
1040
0.0
1070
    76
1070
     0
1070
    75
1070
     0
1070
   344
1005
51
1070
   343
1005
51
1070
   173
1070
     1
1070
   289
1070
     2
1070
   288
1070
     1
1070
    77
1070
     1
1070
   172
1070
     1
1070
   174
1070
     0
1070
    74
1070
     0
1070
    73
1070
     0
1070
   284
1070
     8
1070
    78
1070
     8
1070
    42
1040
8.0
1070
    44
1040
8.0
1070
    43
1040
10.0
1070
   271
1070
     2
1070
    41
1040
8.28220944
1002
}
  0
LINE
  5
340
330
1F
100
AcDbEntity
  8
12
  6
Continuous
 62
    13
370
    20
100
AcDbLine
 10
2393.351124744892
 20
3081.431380196887
 30
0.0
 11
2393.351124744892
 21
2911.431380196887
 31
0.0
  0
LINE
  5
341
330
1F
100
AcDbEntity
  8
12
  6
Continuous
 62
    13
370
    20
100
AcDbLine
 10
2893.351124744892
 20
3071.431380196887
 30
0.0
 11
2893.351124744892
 21
2911.431380196887
 31
0.0
  0
LINE
  5
342
330
1F
100
AcDbEntity
  8
12
  6
Continuous
 62
    13
370
    20
100
AcDbLine
 10
2393.351124744892
 20
3081.431380196887
 30
0.0
 11
2893.351124744892
 21
3071.431380196887
 31
0.0
  0
LINE
  5
343
330
1F
100
AcDbEntity
  8
12
  6
Continuous
 62
    13
370
    20
100
AcDbLine
 10
2224.912292438077
 20
3081.431380196887
 30
0.0
 11
2224.912292438077
 21
2911.431380196887
 31
0.0
  0
LINE
  5
344
330
1F
100
AcDbEntity
  8
12
  6
Continuous
 62
    13
370
    20
100
AcDbLine
 10
1274.912292438077
 20
2911.431380196887
 30
0.0
 11
1274.912292438077
 21
3081.431380196887
 31
0.0
  0
LINE
  5
345
330
1F
100
AcDbEntity
  8
12
  6
Continuous
 62
    13
370
    20
100
AcDbLine
 10
1274.912292438077
 20
3081.431380196887
 30
0.0
 11
2224.912292438077
 21
3081.431380196887
 31
0.0
  0
LINE
  5
346
330
1F
100
AcDbEntity
  8
12
  6
Continuous
 62
    13
370
    20
100
AcDbLine
 10
904.2690676073914
 20
3081.431380196887
 30
0.0
 11
904.2690676073914
 21
2911.431380196887
 31
0.0
  0
LINE
  5
347
330
1F
100
AcDbEntity
  8
12
  6
Continuous
 62
    13
370
    20
100
AcDbLine
 10
404.3690676073948
 20
3071.431380196887
 30
0.0
 11
404.3690676073948
 21
2911.431380196887
 31
0.0
  0
LINE
  5
348
330
1F
100
AcDbEntity
  8
12
  6
Continuous
 62
    13
370
    20
100
AcDbLine
 10
904.2690676073914
 20
3081.431380196887
 30
0.0
 11
404.3690676073948
 21
3071.431380196887
 31
0.0
  0
DIMENSION
  5
352
330
1F
100
AcDbEntity
  8
1
  6
Continuous
 62
     7
370
     9
100
AcDbDimension
  2
Dim15
 10
2329.534299785004
 20
1831.431380196887
 30
0.0
 11
2329.534299785004
 21
2456.431380196885
 31
0.0
 70
   160
  1
1250
 71
     8
 42
-1.0
 73
     0
 74
     0
 75
     0
 53
89.99999999999994
  3
Standard
100
AcDbAlignedDimension
 13
2393.351124744892
 23
3081.431380196887
 33
0.0
 14
2413.351124744892
 24
1831.431380196887
 34
0.0
 50
-89.99999999999991
100
AcDbRotatedDimension
1001
ACAD
1000
DSTYLE
1002
{
1070
   279
1070
     1
1070
   340
1005
14A
1070
   140
1040
48.0
1070
    40
1040
1.0
1070
   147
1040
0.0
1070
    76
1070
     0
1070
    75
1070
     0
1070
   344
1005
51
1070
   343
1005
51
1070
   173
1070
     1
1070
   289
1070
     2
1070
   288
1070
     1
1070
    77
1070
     1
1070
   172
1070
     1
1070
   174
1070
     0
1070
    74
1070
     0
1070
    73
1070
     0
1070
   284
1070
     8
1070
    78
1070
     8
1070
    42
1040
8.0
1070
    44
1040
8.0
1070
    43
1040
10.0
1070
   271
1070
     2
1070
    41
1040
8.28220944
1002
}
  0
DIMENSION
  5
35B
330
1F
100
AcDbEntity
  8
1
  6
Continuous
 62
     7
370
     9
100
AcDbDimension
  2
Dim16
 10
2329.534299785004
 20
1731.431380196887
 30
0.0
 11
2329.534299785004
 21
1781.431380196885
 31
0.0
 70
   160
  1
100
 71
     8
 42
-1.0
 73
     0
 74
     0
 75
     0
 53
89.99999999999994
  3
Standard
100
AcDbAlignedDimension
 13
2413.351124744892
 23
1831.431380196887
 33
0.0
 14
2413.351124744892
 24
1731.431380196887
 34
0.0
 50
-89.99999999999991
100
AcDbRotatedDimension
1001
ACAD
1000
DSTYLE
1002
{
1070
   279
1070
     1
1070
   340
1005
14A
1070
   140
1040
48.0
1070
    40
1040
1.0
1070
   147
1040
0.0
1070
    76
1070
     0
1070
    75
1070
     1
1070
   344
1005
51
1070
   343
1005
51
1070
   173
1070
     1
1070
   289
1070
     2
1070
   288
1070
     1
1070
    77
1070
     1
1070
   172
1070
     1
1070
   174
1070
     0
1070
    74
1070
     0
1070
    73
1070
     0
1070
   284
1070
     8
1070
    78
1070
     8
1070
    42
1040
8.0
1070
    44
1040
8.0
1070
    43
1040
10.0
1070
   271
1070
     2
1070
    41
1040
8.28220944
1002
}
  0
DIMENSION
  5
365
330
1F
100
AcDbEntity
  8
1
  6
Continuous
 62
     7
370
     9
100
AcDbDimension
  2
Dim17
 10
2972.88670890709
 20
1831.431380196886
 30
0.0
 11
2972.88670890709
 21
2451.431380196886
 31
0.0
 70
   160
  1
1240
 71
     8
 42
-1.0
 73
     0
 74
     0
 75
     0
 53
89.99999999999991
  3
Standard
100
AcDbAlignedDimension
 13
2893.351124744892
 23
3071.431380196887
 33
0.0
 14
2888.351124744892
 24
1831.431380196887
 34
0.0
 50
-89.99999999999991
100
AcDbRotatedDimension
1001
ACAD
1000
DSTYLE
1002
{
1070
   279
1070
     1
1070
   340
1005
14A
1070
   140
1040
48.0
1070
    40
1040
1.0
1070
   147
1040
0.0
1070
    76
1070
     0
1070
    75
1070
     0
1070
   344
1005
51
1070
   343
1005
51
1070
   173
1070
     1
1070
   289
1070
     2
1070
   288
1070
     1
1070
    77
1070
     1
1070
   172
1070
     1
1070
   174
1070
     0
1070
    74
1070
     0
1070
    73
1070
     0
1070
   284
1070
     8
1070
    78
1070
     8
1070
    42
1040
8.0
1070
    44
1040
8.0
1070
    43
1040
10.0
1070
   271
1070
     2
1070
    41
1040
8.28220944
1002
}
  0
DIMENSION
  5
36E
330
1F
100
AcDbEntity
  8
1
  6
Continuous
 62
     7
370
     9
100
AcDbDimension
  2
Dim18
 10
2972.88670890709
 20
1731.431380196887
 30
0.0
 11
2972.88670890709
 21
1781.431380196886
 31
0.0
 70
   160
  1
100
 71
     8
 42
-1.0
 73
     0
 74
     0
 75
     0
 53
89.99999999999991
  3
Standard
100
AcDbAlignedDimension
 13
2888.351124744892
 23
1831.431380196887
 33
0.0
 14
2888.351124744892
 24
1731.431380196887
 34
0.0
 50
-89.99999999999991
100
AcDbRotatedDimension
1001
ACAD
1000
DSTYLE
1002
{
1070
   279
1070
     1
1070
   340
1005
14A
1070
   140
1040
48.0
1070
    40
1040
1.0
1070
   147
1040
0.0
1070
    76
1070
     0
1070
    75
1070
     1
1070
   344
1005
51
1070
   343
1005
51
1070
   173
1070
     1
1070
   289
1070
     2
1070
   288
1070
     1
1070
    77
1070
     1
1070
   172
1070
     1
1070
   174
1070
     0
1070
    74
1070
     0
1070
    73
1070
     0
1070
   284
1070
     8
1070
    78
1070
     8
1070
    42
1040
8.0
1070
    44
1040
8.0
1070
    43
1040
10.0
1070
   271
1070
     2
1070
    41
1040
8.28220944
1002
}
  0
DIMENSION
  5
378
330
1F
100
AcDbEntity
  8
1
  6
Continuous
 62
     7
370
     9
100
AcDbDimension
  2
Dim19
 10
1124.436711248283
 20
1831.431380196889
 30
0.0
 11
1124.436711248285
 21
2456.431380196888
 31
0.0
 70
   160
  1
1250
 71
     8
 42
-1.0
 73
     0
 74
     0
 75
     0
 53
89.99999999999991
  3
Standard
100
AcDbAlignedDimension
 13
1274.912292438077
 23
3081.431380196887
 33
0.0
 14
1279.912292438076
 24
1831.431380196887
 34
0.0
 50
-89.99999999999991
100
AcDbRotatedDimension
1001
ACAD
1000
DSTYLE
1002
{
1070
   279
1070
     1
1070
   340
1005
14A
1070
   140
1040
48.0
1070
    40
1040
1.0
1070
   147
1040
0.0
1070
    76
1070
     0
1070
    75
1070
     0
1070
   344
1005
51
1070
   343
1005
51
1070
   173
1070
     1
1070
   289
1070
     2
1070
   288
1070
     1
1070
    77
1070
     1
1070
   172
1070
     1
1070
   174
1070
     0
1070
    74
1070
     0
1070
    73
1070
     0
1070
   284
1070
     8
1070
    78
1070
     8
1070
    42
1040
8.0
1070
    44
1040
8.0
1070
    43
1040
10.0
1070
   271
1070
     2
1070
    41
1040
8.28220944
1002
}
  0
DIMENSION
  5
381
330
1F
100
AcDbEntity
  8
1
  6
Continuous
 62
     7
370
     9
100
AcDbDimension
  2
Dim20
 10
1124.436711248286
 20
1731.431380196889
 30
0.0
 11
1124.436711248286
 21
1781.431380196888
 31
0.0
 70
   160
  1
100
 71
     8
 42
-1.0
 73
     0
 74
     0
 75
     0
 53
89.99999999999991
  3
Standard
100
AcDbAlignedDimension
 13
1279.912292438076
 23
1831.431380196887
 33
0.0
 14
1279.912292438076
 24
1731.431380196887
 34
0.0
 50
-89.99999999999991
100
AcDbRotatedDimension
1001
ACAD
1000
DSTYLE
1002
{
1070
   279
1070
     1
1070
   340
1005
14A
1070
   140
1040
48.0
1070
    40
1040
1.0
1070
   147
1040
0.0
1070
    76
1070
     0
1070
    75
1070
     1
1070
   344
1005
51
1070
   343
1005
51
1070
   173
1070
     1
1070
   289
1070
     2
1070
   288
1070
     1
1070
    77
1070
     1
1070
   172
1070
     1
1070
   174
1070
     0
1070
    74
1070
     0
1070
    73
1070
     0
1070
   284
1070
     8
1070
    78
1070
     8
1070
    42
1040
8.0
1070
    44
1040
8.0
1070
    43
1040
10.0
1070
   271
1070
     2
1070
    41
1040
8.28220944
1002
}
  0
DIMENSION
  5
38B
330
1F
100
AcDbEntity
  8
1
  6
Continuous
 62
     7
370
     9
100
AcDbDimension
  2
Dim21
 10
991.0312133652501
 20
1831.431380196886
 30
0.0
 11
991.0312133652503
 21
2456.431380196886
 31
0.0
 70
   160
  1
1250
 71
     8
 42
-1.0
 73
     0
 74
     0
 75
     0
 53
89.99999999999999
  3
Standard
100
AcDbAlignedDimension
 13
904.2690676073914
 23
3081.431380196887
 33
0.0
 14
884.2690676073914
 24
1831.431380196887
 34
0.0
 50
-89.99999999999991
100
AcDbRotatedDimension
1001
ACAD
1000
DSTYLE
1002
{
1070
   279
1070
     1
1070
   340
1005
14A
1070
   140
1040
48.0
1070
    40
1040
1.0
1070
   147
1040
0.0
1070
    76
1070
     0
1070
    75
1070
     0
1070
   344
1005
51
1070
   343
1005
51
1070
   173
1070
     1
1070
   289
1070
     2
1070
   288
1070
     1
1070
    77
1070
     1
1070
   172
1070
     1
1070
   174
1070
     0
1070
    74
1070
     0
1070
    73
1070
     0
1070
   284
1070
     8
1070
    78
1070
     8
1070
    42
1040
8.0
1070
    44
1040
8.0
1070
    43
1040
10.0
1070
   271
1070
     2
1070
    41
1040
8.28220944
1002
}
  0
DIMENSION
  5
394
330
1F
100
AcDbEntity
  8
1
  6
Continuous
 62
     7
370
     9
100
AcDbDimension
  2
Dim22
 10
991.0312133652503
 20
1731.431380196887
 30
0.0
 11
991.0312133652503
 21
1781.431380196886
 31
0.0
 70
   160
  1
100
 71
     8
 42
-1.0
 73
     0
 74
     0
 75
     0
 53
89.99999999999999
  3
Standard
100
AcDbAlignedDimension
 13
884.2690676073914
 23
1831.431380196887
 33
0.0
 14
884.2690676073914
 24
1731.431380196887
 34
0.0
 50
-89.99999999999991
100
AcDbRotatedDimension
1001
ACAD
1000
DSTYLE
1002
{
1070
   279
1070
     1
1070
   340
1005
14A
1070
   140
1040
48.0
1070
    40
1040
1.0
1070
   147
1040
0.0
1070
    76
1070
     0
1070
    75
1070
     1
1070
   344
1005
51
1070
   343
1005
51
1070
   173
1070
     1
1070
   289
1070
     2
1070
   288
1070
     1
1070
    77
1070
     1
1070
   172
1070
     1
1070
   174
1070
     0
1070
    74
1070
     0
1070
    73
1070
     0
1070
   284
1070
     8
1070
    78
1070
     8
1070
    42
1040
8.0
1070
    44
1040
8.0
1070
    43
1040
10.0
1070
   271
1070
     2
1070
    41
1040
8.28220944
1002
}
  0
LINE
  5
395
330
1F
100
AcDbEntity
  8
2
  6
Continuous
 62
     4
370
    20
100
AcDbLine
 10
2438.351124744892
 20
2818.896527363409
 30
0.0
 11
2438.351124744892
 21
2866.896540295771
 31
0.0
  0
LINE
  5
396
330
1F
100
AcDbEntity
  8
2
  6
Continuous
 62
     4
370
    20
100
AcDbLine
 10
2847.470543731054
 20
2866.903465113087
 30
0.0
 11
2847.434675454024
 21
2911.431380196887
 31
0.0
  0
LINE
  5
397
330
1F
100
AcDbEntity
  8
2
  6
Continuous
 62
     4
370
    20
100
AcDbLine
 10
2463.351124744892
 20
2866.896540295771
 30
0.0
 11
2463.351124744892
 21
2911.431380196887
 31
0.0
  0
LINE
  5
398
330
1F
100
AcDbEntity
  8
2
  6
Continuous
 62
     4
370
    20
100
AcDbLine
 10
859.2690676073914
 20
1968.231380196887
 30
0.0
 11
859.2690676073914
 21
2866.896540295771
 31
0.0
  0
LINE
  5
399
330
1F
100
AcDbEntity
  8
2
  6
Continuous
 62
     4
370
    20
100
AcDbLine
 10
404.3690676073948
 20
2866.896540295771
 30
0.0
 11
859.2690676073914
 21
2866.896540295771
 31
0.0
  0
LINE
  5
39A
330
1F
100
AcDbEntity
  8
2
  6
Continuous
 62
     4
370
    20
100
AcDbLine
 10
834.2690676073914
 20
2866.896540295771
 30
0.0
 11
834.2690676073914
 21
2911.431380196887
 31
0.0
  0
LINE
  5
39B
330
1F
100
AcDbEntity
  8
12
  6
Continuous
 62
    13
370
    20
100
AcDbLine
 10
429.3690676073948
 20
2911.431380196887
 30
0.0
 11
447.3690676073948
 21
2911.431380196887
 31
0.0
  0
LINE
  5
39C
330
1F
100
AcDbEntity
  8
9
  6
Continuous
 62
   190
370
    20
100
AcDbLine
 10
479.3690676073948
 20
2906.896540295771
 30
0.0
 11
479.3690676073948
 21
2866.896540295771
 31
0.0
  0
LINE
  5
39D
330
1F
100
AcDbEntity
  8
9
  6
Continuous
 62
   190
370
    20
100
AcDbLine
 10
479.3690676073948
 20
2906.896540295771
 30
0.0
 11
479.3690676073948
 21
2911.431380196887
 31
0.0
  0
LINE
  5
39E
330
1F
100
AcDbEntity
  8
12
  6
Continuous
 62
    13
370
    20
100
AcDbLine
 10
404.3690676073948
 20
2911.431380196887
 30
0.0
 11
904.2690676073914
 21
2911.431380196887
 31
0.0
  0
LINE
  5
39F
330
1F
100
AcDbEntity
  8
9
  6
Continuous
 62
   190
370
    20
100
AcDbLine
 10
404.3690676073948
 20
2908.25654029577
 30
0.0
 11
404.3690676073948
 21
2906.896540295771
 31
0.0
  0
LINE
  5
3A0
330
1F
100
AcDbEntity
  8
9
  6
HIDDEN
 62
   190
370
    20
100
AcDbLine
 10
409.3690676073948
 20
2866.896540295771
 30
0.0
 11
409.3690676073948
 21
2909.896540295771
 31
0.0
  0
INSERT
  5
3A1
330
1F
100
AcDbEntity
  8
20
  6
Continuous
 62
    52
370
    20
100
AcDbBlockReference
  2
_OPEN
 10
404.3690676073948
 20
2889.417306267816
 30
0.0
 41
32.0
 42
32.0
 43
32.0
 50
294.5625016909771
  0
POLYLINE
  5
3A2
330
1F
100
AcDbEntity
  8
20
  6
Continuous
 62
    52
370
    20
100
AcDb2dPolyline
 66
     1
 10
0.0
 20
0.0
 30
0.0
  0
VERTEX
  5
3A3
330
3A2
100
AcDbEntity
  8
20
  6
Continuous
 62
    52
370
    20
100
AcDbVertex
100
AcDb2dVertex
 10
404.3690676073948
 20
2889.417306267816
 30
0.0
  0
VERTEX
  5
3A4
330
3A2
100
AcDbEntity
  8
20
  6
Continuous
 62
    52
370
    20
100
AcDbVertex
100
AcDb2dVertex
 10
343.6597454676776
 20
3022.247577549717
 30
0.0
  0
VERTEX
  5
3A5
330
3A2
100
AcDbEntity
  8
20
  6
Continuous
 62
    52
370
    20
100
AcDbVertex
100
AcDb2dVertex
 10
247.6597454676776
 20
3022.247577549717
 30
0.0
  0
SEQEND
  5
3A6
330
3A2
100
AcDbEntity
  8
20
  6
Continuous
 62
    52
370
    20
  0
MTEXT
  5
3A7
330
1F
100
AcDbEntity
  8
20
  6
Continuous
 62
    52
370
     9
100
AcDbMText
 10
343.6597454676776
 20
3022.247577549717
 30
0.0
 40
48.0
 41
169.5927174289489
 46
48.0
 71
     9
 72
     1
  1
{\fＭＳ 明朝|b1;\W0.666667;\T0.750000;排気口}
 73
     1
 44
1.0
1001
ACAD
1000
ACAD_MTEXT_DEFINED_HEIGHT_BEGIN
1070
    46
1040
48.0
1000
ACAD_MTEXT_DEFINED_HEIGHT_END
  0
LINE
  5
3A8
330
1F
100
AcDbEntity
  8
9
  6
Continuous
 62
   190
370
    20
100
AcDbLine
 10
404.3690676073948
 20
2866.896540295771
 30
0.0
 11
479.3690676073948
 21
2866.896540295771
 31
0.0
  0
LINE
  5
3A9
330
1F
100
AcDbEntity
  8
9
  6
Continuous
 62
   190
370
    20
100
AcDbLine
 10
404.3690676073948
 20
2909.896540295771
 30
0.0
 11
404.3690676073948
 21
2866.896540295771
 31
0.0
  0
LINE
  5
3AA
330
1F
100
AcDbEntity
  8
9
  6
Continuous
 62
   190
370
    20
100
AcDbLine
 10
404.3690676073948
 20
2909.896540295771
 30
0.0
 11
479.3690676073948
 21
2909.896540295771
 31
0.0
  0
MTEXT
  5
3AB
330
1F
100
AcDbEntity
  8
7
  6
Continuous
 62
    11
370
     9
100
AcDbMText
 10
1671.679521786364
 20
112.9668056601164
 30
0.0
 40
64.0
 41
237.55242481775
 46
64.0
 71
     7
 72
     1
  1
{\fＭＳ Ｐゴシック;\T0.882575;-10-}
 73
     1
 44
1.0
1001
ACAD
1000
ACAD_MTEXT_DEFINED_HEIGHT_BEGIN
1070
    46
1040
64.0
1000
ACAD_MTEXT_DEFINED_HEIGHT_END
  0
LINE
  5
3AC
330
1F
100
AcDbEntity
  8
2
  6
Continuous
 62
     4
370
    20
100
AcDbLine
 10
2893.351124744892
 20
2866.896540295771
 30
0.0
 11
2893.351124744892
 21
1931.431380196887
 31
0.0
  0
LINE
  5
3AD
330
1F
100
AcDbEntity
  8
2
  6
Continuous
 62
     4
370
    20
100
AcDbLine
 10
2893.351124744892
 20
1931.431380196887
 30
0.0
 11
2868.351124744892
 21
1931.431380196887
 31
0.0
  0
LINE
  5
3AE
330
1F
100
AcDbEntity
  8
1
  6
Continuous
 62
     7
370
    20
100
AcDbLine
 10
771.7690676073914
 20
1926.931380196887
 30
0.0
 11
771.7690676073914
 21
1835.931380196887
 31
0.0
  0
LINE
  5
3AF
330
1F
100
AcDbEntity
  8
1
  6
Continuous
 62
     7
370
    20
100
AcDbLine
 10
2453.351124744892
 20
1835.931380196887
 30
0.0
 11
2852.851124744892
 21
1835.931380196888
 31
0.0
  0
LINE
  5
3B0
330
1F
100
AcDbEntity
  8
1
  6
Continuous
 62
     7
370
    20
100
AcDbLine
 10
2525.851124744892
 20
1926.931380196887
 30
0.0
 11
2525.851124744892
 21
1835.931380196887
 31
0.0
  0
LINE
  5
3B1
330
1F
100
AcDbEntity
  8
1
  6
Continuous
 62
     7
370
    20
100
AcDbLine
 10
2893.351124744892
 20
2316.431380196887
 30
0.0
 11
2896.551124744893
 21
2316.431380196887
 31
0.0
  0
LINE
  5
3B2
330
1F
100
AcDbEntity
  8
1
  6
Continuous
 62
     7
370
    20
100
AcDbLine
 10
2896.551124744893
 20
2316.431380196887
 30
0.0
 11
2896.551124744893
 21
2006.431380196887
 31
0.0
  0
LINE
  5
3B3
330
1F
100
AcDbEntity
  8
1
  6
Continuous
 62
     7
370
    20
100
AcDbLine
 10
2896.551124744893
 20
2006.431380196887
 30
0.0
 11
2893.351124744892
 21
2006.431380196887
 31
0.0
  0
CIRCLE
  5
3B4
330
1F
100
AcDbEntity
  8
2
  6
Continuous
 62
     4
370
     9
100
AcDbCircle
 10
1318.912292438079
 20
3856.242909151983
 30
0.0
 40
8.0
  0
CIRCLE
  5
3B5
330
1F
100
AcDbEntity
  8
2
  6
Continuous
 62
     4
370
     9
100
AcDbCircle
 10
1318.912292438079
 20
3856.242909151983
 30
0.0
 40
6.9175
  0
LINE
  5
3B6
330
1F
100
AcDbEntity
  8
2
  6
Continuous
 62
     4
370
     9
100
AcDbLine
 10
1318.912292438079
 20
3840.664644940848
 30
0.0
 11
1318.912292438079
 21
3874.453811477882
 31
0.0
  0
LINE
  5
3B7
330
1F
100
AcDbEntity
  8
2
  6
Continuous
 62
     4
370
     9
100
AcDbLine
 10
1333.361685755469
 20
3856.242909151985
 30
0.0
 11
1302.613544206769
 21
3856.242909151985
 31
0.0
  0
CIRCLE
  5
3B8
330
1F
100
AcDbEntity
  8
2
  6
Continuous
 62
     4
370
     9
100
AcDbCircle
 10
2176.412292438077
 20
3856.242909151983
 30
0.0
 40
8.0
  0
CIRCLE
  5
3B9
330
1F
100
AcDbEntity
  8
2
  6
Continuous
 62
     4
370
     9
100
AcDbCircle
 10
2176.412292438077
 20
3856.242909151983
 30
0.0
 40
6.9175
  0
LINE
  5
3BA
330
1F
100
AcDbEntity
  8
2
  6
Continuous
 62
     4
370
     9
100
AcDbLine
 10
2190.861685755468
 20
3856.242909151985
 30
0.0
 11
2160.113544206768
 21
3856.242909151985
 31
0.0
  0
CIRCLE
  5
3BB
330
1F
100
AcDbEntity
  8
12
  6
Continuous
 62
    13
370
    20
100
AcDbCircle
 10
1318.912292438077
 20
3856.242909151985
 30
0.0
 40
9.5
  0
LINE
  5
3BC
330
1F
100
AcDbEntity
  8
12
  6
DASHDOT
 62
    13
370
    20
100
AcDbLine
 10
1305.858755129407
 20
3856.242909151985
 30
0.0
 11
1335.211040669384
 21
3856.242909151985
 31
0.0
  0
LINE
  5
3BD
330
1F
100
AcDbEntity
  8
12
  6
DASHDOT
 62
    13
370
    20
100
AcDbLine
 10
1318.912292438077
 20
3870.099315612538
 30
0.0
 11
1318.912292438077
 21
3838.032006826089
 31
0.0
  0
CIRCLE
  5
3BE
330
1F
100
AcDbEntity
  8
12
  6
Continuous
 62
    13
370
    20
100
AcDbCircle
 10
2176.412292438075
 20
3856.242909151985
 30
0.0
 40
9.5
  0
LINE
  5
3BF
330
1F
100
AcDbEntity
  8
12
  6
DASHDOT
 62
    13
370
    20
100
AcDbLine
 10
2163.358755129405
 20
3856.242909151985
 30
0.0
 11
2192.711040669384
 21
3856.242909151985
 31
0.0
  0
LINE
  5
3C0
330
1F
100
AcDbEntity
  8
12
  6
DASHDOT
 62
    13
370
    20
100
AcDbLine
 10
2176.412292438075
 20
3870.099315612538
 30
0.0
 11
2176.412292438075
 21
3838.032006826089
 31
0.0
  0
LINE
  5
3C1
330
1F
100
AcDbEntity
  8
2
  6
Continuous
 62
     4
370
     9
100
AcDbLine
 10
1318.912292438079
 20
4224.821173363121
 30
0.0
 11
1318.912292438079
 21
4191.032006826088
 31
0.0
  0
CIRCLE
  5
3C2
330
1F
100
AcDbEntity
  8
12
  6
Continuous
 62
    13
370
    20
100
AcDbCircle
 10
1318.912292438077
 20
4209.242909151984
 30
0.0
 40
9.5
  0
LINE
  5
3C3
330
1F
100
AcDbEntity
  8
12
  6
DASHDOT
 62
    13
370
    20
100
AcDbLine
 10
1305.858755129407
 20
4209.242909151984
 30
0.0
 11
1335.211040669384
 21
4209.242909151984
 31
0.0
  0
LINE
  5
3C4
330
1F
100
AcDbEntity
  8
12
  6
DASHDOT
 62
    13
370
    20
100
AcDbLine
 10
1318.912292438077
 20
4223.099315612537
 30
0.0
 11
1318.912292438077
 21
4191.032006826088
 31
0.0
  0
CIRCLE
  5
3C5
330
1F
100
AcDbEntity
  8
12
  6
Continuous
 62
    13
370
    20
100
AcDbCircle
 10
2176.412292438077
 20
4209.242909151984
 30
0.0
 40
9.5
  0
LINE
  5
3C6
330
1F
100
AcDbEntity
  8
12
  6
DASHDOT
 62
    13
370
    20
100
AcDbLine
 10
2163.358755129407
 20
4209.242909151984
 30
0.0
 11
2192.711040669384
 21
4209.242909151984
 31
0.0
  0
LINE
  5
3C7
330
1F
100
AcDbEntity
  8
12
  6
DASHDOT
 62
    13
370
    20
100
AcDbLine
 10
2176.412292438077
 20
4223.099315612537
 30
0.0
 11
2176.412292438077
 21
4191.032006826088
 31
0.0
  0
MTEXT
  5
3C8
330
1F
100
AcDbEntity
  8
1
  6
Continuous
 62
     7
370
     9
100
AcDbMText
 10
2179.420782851638
 20
449.0347901477891
 30
0.0
 40
40.0
 41
283.4052590996001
 46
40.0
 71
     7
 72
     1
  1
{\fＭＳ ゴシック;\T0.765209;2022.12.19}
 73
     1
 44
1.0
1001
ACAD
1000
ACAD_MTEXT_DEFINED_HEIGHT_BEGIN
1070
    46
1040
40.0
1000
ACAD_MTEXT_DEFINED_HEIGHT_END
  0
VIEWPORT
  5
3F
330
1B
100
AcDbEntity
 67
     1
  8
0
100
AcDbViewport
 10
1680.0
 20
2376.0
 30
0.0
 40
3360.0
 41
4752.0
 68
     1
 69
     1
 12
1680.0
 22
2376.0
 13
0.0
 23
0.0
 14
0.5
 24
0.5
 15
0.5
 25
0.5
 16
0.0
 26
0.0
 36
1.0
 17
0.0
 27
0.0
 37
0.0
 42
50.0
 43
0.0
 44
0.0
 45
9.0
 50
0.0
 51
0.0
 72
   100
 90
   557152
  1

281
     0
 71
     1
 74
     0
110
0.0
120
0.0
130
0.0
111
1.0
121
0.0
131
0.0
112
0.0
122
1.0
132
0.0
 79
     0
146
0.0
170
     0
 61
     5
292
     1
282
     1
141
0.0
142
0.0
 63
   256
  0
ENDSEC
  0
SECTION
  2
OBJECTS
  0
DICTIONARY
  5
C
330
0
100
AcDbDictionary
281
     1
  3
ACAD_GROUP
350
D
  3
ACAD_LAYOUT
350
1A
  3
ACAD_MATERIAL
350
3B
  3
ACAD_MLEADERSTYLE
350
3EA
  3
ACAD_MLINESTYLE
350
17
  3
ACAD_PLOTSETTINGS
350
19
  3
ACAD_PLOTSTYLENAME
350
E
  3
ACAD_TABLESTYLE
350
3E9
  3
ACAD_VISUALSTYLE
350
2A
  0
DICTIONARY
  5
D
102
{ACAD_REACTORS
330
C
102
}
330
C
100
AcDbDictionary
281
     1
  0
DICTIONARY
  5
1A
102
{ACAD_REACTORS
330
C
102
}
330
C
100
AcDbDictionary
281
     1
  3
Layout1
350
1E
  3
Layout2
350
26
  3
Model
350
22
  0
DICTIONARY
  5
3B
102
{ACAD_REACTORS
330
C
102
}
330
C
100
AcDbDictionary
281
     1
  3
ByBlock
350
3D
  3
ByLayer
350
3C
  3
Global
350
3E
  0
DICTIONARY
  5
3EA
102
{ACAD_REACTORS
330
C
102
}
330
C
100
AcDbDictionary
281
     1
  0
DICTIONARY
  5
17
102
{ACAD_REACTORS
330
C
102
}
330
C
100
AcDbDictionary
281
     1
  3
Standard
350
18
  0
DICTIONARY
  5
19
102
{ACAD_REACTORS
330
C
102
}
330
C
100
AcDbDictionary
281
     1
  0
ACDBDICTIONARYWDFLT
  5
E
102
{ACAD_REACTORS
330
C
102
}
330
C
100
AcDbDictionary
281
     1
  3
Normal
350
F
100
AcDbDictionaryWithDefault
340
F
  0
DICTIONARY
  5
3E9
102
{ACAD_REACTORS
330
C
102
}
330
C
100
AcDbDictionary
281
     1
  0
DICTIONARY
  5
2A
102
{ACAD_REACTORS
330
C
102
}
330
C
100
AcDbDictionary
281
     1
  3
2dWireframe
350
2F
  3
3D Hidden
350
31
  3
3dWireframe
350
30
  3
Basic
350
32
  3
Brighten
350
36
  3
ColorChange
350
3A
  3
Conceptual
350
34
  3
Dim
350
35
  3
Facepattern
350
39
  3
Flat
350
2B
  3
FlatWithEdges
350
2C
  3
Gouraud
350
2D
  3
GouraudWithEdges
350
2E
  3
Linepattern
350
38
  3
Realistic
350
33
  3
Thicken
350
37
  0
LAYOUT
  5
1E
102
{ACAD_REACTORS
330
1A
102
}
330
1A
100
AcDbPlotSettings
  1

  2
none_device
  4

  6

 40
0.0
 41
0.0
 42
0.0
 43
0.0
 44
0.0
 45
0.0
 46
0.0
 47
0.0
 48
0.0
 49
0.0
140
0.0
141
0.0
142
1.0
143
1.0
 70
   688
 72
     0
 73
     0
 74
     5
  7

 75
    16
 76
     0
 77
     2
 78
   300
147
1.0
148
0.0
149
0.0
100
AcDbLayout
  1
Layout1
 70
     1
 71
     1
 10
0.0
 20
0.0
 11
420.0
 21
594.0
 12
0.0
 22
0.0
 32
0.0
 14
0.0
 24
0.0
 34
0.0
 15
420.0
 25
594.0
 35
0.0
146
0.0
 13
0.0
 23
0.0
 33
0.0
 16
1.0
 26
0.0
 36
0.0
 17
0.0
 27
1.0
 37
0.0
 76
     0
330
1B
331
3F
  0
LAYOUT
  5
26
102
{ACAD_REACTORS
330
1A
102
}
330
1A
100
AcDbPlotSettings
  1

  2
none_device
  4

  6

 40
0.0
 41
0.0
 42
0.0
 43
0.0
 44
0.0
 45
0.0
 46
0.0
 47
0.0
 48
0.0
 49
0.0
140
0.0
141
0.0
142
1.0
143
1.0
 70
   688
 72
     0
 73
     0
 74
     5
  7

 75
    16
 76
     0
 77
     2
 78
   300
147
1.0
148
0.0
149
0.0
100
AcDbLayout
  1
Layout2
 70
     1
 71
     2
 10
0.0
 20
0.0
 11
0.0
 21
0.0
 12
0.0
 22
0.0
 32
0.0
 14
0.0
 24
0.0
 34
0.0
 15
0.0
 25
0.0
 35
0.0
146
0.0
 13
0.0
 23
0.0
 33
0.0
 16
1.0
 26
0.0
 36
0.0
 17
0.0
 27
1.0
 37
0.0
 76
     0
330
23
  0
LAYOUT
  5
22
102
{ACAD_REACTORS
330
1A
102
}
330
1A
100
AcDbPlotSettings
  1

  2
none_device
  4

  6

 40
0.0
 41
0.0
 42
0.0
 43
0.0
 44
0.0
 45
0.0
 46
0.0
 47
0.0
 48
0.0
 49
0.0
140
0.0
141
0.0
142
1.0
143
1.0
 70
  1712
 72
     0
 73
     0
 74
     0
  7

 75
     0
 76
     0
 77
     2
 78
   300
147
1.0
148
0.0
149
0.0
100
AcDbLayout
  1
Model
 70
     1
 71
     0
 10
0.0
 20
0.0
 11
420.0
 21
594.0
 12
0.0
 22
0.0
 32
0.0
 14
-2500000000.0
 24
112.9668056601162
 34
0.0
 15
3246.000007165337
 25
4563.924508241415
 35
0.0
146
0.0
 13
0.0
 23
0.0
 33
0.0
 16
1.0
 26
0.0
 36
0.0
 17
0.0
 27
1.0
 37
0.0
 76
     0
330
1F
331
29
  0
MATERIAL
  5
3D
102
{ACAD_REACTORS
330
3B
102
}
330
3B
100
AcDbMaterial
  1
ByBlock
 72
     1
 94
      127
  0
MATERIAL
  5
3C
102
{ACAD_REACTORS
330
3B
102
}
330
3B
100
AcDbMaterial
  1
ByLayer
 72
     1
 94
      127
  0
MATERIAL
  5
3E
102
{ACAD_REACTORS
330
3B
102
}
330
3B
100
AcDbMaterial
  1
Global
 72
     1
 94
      127
  0
MLINESTYLE
  5
18
102
{ACAD_REACTORS
330
17
102
}
330
17
100
AcDbMlineStyle
  2
Standard
 70
     0
  3

 62
   256
 51
90.0
 52
90.0
 71
     2
 49
0.5
 62
   256
  6
BYLAYER
 49
-0.5
 62
   256
  6
BYLAYER
  0
ACDBPLACEHOLDER
  5
F
102
{ACAD_REACTORS
330
E
102
}
330
E
  0
VISUALSTYLE
  5
2F
102
{ACAD_REACTORS
330
2A
102
}
102
{ACAD_XDICTIONARY
360
3D1
102
}
330
2A
100
AcDbVisualStyle
  2
2dWireframe
 70
     4
 71
     0
 72
     2
 73
     0
 90
        0
 40
-0.6
 41
-30.0
 62
     5
 63
     7
421
 16777215
 74
     1
 91
        4
 64
     7
 65
   257
 75
     1
175
     1
 42
1.0
 92
        0
 66
   257
 43
1.0
 76
     1
 77
     6
 78
     2
 67
     7
 79
     5
170
     0
171
     0
290
     0
174
     0
 93
        1
 44
0.0
173
     0
291
     0
 45
0.0
  0
VISUALSTYLE
  5
31
102
{ACAD_REACTORS
330
2A
102
}
102
{ACAD_XDICTIONARY
360
3D5
102
}
330
2A
100
AcDbVisualStyle
  2
3D Hidden
 70
     6
 71
     1
 72
     2
 73
     2
 90
        0
 40
-0.6
 41
-30.0
 62
     5
 63
     7
421
 16777215
 74
     2
 91
        2
 64
     7
 65
   257
 75
     2
175
     1
 42
40.0
 92
        0
 66
   257
 43
1.0
 76
     1
 77
     6
 78
     2
 67
     7
 79
     3
170
     0
171
     0
290
     0
174
     0
 93
        1
 44
0.0
173
     0
291
     0
 45
0.0
  0
VISUALSTYLE
  5
30
102
{ACAD_REACTORS
330
2A
102
}
102
{ACAD_XDICTIONARY
360
3D3
102
}
330
2A
100
AcDbVisualStyle
  2
3dWireframe
 70
     5
 71
     0
 72
     2
 73
     0
 90
        0
 40
-0.6
 41
-30.0
 62
     5
 63
     7
421
 16777215
 74
     1
 91
        4
 64
     7
 65
   257
 75
     1
175
     1
 42
1.0
 92
        0
 66
   257
 43
1.0
 76
     1
 77
     6
 78
     2
 67
     7
 79
     5
170
     0
171
     0
290
     0
174
     0
 93
        1
 44
0.0
173
     0
291
     0
 45
0.0
  0
VISUALSTYLE
  5
32
102
{ACAD_REACTORS
330
2A
102
}
102
{ACAD_XDICTIONARY
360
3D7
102
}
330
2A
100
AcDbVisualStyle
  2
Basic
 70
     7
 71
     1
 72
     0
 73
     1
 90
        0
 40
-0.6
 41
-30.0
 62
     5
 63
     7
421
 16777215
 74
     0
 91
        4
 64
     7
 65
   257
 75
     1
175
     1
 42
1.0
 92
        8
 66
     7
 43
1.0
 76
     1
 77
     6
 78
     2
 67
     7
 79
     5
170
     0
171
     0
290
     0
174
     0
 93
        1
 44
0.0
173
     0
291
     1
 45
0.0
  0
VISUALSTYLE
  5
36
102
{ACAD_REACTORS
330
2A
102
}
102
{ACAD_XDICTIONARY
360
3DF
102
}
330
2A
100
AcDbVisualStyle
  2
Brighten
 70
    12
 71
     2
 72
     2
 73
     0
 90
        0
 40
-0.6
 41
-30.0
 62
     5
 63
     7
421
 16777215
 74
     1
 91
        4
 64
     7
 65
   257
 75
     1
175
     1
 42
1.0
 92
        8
 66
     7
 43
1.0
 76
     1
 77
     6
 78
     2
 67
     7
 79
     5
170
     0
171
     0
290
     0
174
     0
 93
        1
 44
50.0
173
     0
291
     1
 45
0.0
  0
VISUALSTYLE
  5
3A
102
{ACAD_REACTORS
330
2A
102
}
102
{ACAD_XDICTIONARY
360
3E7
102
}
330
2A
100
AcDbVisualStyle
  2
ColorChange
 70
    16
 71
     2
 72
     2
 73
     3
 90
        0
 40
-0.6
 41
-30.0
 62
     5
 63
     8
421
  8421504
 74
     1
 91
        4
 64
     7
 65
   257
 75
     1
175
     1
 42
1.0
 92
        8
 66
     8
424
  8421504
 43
1.0
 76
     1
 77
     6
 78
     2
 67
     7
 79
     5
170
     0
171
     0
290
     0
174
     0
 93
        1
 44
0.0
173
     0
291
     1
 45
0.0
  0
VISUALSTYLE
  5
34
102
{ACAD_REACTORS
330
2A
102
}
102
{ACAD_XDICTIONARY
360
3DB
102
}
330
2A
100
AcDbVisualStyle
  2
Conceptual
 70
     9
 71
     3
 72
     2
 73
     0
 90
        0
 40
-0.6
 41
-30.0
 62
     5
 63
     7
421
 16777215
 74
     2
 91
        2
 64
     7
 65
   257
 75
     1
175
     1
 42
40.0
 92
        8
 66
     7
 43
1.0
 76
     1
 77
     6
 78
     2
 67
     7
 79
     3
170
     0
171
     0
290
     0
174
     0
 93
        1
 44
0.0
173
     0
291
     0
 45
0.0
  0
VISUALSTYLE
  5
35
102
{ACAD_REACTORS
330
2A
102
}
102
{ACAD_XDICTIONARY
360
3DD
102
}
330
2A
100
AcDbVisualStyle
  2
Dim
 70
    11
 71
     2
 72
     2
 73
     0
 90
        0
 40
-0.6
 41
-30.0
 62
     5
 63
     7
421
 16777215
 74
     1
 91
        4
 64
     7
 65
   257
 75
     1
175
     1
 42
1.0
 92
        8
 66
     7
 43
1.0
 76
     1
 77
     6
 78
     2
 67
     7
 79
     5
170
     0
171
     0
290
     0
174
     0
 93
        1
 44
-50.0
173
     0
291
     1
 45
0.0
  0
VISUALSTYLE
  5
39
102
{ACAD_REACTORS
330
2A
102
}
102
{ACAD_XDICTIONARY
360
3E5
102
}
330
2A
100
AcDbVisualStyle
  2
Facepattern
 70
    15
 71
     2
 72
     2
 73
     0
 90
        0
 40
-0.6
 41
-30.0
 62
     5
 63
     7
421
 16777215
 74
     1
 91
        4
 64
     7
 65
   257
 75
     1
175
     1
 42
1.0
 92
        8
 66
     7
 43
1.0
 76
     1
 77
     6
 78
     2
 67
     7
 79
     5
170
     0
171
     0
290
     0
174
     0
 93
        1
 44
0.0
173
     0
291
     1
 45
0.0
  0
VISUALSTYLE
  5
2B
102
{ACAD_REACTORS
330
2A
102
}
102
{ACAD_XDICTIONARY
360
3C9
102
}
330
2A
100
AcDbVisualStyle
  2
Flat
 70
     0
 71
     2
 72
     1
 73
     1
 90
        2
 40
-0.6
 41
30.0
 62
     5
 63
     7
421
 16777215
 74
     0
 91
        4
 64
     7
 65
   257
 75
     1
175
     1
 42
1.0
 92
        8
 66
     7
 43
1.0
 76
     1
 77
     6
 78
     2
 67
     7
 79
     5
170
     0
171
     0
290
     0
174
     0
 93
       13
 44
0.0
173
     0
291
     1
 45
0.0
  0
VISUALSTYLE
  5
2C
102
{ACAD_REACTORS
330
2A
102
}
102
{ACAD_XDICTIONARY
360
3CB
102
}
330
2A
100
AcDbVisualStyle
  2
FlatWithEdges
 70
     1
 71
     2
 72
     1
 73
     1
 90
        2
 40
-0.6
 41
30.0
 62
     5
 63
     7
421
 16777215
 74
     1
 91
        4
 64
     7
 65
   257
 75
     1
175
     1
 42
1.0
 92
        0
 66
   257
 43
1.0
 76
     1
 77
     6
 78
     2
 67
     7
 79
     5
170
     0
171
     0
290
     0
174
     0
 93
       13
 44
0.0
173
     0
291
     1
 45
0.0
  0
VISUALSTYLE
  5
2D
102
{ACAD_REACTORS
330
2A
102
}
102
{ACAD_XDICTIONARY
360
3CD
102
}
330
2A
100
AcDbVisualStyle
  2
Gouraud
 70
     2
 71
     2
 72
     2
 73
     1
 90
        2
 40
-0.6
 41
30.0
 62
     5
 63
     7
421
 16777215
 74
     0
 91
        4
 64
     7
 65
   257
 75
     1
175
     1
 42
1.0
 92
        0
 66
     7
 43
1.0
 76
     1
 77
     6
 78
     2
 67
     7
 79
     5
170
     0
171
     0
290
     0
174
     0
 93
       13
 44
0.0
173
     0
291
     1
 45
0.0
  0
VISUALSTYLE
  5
2E
102
{ACAD_REACTORS
330
2A
102
}
102
{ACAD_XDICTIONARY
360
3CF
102
}
330
2A
100
AcDbVisualStyle
  2
GouraudWithEdges
 70
     3
 71
     2
 72
     2
 73
     1
 90
        2
 40
-0.6
 41
30.0
 62
     5
 63
     7
421
 16777215
 74
     1
 91
        4
 64
     7
 65
   257
 75
     1
175
     1
 42
1.0
 92
        0
 66
   257
 43
1.0
 76
     1
 77
     6
 78
     2
 67
     7
 79
     5
170
     0
171
     0
290
     0
174
     0
 93
       13
 44
0.0
173
     0
291
     1
 45
0.0
  0
VISUALSTYLE
  5
38
102
{ACAD_REACTORS
330
2A
102
}
102
{ACAD_XDICTIONARY
360
3E3
102
}
330
2A
100
AcDbVisualStyle
  2
Linepattern
 70
    14
 71
     2
 72
     2
 73
     0
 90
        0
 40
-0.6
 41
-30.0
 62
     5
 63
     7
421
 16777215
 74
     1
 91
        4
 64
     7
 65
   257
 75
     7
175
     7
 42
1.0
 92
        8
 66
     7
 43
1.0
 76
     1
 77
     6
 78
     2
 67
     7
 79
     5
170
     0
171
     0
290
     0
174
     0
 93
        1
 44
0.0
173
     0
291
     1
 45
0.0
  0
VISUALSTYLE
  5
33
102
{ACAD_REACTORS
330
2A
102
}
102
{ACAD_XDICTIONARY
360
3D9
102
}
330
2A
100
AcDbVisualStyle
  2
Realistic
 70
     8
 71
     2
 72
     2
 73
     0
 90
        0
 40
-0.6
 41
-30.0
 62
     5
 63
     7
421
 16777215
 74
     1
 91
        0
 64
     7
 65
   257
 75
     1
175
     1
 42
1.0
 92
        8
 66
     8
424
  7895160
 43
1.0
 76
     1
 77
     6
 78
     2
 67
     7
 79
     5
170
     0
171
     0
290
     0
174
     0
 93
       13
 44
0.0
173
     0
291
     0
 45
0.0
  0
VISUALSTYLE
  5
37
102
{ACAD_REACTORS
330
2A
102
}
102
{ACAD_XDICTIONARY
360
3E1
102
}
330
2A
100
AcDbVisualStyle
  2
Thicken
 70
    13
 71
     2
 72
     2
 73
     0
 90
        0
 40
-0.6
 41
-30.0
 62
     5
 63
     7
421
 16777215
 74
     1
 91
        4
 64
     7
 65
   257
 75
     1
175
     1
 42
1.0
 92
       12
 66
     7
 43
1.0
 76
     1
 77
     6
 78
     2
 67
     7
 79
     5
170
     0
171
     0
290
     0
174
     0
 93
        1
 44
0.0
173
     0
291
     1
 45
0.0
  0
DICTIONARY
  5
3D1
330
2F
100
AcDbDictionary
280
     1
281
     1
  3
ACAD_XREC_ROUNDTRIP
360
3D2
  0
DICTIONARY
  5
3D5
330
31
100
AcDbDictionary
280
     1
281
     1
  3
ACAD_XREC_ROUNDTRIP
360
3D6
  0
DICTIONARY
  5
3D3
330
30
100
AcDbDictionary
280
     1
281
     1
  3
ACAD_XREC_ROUNDTRIP
360
3D4
  0
DICTIONARY
  5
3D7
330
32
100
AcDbDictionary
280
     1
281
     1
  3
ACAD_XREC_ROUNDTRIP
360
3D8
  0
DICTIONARY
  5
3DF
330
36
100
AcDbDictionary
280
     1
281
     1
  3
ACAD_XREC_ROUNDTRIP
360
3E0
  0
DICTIONARY
  5
3E7
330
3A
100
AcDbDictionary
280
     1
281
     1
  3
ACAD_XREC_ROUNDTRIP
360
3E8
  0
DICTIONARY
  5
3DB
330
34
100
AcDbDictionary
280
     1
281
     1
  3
ACAD_XREC_ROUNDTRIP
360
3DC
  0
DICTIONARY
  5
3DD
330
35
100
AcDbDictionary
280
     1
281
     1
  3
ACAD_XREC_ROUNDTRIP
360
3DE
  0
DICTIONARY
  5
3E5
330
39
100
AcDbDictionary
280
     1
281
     1
  3
ACAD_XREC_ROUNDTRIP
360
3E6
  0
DICTIONARY
  5
3C9
330
2B
100
AcDbDictionary
280
     1
281
     1
  3
ACAD_XREC_ROUNDTRIP
360
3CA
  0
DICTIONARY
  5
3CB
330
2C
100
AcDbDictionary
280
     1
281
     1
  3
ACAD_XREC_ROUNDTRIP
360
3CC
  0
DICTIONARY
  5
3CD
330
2D
100
AcDbDictionary
280
     1
281
     1
  3
ACAD_XREC_ROUNDTRIP
360
3CE
  0
DICTIONARY
  5
3CF
330
2E
100
AcDbDictionary
280
     1
281
     1
  3
ACAD_XREC_ROUNDTRIP
360
3D0
  0
DICTIONARY
  5
3E3
330
38
100
AcDbDictionary
280
     1
281
     1
  3
ACAD_XREC_ROUNDTRIP
360
3E4
  0
DICTIONARY
  5
3D9
330
33
100
AcDbDictionary
280
     1
281
     1
  3
ACAD_XREC_ROUNDTRIP
360
3DA
  0
DICTIONARY
  5
3E1
330
37
100
AcDbDictionary
280
     1
281
     1
  3
ACAD_XREC_ROUNDTRIP
360
3E2
  0
XRECORD
  5
3D2
102
{ACAD_REACTORS
330
3D1
102
}
330
3D1
100
AcDbXrecord
280
     1
102
RTVSPropertyOp0
 70
     1
102
RTVSPropertyOp1
 70
     1
102
RTVSPropertyOp2
 70
     1
102
RTVSPropertyOp3
 70
     1
102
RTVSPropertyOp4
 70
     1
102
RTVSPropertyOp5
 70
     1
102
RTVSPropertyOp6
 70
     1
102
RTVSPropertyOp7
 70
     1
102
RTVSPropertyOp8
 70
     1
102
RTVSPropertyOp9
 70
     1
102
RTVSPropertyOp10
 70
     1
102
RTVSPropertyOp11
 70
     1
102
RTVSPropertyOp12
 70
     1
102
RTVSPropertyOp13
 70
     1
102
RTVSPropertyOp14
 70
     1
102
RTVSPropertyOp15
 70
     1
102
RTVSPropertyOp16
 70
     1
102
RTVSPropertyOp17
 70
     1
102
RTVSPropertyOp18
 70
     1
102
RTVSPropertyOp19
 70
     1
102
RTVSPropertyOp20
 70
     1
102
RTVSPropertyOp21
 70
     1
102
RTVSPropertyOp22
 70
     1
102
RTVSPropertyOp23
 70
     1
102
RTVSPropertyOp24
 70
     1
102
RTVSPropertyOp25
 70
     1
102
RTVSPropertyOp26
 70
     1
102
RTVSPropertyOp27
 70
     1
102
RTVSPropertyOp28
 70
     1
102
RTVSPropertyOp29
 70
     1
102
RTVSPropertyOp30
 70
     1
102
RTVSPropertyOp31
 70
     1
102
RTVSPropertyOp32
 70
     1
  0
XRECORD
  5
3D6
102
{ACAD_REACTORS
330
3D5
102
}
330
3D5
100
AcDbXrecord
280
     1
102
RTVSPropertyOp0
 70
     1
102
RTVSPropertyOp1
 70
     1
102
RTVSPropertyOp2
 70
     1
102
RTVSPropertyOp3
 70
     1
102
RTVSPropertyOp4
 70
     1
102
RTVSPropertyOp5
 70
     1
102
RTVSPropertyOp6
 70
     1
102
RTVSPropertyOp7
 70
     1
102
RTVSPropertyOp8
 70
     1
102
RTVSPropertyOp9
 70
     1
102
RTVSPropertyOp10
 70
     1
102
RTVSPropertyOp11
 70
     1
102
RTVSPropertyOp12
 70
     1
102
RTVSPropertyOp13
 70
     1
102
RTVSPropertyOp14
 70
     1
102
RTVSPropertyOp15
 70
     1
102
RTVSPropertyOp16
 70
     1
102
RTVSPropertyOp17
 70
     1
102
RTVSPropertyOp18
 70
     1
102
RTVSPropertyOp19
 70
     1
102
RTVSPropertyOp20
 70
     1
102
RTVSPropertyOp21
 70
     1
102
RTVSPropertyOp22
 70
     1
102
RTVSPropertyOp23
 70
     1
102
RTVSPropertyOp24
 70
     1
102
RTVSPropertyOp25
 70
     1
102
RTVSPropertyOp26
 70
     1
102
RTVSPropertyOp27
 70
     1
102
RTVSPropertyOp28
 70
     1
102
RTVSPropertyOp29
 70
     1
102
RTVSPropertyOp30
 70
     1
102
RTVSPropertyOp31
 70
     1
102
RTVSPropertyOp32
 70
     1
  0
XRECORD
  5
3D4
102
{ACAD_REACTORS
330
3D3
102
}
330
3D3
100
AcDbXrecord
280
     1
102
RTVSPropertyOp0
 70
     1
102
RTVSPropertyOp1
 70
     1
102
RTVSPropertyOp2
 70
     1
102
RTVSPropertyOp3
 70
     1
102
RTVSPropertyOp4
 70
     1
102
RTVSPropertyOp5
 70
     1
102
RTVSPropertyOp6
 70
     1
102
RTVSPropertyOp7
 70
     1
102
RTVSPropertyOp8
 70
     1
102
RTVSPropertyOp9
 70
     1
102
RTVSPropertyOp10
 70
     1
102
RTVSPropertyOp11
 70
     1
102
RTVSPropertyOp12
 70
     1
102
RTVSPropertyOp13
 70
     1
102
RTVSPropertyOp14
 70
     1
102
RTVSPropertyOp15
 70
     1
102
RTVSPropertyOp16
 70
     1
102
RTVSPropertyOp17
 70
     1
102
RTVSPropertyOp18
 70
     1
102
RTVSPropertyOp19
 70
     1
102
RTVSPropertyOp20
 70
     1
102
RTVSPropertyOp21
 70
     1
102
RTVSPropertyOp22
 70
     1
102
RTVSPropertyOp23
 70
     1
102
RTVSPropertyOp24
 70
     1
102
RTVSPropertyOp25
 70
     1
102
RTVSPropertyOp26
 70
     1
102
RTVSPropertyOp27
 70
     1
102
RTVSPropertyOp28
 70
     1
102
RTVSPropertyOp29
 70
     1
102
RTVSPropertyOp30
 70
     1
102
RTVSPropertyOp31
 70
     1
102
RTVSPropertyOp32
 70
     1
  0
XRECORD
  5
3D8
102
{ACAD_REACTORS
330
3D7
102
}
330
3D7
100
AcDbXrecord
280
     1
102
RTVSPropertyOp0
 70
     1
102
RTVSPropertyOp1
 70
     1
102
RTVSPropertyOp2
 70
     1
102
RTVSPropertyOp3
 70
     1
102
RTVSPropertyOp4
 70
     1
102
RTVSPropertyOp5
 70
     1
102
RTVSPropertyOp6
 70
     1
102
RTVSPropertyOp7
 70
     1
102
RTVSPropertyOp8
 70
     1
102
RTVSPropertyOp9
 70
     1
102
RTVSPropertyOp10
 70
     1
102
RTVSPropertyOp11
 70
     1
102
RTVSPropertyOp12
 70
     1
102
RTVSPropertyOp13
 70
     1
102
RTVSPropertyOp14
 70
     1
102
RTVSPropertyOp15
 70
     1
102
RTVSPropertyOp16
 70
     1
102
RTVSPropertyOp17
 70
     1
102
RTVSPropertyOp18
 70
     1
102
RTVSPropertyOp19
 70
     1
102
RTVSPropertyOp20
 70
     1
102
RTVSPropertyOp21
 70
     1
102
RTVSPropertyOp22
 70
     1
102
RTVSPropertyOp23
 70
     1
102
RTVSPropertyOp24
 70
     1
102
RTVSPropertyOp25
 70
     1
102
RTVSPropertyOp26
 70
     1
102
RTVSPropertyOp27
 70
     1
102
RTVSPropertyOp28
 70
     1
102
RTVSPropertyOp29
 70
     1
102
RTVSPropertyOp30
 70
     1
102
RTVSPropertyOp31
 70
     1
102
RTVSPropertyOp32
 70
     1
  0
XRECORD
  5
3E0
102
{ACAD_REACTORS
330
3DF
102
}
330
3DF
100
AcDbXrecord
280
     1
102
RTVSPropertyOp0
 70
     1
102
RTVSPropertyOp1
 70
     1
102
RTVSPropertyOp2
 70
     1
102
RTVSPropertyOp3
 70
     1
102
RTVSPropertyOp4
 70
     1
102
RTVSPropertyOp5
 70
     1
102
RTVSPropertyOp6
 70
     1
102
RTVSPropertyOp7
 70
     1
102
RTVSPropertyOp8
 70
     1
102
RTVSPropertyOp9
 70
     1
102
RTVSPropertyOp10
 70
     1
102
RTVSPropertyOp11
 70
     1
102
RTVSPropertyOp12
 70
     1
102
RTVSPropertyOp13
 70
     1
102
RTVSPropertyOp14
 70
     1
102
RTVSPropertyOp15
 70
     1
102
RTVSPropertyOp16
 70
     1
102
RTVSPropertyOp17
 70
     1
102
RTVSPropertyOp18
 70
     1
102
RTVSPropertyOp19
 70
     1
102
RTVSPropertyOp20
 70
     1
102
RTVSPropertyOp21
 70
     1
102
RTVSPropertyOp22
 70
     1
102
RTVSPropertyOp23
 70
     1
102
RTVSPropertyOp24
 70
     1
102
RTVSPropertyOp25
 70
     1
102
RTVSPropertyOp26
 70
     1
102
RTVSPropertyOp27
 70
     1
102
RTVSPropertyOp28
 70
     1
102
RTVSPropertyOp29
 70
     1
102
RTVSPropertyOp30
 70
     1
102
RTVSPropertyOp31
 70
     1
102
RTVSPropertyOp32
 70
     1
  0
XRECORD
  5
3E8
102
{ACAD_REACTORS
330
3E7
102
}
330
3E7
100
AcDbXrecord
280
     1
102
RTVSPropertyOp0
 70
     1
102
RTVSPropertyOp1
 70
     1
102
RTVSPropertyOp2
 70
     1
102
RTVSPropertyOp3
 70
     1
102
RTVSPropertyOp4
 70
     1
102
RTVSPropertyOp5
 70
     1
102
RTVSPropertyOp6
 70
     1
102
RTVSPropertyOp7
 70
     1
102
RTVSPropertyOp8
 70
     1
102
RTVSPropertyOp9
 70
     1
102
RTVSPropertyOp10
 70
     1
102
RTVSPropertyOp11
 70
     1
102
RTVSPropertyOp12
 70
     1
102
RTVSPropertyOp13
 70
     1
102
RTVSPropertyOp14
 70
     1
102
RTVSPropertyOp15
 70
     1
102
RTVSPropertyOp16
 70
     1
102
RTVSPropertyOp17
 70
     1
102
RTVSPropertyOp18
 70
     1
102
RTVSPropertyOp19
 70
     1
102
RTVSPropertyOp20
 70
     1
102
RTVSPropertyOp21
 70
     1
102
RTVSPropertyOp22
 70
     1
102
RTVSPropertyOp23
 70
     1
102
RTVSPropertyOp24
 70
     1
102
RTVSPropertyOp25
 70
     1
102
RTVSPropertyOp26
 70
     1
102
RTVSPropertyOp27
 70
     1
102
RTVSPropertyOp28
 70
     1
102
RTVSPropertyOp29
 70
     1
102
RTVSPropertyOp30
 70
     1
102
RTVSPropertyOp31
 70
     1
102
RTVSPropertyOp32
 70
     1
  0
XRECORD
  5
3DC
102
{ACAD_REACTORS
330
3DB
102
}
330
3DB
100
AcDbXrecord
280
     1
102
RTVSPropertyOp0
 70
     1
102
RTVSPropertyOp1
 70
     1
102
RTVSPropertyOp2
 70
     1
102
RTVSPropertyOp3
 70
     1
102
RTVSPropertyOp4
 70
     1
102
RTVSPropertyOp5
 70
     1
102
RTVSPropertyOp6
 70
     1
102
RTVSPropertyOp7
 70
     1
102
RTVSPropertyOp8
 70
     1
102
RTVSPropertyOp9
 70
     1
102
RTVSPropertyOp10
 70
     1
102
RTVSPropertyOp11
 70
     1
102
RTVSPropertyOp12
 70
     1
102
RTVSPropertyOp13
 70
     1
102
RTVSPropertyOp14
 70
     1
102
RTVSPropertyOp15
 70
     1
102
RTVSPropertyOp16
 70
     1
102
RTVSPropertyOp17
 70
     1
102
RTVSPropertyOp18
 70
     1
102
RTVSPropertyOp19
 70
     1
102
RTVSPropertyOp20
 70
     1
102
RTVSPropertyOp21
 70
     1
102
RTVSPropertyOp22
 70
     1
102
RTVSPropertyOp23
 70
     1
102
RTVSPropertyOp24
 70
     1
102
RTVSPropertyOp25
 70
     1
102
RTVSPropertyOp26
 70
     1
102
RTVSPropertyOp27
 70
     1
102
RTVSPropertyOp28
 70
     1
102
RTVSPropertyOp29
 70
     1
102
RTVSPropertyOp30
 70
     1
102
RTVSPropertyOp31
 70
     1
102
RTVSPropertyOp32
 70
     1
  0
XRECORD
  5
3DE
102
{ACAD_REACTORS
330
3DD
102
}
330
3DD
100
AcDbXrecord
280
     1
102
RTVSPropertyOp0
 70
     1
102
RTVSPropertyOp1
 70
     1
102
RTVSPropertyOp2
 70
     1
102
RTVSPropertyOp3
 70
     1
102
RTVSPropertyOp4
 70
     1
102
RTVSPropertyOp5
 70
     1
102
RTVSPropertyOp6
 70
     1
102
RTVSPropertyOp7
 70
     1
102
RTVSPropertyOp8
 70
     1
102
RTVSPropertyOp9
 70
     1
102
RTVSPropertyOp10
 70
     1
102
RTVSPropertyOp11
 70
     1
102
RTVSPropertyOp12
 70
     1
102
RTVSPropertyOp13
 70
     1
102
RTVSPropertyOp14
 70
     1
102
RTVSPropertyOp15
 70
     1
102
RTVSPropertyOp16
 70
     1
102
RTVSPropertyOp17
 70
     1
102
RTVSPropertyOp18
 70
     1
102
RTVSPropertyOp19
 70
     1
102
RTVSPropertyOp20
 70
     1
102
RTVSPropertyOp21
 70
     1
102
RTVSPropertyOp22
 70
     1
102
RTVSPropertyOp23
 70
     1
102
RTVSPropertyOp24
 70
     1
102
RTVSPropertyOp25
 70
     1
102
RTVSPropertyOp26
 70
     1
102
RTVSPropertyOp27
 70
     1
102
RTVSPropertyOp28
 70
     1
102
RTVSPropertyOp29
 70
     1
102
RTVSPropertyOp30
 70
     1
102
RTVSPropertyOp31
 70
     1
102
RTVSPropertyOp32
 70
     1
  0
XRECORD
  5
3E6
102
{ACAD_REACTORS
330
3E5
102
}
330
3E5
100
AcDbXrecord
280
     1
102
RTVSPropertyOp0
 70
     1
102
RTVSPropertyOp1
 70
     1
102
RTVSPropertyOp2
 70
     1
102
RTVSPropertyOp3
 70
     1
102
RTVSPropertyOp4
 70
     1
102
RTVSPropertyOp5
 70
     1
102
RTVSPropertyOp6
 70
     1
102
RTVSPropertyOp7
 70
     1
102
RTVSPropertyOp8
 70
     1
102
RTVSPropertyOp9
 70
     1
102
RTVSPropertyOp10
 70
     1
102
RTVSPropertyOp11
 70
     1
102
RTVSPropertyOp12
 70
     1
102
RTVSPropertyOp13
 70
     1
102
RTVSPropertyOp14
 70
     1
102
RTVSPropertyOp15
 70
     1
102
RTVSPropertyOp16
 70
     1
102
RTVSPropertyOp17
 70
     1
102
RTVSPropertyOp18
 70
     1
102
RTVSPropertyOp19
 70
     1
102
RTVSPropertyOp20
 70
     1
102
RTVSPropertyOp21
 70
     1
102
RTVSPropertyOp22
 70
     1
102
RTVSPropertyOp23
 70
     1
102
RTVSPropertyOp24
 70
     1
102
RTVSPropertyOp25
 70
     1
102
RTVSPropertyOp26
 70
     1
102
RTVSPropertyOp27
 70
     1
102
RTVSPropertyOp28
 70
     1
102
RTVSPropertyOp29
 70
     1
102
RTVSPropertyOp30
 70
     1
102
RTVSPropertyOp31
 70
     1
102
RTVSPropertyOp32
 70
     1
  0
XRECORD
  5
3CA
102
{ACAD_REACTORS
330
3C9
102
}
330
3C9
100
AcDbXrecord
280
     1
102
RTVSPropertyOp0
 70
     1
102
RTVSPropertyOp1
 70
     1
102
RTVSPropertyOp2
 70
     1
102
RTVSPropertyOp3
 70
     1
102
RTVSPropertyOp4
 70
     1
102
RTVSPropertyOp5
 70
     1
102
RTVSPropertyOp6
 70
     1
102
RTVSPropertyOp7
 70
     1
102
RTVSPropertyOp8
 70
     1
102
RTVSPropertyOp9
 70
     1
102
RTVSPropertyOp10
 70
     1
102
RTVSPropertyOp11
 70
     1
102
RTVSPropertyOp12
 70
     1
102
RTVSPropertyOp13
 70
     1
102
RTVSPropertyOp14
 70
     1
102
RTVSPropertyOp15
 70
     1
102
RTVSPropertyOp16
 70
     1
102
RTVSPropertyOp17
 70
     1
102
RTVSPropertyOp18
 70
     1
102
RTVSPropertyOp19
 70
     1
102
RTVSPropertyOp20
 70
     1
102
RTVSPropertyOp21
 70
     1
102
RTVSPropertyOp22
 70
     1
102
RTVSPropertyOp23
 70
     1
102
RTVSPropertyOp24
 70
     1
102
RTVSPropertyOp25
 70
     1
102
RTVSPropertyOp26
 70
     1
102
RTVSPropertyOp27
 70
     1
102
RTVSPropertyOp28
 70
     1
102
RTVSPropertyOp29
 70
     1
102
RTVSPropertyOp30
 70
     1
102
RTVSPropertyOp31
 70
     1
102
RTVSPropertyOp32
 70
     1
  0
XRECORD
  5
3CC
102
{ACAD_REACTORS
330
3CB
102
}
330
3CB
100
AcDbXrecord
280
     1
102
RTVSPropertyOp0
 70
     1
102
RTVSPropertyOp1
 70
     1
102
RTVSPropertyOp2
 70
     1
102
RTVSPropertyOp3
 70
     1
102
RTVSPropertyOp4
 70
     1
102
RTVSPropertyOp5
 70
     1
102
RTVSPropertyOp6
 70
     1
102
RTVSPropertyOp7
 70
     1
102
RTVSPropertyOp8
 70
     1
102
RTVSPropertyOp9
 70
     1
102
RTVSPropertyOp10
 70
     1
102
RTVSPropertyOp11
 70
     1
102
RTVSPropertyOp12
 70
     1
102
RTVSPropertyOp13
 70
     1
102
RTVSPropertyOp14
 70
     1
102
RTVSPropertyOp15
 70
     1
102
RTVSPropertyOp16
 70
     1
102
RTVSPropertyOp17
 70
     1
102
RTVSPropertyOp18
 70
     1
102
RTVSPropertyOp19
 70
     1
102
RTVSPropertyOp20
 70
     1
102
RTVSPropertyOp21
 70
     1
102
RTVSPropertyOp22
 70
     1
102
RTVSPropertyOp23
 70
     1
102
RTVSPropertyOp24
 70
     1
102
RTVSPropertyOp25
 70
     1
102
RTVSPropertyOp26
 70
     1
102
RTVSPropertyOp27
 70
     1
102
RTVSPropertyOp28
 70
     1
102
RTVSPropertyOp29
 70
     1
102
RTVSPropertyOp30
 70
     1
102
RTVSPropertyOp31
 70
     1
102
RTVSPropertyOp32
 70
     1
  0
XRECORD
  5
3CE
102
{ACAD_REACTORS
330
3CD
102
}
330
3CD
100
AcDbXrecord
280
     1
102
RTVSPropertyOp0
 70
     1
102
RTVSPropertyOp1
 70
     1
102
RTVSPropertyOp2
 70
     1
102
RTVSPropertyOp3
 70
     1
102
RTVSPropertyOp4
 70
     1
102
RTVSPropertyOp5
 70
     1
102
RTVSPropertyOp6
 70
     1
102
RTVSPropertyOp7
 70
     1
102
RTVSPropertyOp8
 70
     1
102
RTVSPropertyOp9
 70
     1
102
RTVSPropertyOp10
 70
     1
102
RTVSPropertyOp11
 70
     1
102
RTVSPropertyOp12
 70
     1
102
RTVSPropertyOp13
 70
     1
102
RTVSPropertyOp14
 70
     1
102
RTVSPropertyOp15
 70
     1
102
RTVSPropertyOp16
 70
     1
102
RTVSPropertyOp17
 70
     1
102
RTVSPropertyOp18
 70
     1
102
RTVSPropertyOp19
 70
     1
102
RTVSPropertyOp20
 70
     1
102
RTVSPropertyOp21
 70
     1
102
RTVSPropertyOp22
 70
     1
102
RTVSPropertyOp23
 70
     1
102
RTVSPropertyOp24
 70
     1
102
RTVSPropertyOp25
 70
     1
102
RTVSPropertyOp26
 70
     1
102
RTVSPropertyOp27
 70
     1
102
RTVSPropertyOp28
 70
     1
102
RTVSPropertyOp29
 70
     1
102
RTVSPropertyOp30
 70
     1
102
RTVSPropertyOp31
 70
     1
102
RTVSPropertyOp32
 70
     1
  0
XRECORD
  5
3D0
102
{ACAD_REACTORS
330
3CF
102
}
330
3CF
100
AcDbXrecord
280
     1
102
RTVSPropertyOp0
 70
     1
102
RTVSPropertyOp1
 70
     1
102
RTVSPropertyOp2
 70
     1
102
RTVSPropertyOp3
 70
     1
102
RTVSPropertyOp4
 70
     1
102
RTVSPropertyOp5
 70
     1
102
RTVSPropertyOp6
 70
     1
102
RTVSPropertyOp7
 70
     1
102
RTVSPropertyOp8
 70
     1
102
RTVSPropertyOp9
 70
     1
102
RTVSPropertyOp10
 70
     1
102
RTVSPropertyOp11
 70
     1
102
RTVSPropertyOp12
 70
     1
102
RTVSPropertyOp13
 70
     1
102
RTVSPropertyOp14
 70
     1
102
RTVSPropertyOp15
 70
     1
102
RTVSPropertyOp16
 70
     1
102
RTVSPropertyOp17
 70
     1
102
RTVSPropertyOp18
 70
     1
102
RTVSPropertyOp19
 70
     1
102
RTVSPropertyOp20
 70
     1
102
RTVSPropertyOp21
 70
     1
102
RTVSPropertyOp22
 70
     1
102
RTVSPropertyOp23
 70
     1
102
RTVSPropertyOp24
 70
     1
102
RTVSPropertyOp25
 70
     1
102
RTVSPropertyOp26
 70
     1
102
RTVSPropertyOp27
 70
     1
102
RTVSPropertyOp28
 70
     1
102
RTVSPropertyOp29
 70
     1
102
RTVSPropertyOp30
 70
     1
102
RTVSPropertyOp31
 70
     1
102
RTVSPropertyOp32
 70
     1
  0
XRECORD
  5
3E4
102
{ACAD_REACTORS
330
3E3
102
}
330
3E3
100
AcDbXrecord
280
     1
102
RTVSPropertyOp0
 70
     1
102
RTVSPropertyOp1
 70
     1
102
RTVSPropertyOp2
 70
     1
102
RTVSPropertyOp3
 70
     1
102
RTVSPropertyOp4
 70
     1
102
RTVSPropertyOp5
 70
     1
102
RTVSPropertyOp6
 70
     1
102
RTVSPropertyOp7
 70
     1
102
RTVSPropertyOp8
 70
     1
102
RTVSPropertyOp9
 70
     1
102
RTVSPropertyOp10
 70
     1
102
RTVSPropertyOp11
 70
     1
102
RTVSPropertyOp12
 70
     1
102
RTVSPropertyOp13
 70
     1
102
RTVSPropertyOp14
 70
     1
102
RTVSPropertyOp15
 70
     1
102
RTVSPropertyOp16
 70
     1
102
RTVSPropertyOp17
 70
     1
102
RTVSPropertyOp18
 70
     1
102
RTVSPropertyOp19
 70
     1
102
RTVSPropertyOp20
 70
     1
102
RTVSPropertyOp21
 70
     1
102
RTVSPropertyOp22
 70
     1
102
RTVSPropertyOp23
 70
     1
102
RTVSPropertyOp24
 70
     1
102
RTVSPropertyOp25
 70
     1
102
RTVSPropertyOp26
 70
     1
102
RTVSPropertyOp27
 70
     1
102
RTVSPropertyOp28
 70
     1
102
RTVSPropertyOp29
 70
     1
102
RTVSPropertyOp30
 70
     1
102
RTVSPropertyOp31
 70
     1
102
RTVSPropertyOp32
 70
     1
  0
XRECORD
  5
3DA
102
{ACAD_REACTORS
330
3D9
102
}
330
3D9
100
AcDbXrecord
280
     1
102
RTVSPropertyOp0
 70
     1
102
RTVSPropertyOp1
 70
     1
102
RTVSPropertyOp2
 70
     1
102
RTVSPropertyOp3
 70
     1
102
RTVSPropertyOp4
 70
     1
102
RTVSPropertyOp5
 70
     1
102
RTVSPropertyOp6
 70
     1
102
RTVSPropertyOp7
 70
     1
102
RTVSPropertyOp8
 70
     1
102
RTVSPropertyOp9
 70
     1
102
RTVSPropertyOp10
 70
     1
102
RTVSPropertyOp11
 70
     1
102
RTVSPropertyOp12
 70
     1
102
RTVSPropertyOp13
 70
     1
102
RTVSPropertyOp14
 70
     1
102
RTVSPropertyOp15
 70
     1
102
RTVSPropertyOp16
 70
     1
102
RTVSPropertyOp17
 70
     1
102
RTVSPropertyOp18
 70
     1
102
RTVSPropertyOp19
 70
     1
102
RTVSPropertyOp20
 70
     1
102
RTVSPropertyOp21
 70
     1
102
RTVSPropertyOp22
 70
     1
102
RTVSPropertyOp23
 70
     1
102
RTVSPropertyOp24
 70
     1
102
RTVSPropertyOp25
 70
     1
102
RTVSPropertyOp26
 70
     1
102
RTVSPropertyOp27
 70
     1
102
RTVSPropertyOp28
 70
     1
102
RTVSPropertyOp29
 70
     1
102
RTVSPropertyOp30
 70
     1
102
RTVSPropertyOp31
 70
     1
102
RTVSPropertyOp32
 70
     1
  0
XRECORD
  5
3E2
102
{ACAD_REACTORS
330
3E1
102
}
330
3E1
100
AcDbXrecord
280
     1
102
RTVSPropertyOp0
 70
     1
102
RTVSPropertyOp1
 70
     1
102
RTVSPropertyOp2
 70
     1
102
RTVSPropertyOp3
 70
     1
102
RTVSPropertyOp4
 70
     1
102
RTVSPropertyOp5
 70
     1
102
RTVSPropertyOp6
 70
     1
102
RTVSPropertyOp7
 70
     1
102
RTVSPropertyOp8
 70
     1
102
RTVSPropertyOp9
 70
     1
102
RTVSPropertyOp10
 70
     1
102
RTVSPropertyOp11
 70
     1
102
RTVSPropertyOp12
 70
     1
102
RTVSPropertyOp13
 70
     1
102
RTVSPropertyOp14
 70
     1
102
RTVSPropertyOp15
 70
     1
102
RTVSPropertyOp16
 70
     1
102
RTVSPropertyOp17
 70
     1
102
RTVSPropertyOp18
 70
     1
102
RTVSPropertyOp19
 70
     1
102
RTVSPropertyOp20
 70
     1
102
RTVSPropertyOp21
 70
     1
102
RTVSPropertyOp22
 70
     1
102
RTVSPropertyOp23
 70
     1
102
RTVSPropertyOp24
 70
     1
102
RTVSPropertyOp25
 70
     1
102
RTVSPropertyOp26
 70
     1
102
RTVSPropertyOp27
 70
     1
102
RTVSPropertyOp28
 70
     1
102
RTVSPropertyOp29
 70
     1
102
RTVSPropertyOp30
 70
     1
102
RTVSPropertyOp31
 70
     1
102
RTVSPropertyOp32
 70
     1
  0
ENDSEC
  0
EOF
