  0
SECTION
  2
HEADER
  9
$ACADVER
  1
AC1021
  9
$ACADMAINTVER
 70
    25
  9
$DWGCODEPAGE
  3
ANSI_932
  9
$INSBASE
 10
0.0
 20
0.0
 30
0.0
  9
$EXTMIN
 10
292.5
 20
442.3722692591805
 30
0.0
  9
$EXTMAX
 10
3992.183898781856
 20
5648.302574151556
 30
0.0
  9
$LIMMIN
 10
0.0
 20
0.0
  9
$LIMMAX
 10
210.0
 20
297.0
  9
$ORTHOMODE
 70
     0
  9
$REGENMODE
 70
     1
  9
$FILLMODE
 70
     1
  9
$QTEXTMODE
 70
     0
  9
$MIRRTEXT
 70
     1
  9
$LTSCALE
 40
5.0
  9
$ATTMODE
 70
     1
  9
$TEXTSIZE
 40
80.0
  9
$TRACEWID
 40
0.05
  9
$TEXTSTYLE
  7
Standard
  9
$CLAYER
  8
0
  9
$CELTYPE
  6
ByLayer
  9
$CECOLOR
 62
   256
  9
$CELTSCALE
 40
1.0
  9
$DISPSILH
 70
     0
  9
$DIMSCALE
 40
1.0
  9
$DIMASZ
 40
1.5
  9
$DIMEXO
 40
2.0
  9
$DIMDLI
 40
10.0
  9
$DIMRND
 40
0.0
  9
$DIMDLE
 40
0.0
  9
$DIMEXE
 40
1.0
  9
$DIMTP
 40
0.0
  9
$DIMTM
 40
0.0
  9
$DIMTXT
 40
4.0
  9
$DIMCEN
 40
0.09
  9
$DIMTSZ
 40
0.0
  9
$DIMTOL
 70
     0
  9
$DIMLIM
 70
     0
  9
$DIMTIH
 70
     0
  9
$DIMTOH
 70
     0
  9
$DIMSE1
 70
     0
  9
$DIMSE2
 70
     0
  9
$DIMTAD
 70
     3
  9
$DIMZIN
 70
     8
  9
$DIMBLK
  1

  9
$DIMASO
 70
     1
  9
$DIMSHO
 70
     1
  9
$DIMPOST
  1

  9
$DIMAPOST
  1

  9
$DIMALT
 70
     0
  9
$DIMALTD
 70
     2
  9
$DIMALTF
 40
25.4
  9
$DIMLFAC
 40
1.0
  9
$DIMTOFL
 70
     1
  9
$DIMTVP
 40
0.7
  9
$DIMTIX
 70
     0
  9
$DIMSOXD
 70
     0
  9
$DIMSAH
 70
     0
  9
$DIMBLK1
  1

  9
$DIMBLK2
  1

  9
$DIMSTYLE
  2
Standard
  9
$DIMCLRD
 70
     0
  9
$DIMCLRE
 70
     0
  9
$DIMCLRT
 70
     0
  9
$DIMTFAC
 40
0.5
  9
$DIMGAP
 40
0.09
  9
$DIMJUST
 70
     0
  9
$DIMSD1
 70
     0
  9
$DIMSD2
 70
     0
  9
$DIMTOLJ
 70
     1
  9
$DIMTZIN
 70
     8
  9
$DIMALTZ
 70
     0
  9
$DIMALTTZ
 70
     0
  9
$DIMUPT
 70
     1
  9
$DIMDEC
 70
     2
  9
$DIMTDEC
 70
     4
  9
$DIMALTU
 70
     2
  9
$DIMALTTD
 70
     2
  9
$DIMTXSTY
  7
Standard
  9
$DIMAUNIT
 70
     0
  9
$DIMADEC
 70
     0
  9
$DIMALTRND
 40
0.0
  9
$DIMAZIN
 70
     0
  9
$DIMDSEP
 70
    46
  9
$DIMATFIT
 70
     2
  9
$DIMFRAC
 70
     0
  9
$DIMLDRBLK
  1

  9
$DIMLUNIT
 70
     2
  9
$DIMLWD
 70
    -2
  9
$DIMLWE
 70
    -2
  9
$DIMTMOVE
 70
     2
  9
$DIMFXL
 40
1.0
  9
$DIMFXLON
 70
     0
  9
$DIMJOGANG
 40
0.7853981633974483
  9
$DIMTFILL
 70
     0
  9
$DIMTFILLCLR
 70
     0
  9
$DIMARCSYM
 70
     0
  9
$DIMLTYPE
  6

  9
$DIMLTEX1
  6

  9
$DIMLTEX2
  6

  9
$LUNITS
 70
     2
  9
$LUPREC
 70
     4
  9
$SKETCHINC
 40
0.1
  9
$FILLETRAD
 40
0.5
  9
$AUNITS
 70
     0
  9
$AUPREC
 70
     0
  9
$MENU
  1
.
  9
$ELEVATION
 40
0.0
  9
$PELEVATION
 40
0.0
  9
$THICKNESS
 40
0.0
  9
$LIMCHECK
 70
     0
  9
$CHAMFERA
 40
0.5
  9
$CHAMFERB
 40
0.5
  9
$CHAMFERC
 40
1.0
  9
$CHAMFERD
 40
0.0
  9
$SKPOLY
 70
     0
  9
$TDCREATE
 40
2459392.020115741
  9
$TDUCREATE
 40
2459391.645115741
  9
$TDUPDATE
 40
2459391.645123137
  9
$TDUUPDATE
 40
2459391.270123137
  9
$TDINDWG
 40
0.0000000116
  9
$TDUSRTIMER
 40
0.0000000116
  9
$USRTIMER
 70
     1
  9
$ANGBASE
 50
0.0
  9
$ANGDIR
 70
     0
  9
$PDMODE
 70
     0
  9
$PDSIZE
 40
0.0
  9
$PLINEWID
 40
0.0
  9
$SPLFRAME
 70
     0
  9
$SPLINETYPE
 70
     6
  9
$SPLINESEGS
 70
     8
  9
$HANDSEED
  5
3AD
  9
$SURFTAB1
 70
     6
  9
$SURFTAB2
 70
     6
  9
$SURFTYPE
 70
     6
  9
$SURFU
 70
     6
  9
$SURFV
 70
     6
  9
$UCSBASE
  2

  9
$UCSNAME
  2

  9
$UCSORG
 10
0.0
 20
0.0
 30
0.0
  9
$UCSXDIR
 10
1.0
 20
0.0
 30
0.0
  9
$UCSYDIR
 10
0.0
 20
1.0
 30
0.0
  9
$UCSORTHOREF
  2

  9
$UCSORTHOVIEW
 70
     0
  9
$UCSORGTOP
 10
0.0
 20
0.0
 30
0.0
  9
$UCSORGBOTTOM
 10
0.0
 20
0.0
 30
0.0
  9
$UCSORGLEFT
 10
0.0
 20
0.0
 30
0.0
  9
$UCSORGRIGHT
 10
0.0
 20
0.0
 30
0.0
  9
$UCSORGFRONT
 10
0.0
 20
0.0
 30
0.0
  9
$UCSORGBACK
 10
0.0
 20
0.0
 30
0.0
  9
$PUCSBASE
  2

  9
$PUCSNAME
  2

  9
$PUCSORG
 10
0.0
 20
0.0
 30
0.0
  9
$PUCSXDIR
 10
1.0
 20
0.0
 30
0.0
  9
$PUCSYDIR
 10
0.0
 20
1.0
 30
0.0
  9
$PUCSORTHOREF
  2

  9
$PUCSORTHOVIEW
 70
     0
  9
$PUCSORGTOP
 10
0.0
 20
0.0
 30
0.0
  9
$PUCSORGBOTTOM
 10
0.0
 20
0.0
 30
0.0
  9
$PUCSORGLEFT
 10
0.0
 20
0.0
 30
0.0
  9
$PUCSORGRIGHT
 10
0.0
 20
0.0
 30
0.0
  9
$PUCSORGFRONT
 10
0.0
 20
0.0
 30
0.0
  9
$PUCSORGBACK
 10
0.0
 20
0.0
 30
0.0
  9
$USERI1
 70
     0
  9
$USERI2
 70
     0
  9
$USERI3
 70
     0
  9
$USERI4
 70
     0
  9
$USERI5
 70
     0
  9
$USERR1
 40
0.0
  9
$USERR2
 40
0.0
  9
$USERR3
 40
0.0
  9
$USERR4
 40
0.0
  9
$USERR5
 40
0.0
  9
$WORLDVIEW
 70
     1
  9
$SHADEDGE
 70
     3
  9
$SHADEDIF
 70
    70
  9
$TILEMODE
 70
     1
  9
$MAXACTVP
 70
    64
  9
$PINSBASE
 10
0.0
 20
0.0
 30
0.0
  9
$PLIMCHECK
 70
     0
  9
$PEXTMIN
 10
0.0
 20
0.0
 30
0.0
  9
$PEXTMAX
 10
210.0
 20
297.0
 30
0.0
  9
$PLIMMIN
 10
0.0
 20
0.0
  9
$PLIMMAX
 10
210.0
 20
297.0
  9
$UNITMODE
 70
     0
  9
$VISRETAIN
 70
     1
  9
$PLINEGEN
 70
     0
  9
$PSLTSCALE
 70
     1
  9
$TREEDEPTH
 70
  3020
  9
$CMLSTYLE
  2
Standard
  9
$CMLJUST
 70
     0
  9
$CMLSCALE
 40
1.0
  9
$PROXYGRAPHICS
 70
     1
  9
$MEASUREMENT
 70
     1
  9
$CELWEIGHT
370
    -1
  9
$ENDCAPS
280
     0
  9
$JOINSTYLE
280
     0
  9
$LWDISPLAY
290
     0
  9
$INSUNITS
 70
     4
  9
$HYPERLINKBASE
  1

  9
$STYLESHEET
  1

  9
$XEDIT
290
     1
  9
$CEPSNTYPE
380
     0
  9
$PSTYLEMODE
290
     1
  9
$FINGERPRINTGUID
  2
{7F1CF752-5AD7-489D-97F1-078C89A2D417}
  9
$VERSIONGUID
  2
{FAEB1C32-E019-11D5-929B-00C0DF256EC4}
  9
$EXTNAMES
290
     1
  9
$PSVPSCALE
 40
0.0
  9
$OLESTARTUP
290
     0
  9
$SORTENTS
280
   127
  9
$INDEXCTL
280
     0
  9
$HIDETEXT
280
     1
  9
$XCLIPFRAME
290
     0
  9
$HALOGAP
280
     0
  9
$OBSCOLOR
 70
   257
  9
$OBSLTYPE
280
     0
  9
$INTERSECTIONDISPLAY
280
     0
  9
$INTERSECTIONCOLOR
 70
   257
  9
$DIMASSOC
280
     1
  9
$PROJECTNAME
  1

  9
$CAMERADISPLAY
290
     0
  9
$LENSLENGTH
 40
50.0
  9
$CAMERAHEIGHT
 40
0.0
  9
$STEPSPERSEC
 40
2.0
  9
$STEPSIZE
 40
6.0
  9
$3DDWFPREC
 40
2.0
  9
$PSOLWIDTH
 40
0.25
  9
$PSOLHEIGHT
 40
4.0
  9
$LOFTANG1
 40
1.570796326794897
  9
$LOFTANG2
 40
1.570796326794897
  9
$LOFTMAG1
 40
0.0
  9
$LOFTMAG2
 40
0.0
  9
$LOFTPARAM
 70
     7
  9
$LOFTNORMALS
280
     1
  9
$LATITUDE
 40
37.795
  9
$LONGITUDE
 40
-122.394
  9
$NORTHDIRECTION
 40
0.0
  9
$TIMEZONE
 70
 -8000
  9
$LIGHTGLYPHDISPLAY
280
     1
  9
$TILEMODELIGHTSYNCH
280
     1
  9
$SOLIDHIST
280
     1
  9
$SHOWHIST
280
     1
  9
$DWFFRAME
280
     2
  9
$DGNFRAME
280
     2
  9
$REALWORLDSCALE
290
     1
  9
$INTERFERECOLOR
 62
   256
  9
$CSHADOW
280
     0
  9
$SHADOWPLANELOCATION
 40
0.0
  0
ENDSEC
  0
SECTION
  2
CLASSES
  0
CLASS
  1
ACDBDICTIONARYWDFLT
  2
AcDbDictionaryWithDefault
  3
ObjectDBX Classes
 90
        0
 91
        4
280
     0
281
     0
  0
CLASS
  1
VISUALSTYLE
  2
AcDbVisualStyle
  3
ObjectDBX Classes
 90
     4095
 91
        4
280
     0
281
     0
  0
CLASS
  1
MATERIAL
  2
AcDbMaterial
  3
ObjectDBX Classes
 90
     1153
 91
        4
280
     0
281
     0
  0
ENDSEC
  0
SECTION
  2
TABLES
  0
TABLE
  2
VPORT
  5
8
330
0
100
AcDbSymbolTable
 70
     1
  0
VPORT
  5
29
330
8
100
AcDbSymbolTableRecord
100
AcDbViewportTableRecord
  2
*Active
 70
     0
 10
0.0
 20
0.0
 11
1.0
 21
1.0
 12
10.42990654205607
 22
4.5
 13
0.0
 23
0.0
 14
0.5
 24
0.5
 15
0.5
 25
0.5
 16
0.0
 26
0.0
 36
1.0
 17
0.0
 27
0.0
 37
0.0
 40
9.0
 41
1.972972972850329
 42
50.0
 43
0.0
 44
0.0
 50
0.0
 51
0.0
 71
     0
 72
   100
 73
     1
 74
     3
 75
     0
 76
     0
 77
     0
 78
     0
281
     0
 65
     1
110
0.0
120
0.0
130
0.0
111
1.0
121
0.0
131
0.0
112
0.0
122
1.0
132
0.0
 79
     0
146
0.0
 60
     3
 61
     5
292
     1
282
     1
141
0.0
142
0.0
 63
   250
  0
ENDTAB
  0
TABLE
  2
LTYPE
  5
5
330
0
100
AcDbSymbolTable
 70
     9
  0
LTYPE
  5
14
330
5
100
AcDbSymbolTableRecord
100
AcDbLinetypeTableRecord
  2
ByBlock
 70
     0
  3

 72
    65
 73
     0
 40
0.0
  0
LTYPE
  5
15
330
5
100
AcDbSymbolTableRecord
100
AcDbLinetypeTableRecord
  2
ByLayer
 70
     0
  3

 72
    65
 73
     0
 40
0.0
  0
LTYPE
  5
16
330
5
100
AcDbSymbolTableRecord
100
AcDbLinetypeTableRecord
  2
Continuous
 70
     0
  3
Solid line
 72
    65
 73
     0
 40
0.0
  0
LTYPE
  5
8E
330
5
100
AcDbSymbolTableRecord
100
AcDbLinetypeTableRecord
  2
DOT
 70
     0
  3
DOT
 72
    65
 73
     2
 40
4.0
 49
6.0
 74
     0
 49
-2.0
 74
     0
  0
LTYPE
  5
8F
330
5
100
AcDbSymbolTableRecord
100
AcDbLinetypeTableRecord
  2
HIDDEN
 70
     0
  3
HIDDEN
 72
    65
 73
     2
 40
4.2
 49
8.4
 74
     0
 49
-4.2
 74
     0
  0
LTYPE
  5
90
330
5
100
AcDbSymbolTableRecord
100
AcDbLinetypeTableRecord
  2
DASHDOT
 70
     0
  3
DASHDOT
 72
    65
 73
     4
 40
14.5
 49
30.0
 74
     0
 49
-9.0
 74
     0
 49
2.5
 74
     0
 49
-9.0
 74
     0
  0
LTYPE
  5
91
330
5
100
AcDbSymbolTableRecord
100
AcDbLinetypeTableRecord
  2
PHANTOM
 70
     0
  3
PHANTOM
 72
    65
 73
     6
 40
12.0
 49
30.0
 74
     0
 49
-9.0
 74
     0
 49
2.5
 74
     0
 49
-5.0
 74
     0
 49
2.5
 74
     0
 49
-9.0
 74
     0
  0
LTYPE
  5
92
330
5
100
AcDbSymbolTableRecord
100
AcDbLinetypeTableRecord
  2
ACAD_ISO14W100
 70
     0
  3
ACAD_ISO14W100
 72
    65
 73
     8
 40
1.5
 49
12.0
 74
     0
 49
-3.0
 74
     0
 49
0.5
 74
     0
 49
-3.0
 74
     0
 49
0.5
 74
     0
 49
-3.0
 74
     0
 49
0.5
 74
     0
 49
-3.0
 74
     0
  0
LTYPE
  5
93
330
5
100
AcDbSymbolTableRecord
100
AcDbLinetypeTableRecord
  2
ACAD_ISO06W100
 70
     0
  3
ACAD_ISO06W100
 72
    65
 73
     8
 40
13.5
 49
24.0
 74
     0
 49
-3.0
 74
     0
 49
0.5
 74
     0
 49
-3.0
 74
     0
 49
0.5
 74
     0
 49
-3.0
 74
     0
 49
0.5
 74
     0
 49
-3.0
 74
     0
  0
LTYPE
  5
94
330
5
100
AcDbSymbolTableRecord
100
AcDbLinetypeTableRecord
  2
ACAD_ISO11W100
 70
     0
  3
ACAD_ISO11W100
 72
    65
 73
     6
 40
15.5
 49
12.0
 74
     0
 49
-3.0
 74
     0
 49
12.0
 74
     0
 49
-3.0
 74
     0
 49
0.5
 74
     0
 49
-3.0
 74
     0
  0
LTYPE
  5
95
330
5
100
AcDbSymbolTableRecord
100
AcDbLinetypeTableRecord
  2
ACAD_ISO13W100
 70
     0
  3
ACAD_ISO13W100
 72
    65
 73
     8
 40
13.0
 49
12.0
 74
     0
 49
-3.0
 74
     0
 49
12.0
 74
     0
 49
-3.0
 74
     0
 49
0.5
 74
     0
 49
-3.0
 74
     0
 49
0.5
 74
     0
 49
-3.0
 74
     0
  0
ENDTAB
  0
TABLE
  2
LAYER
  5
2
330
0
100
AcDbSymbolTable
 70
    26
  0
LAYER
  5
10
330
2
100
AcDbSymbolTableRecord
100
AcDbLayerTableRecord
  2
0
 70
     0
 62
     7
  6
Continuous
370
    -3
390
F
347
3E
  0
LAYER
  5
96
330
2
100
AcDbSymbolTableRecord
100
AcDbLayerTableRecord
  2
1
 70
     0
 62
     7
  6
Continuous
370
     9
390
F
347
3E
  0
LAYER
  5
97
330
2
100
AcDbSymbolTableRecord
100
AcDbLayerTableRecord
  2
2
 70
     0
 62
     4
  6
Continuous
370
     9
390
F
347
3E
  0
LAYER
  5
98
330
2
100
AcDbSymbolTableRecord
100
AcDbLayerTableRecord
  2
3
 70
     0
 62
     3
  6
Continuous
370
     9
390
F
347
3E
  0
LAYER
  5
99
330
2
100
AcDbSymbolTableRecord
100
AcDbLayerTableRecord
  2
4
 70
     0
 62
     6
  6
Continuous
370
     9
390
F
347
3E
  0
LAYER
  5
9A
330
2
100
AcDbSymbolTableRecord
100
AcDbLayerTableRecord
  2
5
 70
     0
 62
    94
  6
Continuous
370
     9
390
F
347
3E
  0
LAYER
  5
9B
330
2
100
AcDbSymbolTableRecord
100
AcDbLayerTableRecord
  2
6
 70
     0
 62
   142
  6
Continuous
370
     9
390
F
347
3E
  0
LAYER
  5
9C
330
2
100
AcDbSymbolTableRecord
100
AcDbLayerTableRecord
  2
7
 70
     0
 62
    11
  6
Continuous
370
     9
390
F
347
3E
  0
LAYER
  5
9D
330
2
100
AcDbSymbolTableRecord
100
AcDbLayerTableRecord
  2
8
 70
     0
 62
    30
  6
Continuous
370
     9
390
F
347
3E
  0
LAYER
  5
9E
330
2
100
AcDbSymbolTableRecord
100
AcDbLayerTableRecord
  2
9
 70
     0
 62
   190
  6
Continuous
370
     9
390
F
347
3E
  0
LAYER
  5
9F
330
2
100
AcDbSymbolTableRecord
100
AcDbLayerTableRecord
  2
10
 70
     0
 62
   251
  6
Continuous
370
     9
390
F
347
3E
  0
LAYER
  5
A0
330
2
100
AcDbSymbolTableRecord
100
AcDbLayerTableRecord
  2
11
 70
     0
 62
   131
  6
Continuous
370
     9
390
F
347
3E
  0
LAYER
  5
A1
330
2
100
AcDbSymbolTableRecord
100
AcDbLayerTableRecord
  2
12
 70
     0
 62
    13
  6
Continuous
370
     9
390
F
347
3E
  0
LAYER
  5
A2
330
2
100
AcDbSymbolTableRecord
100
AcDbLayerTableRecord
  2
13
 70
     0
 62
    91
  6
Continuous
370
     9
390
F
347
3E
  0
LAYER
  5
A3
330
2
100
AcDbSymbolTableRecord
100
AcDbLayerTableRecord
  2
14
 70
     0
 62
   211
  6
Continuous
370
     9
390
F
347
3E
  0
LAYER
  5
A4
330
2
100
AcDbSymbolTableRecord
100
AcDbLayerTableRecord
  2
15
 70
     0
 62
   174
  6
Continuous
370
     9
390
F
347
3E
  0
LAYER
  5
A5
330
2
100
AcDbSymbolTableRecord
100
AcDbLayerTableRecord
  2
16
 70
     0
 62
     7
  6
Continuous
370
     9
390
F
347
3E
  0
LAYER
  5
A6
330
2
100
AcDbSymbolTableRecord
100
AcDbLayerTableRecord
  2
17
 70
     0
 62
   150
  6
Continuous
370
     9
390
F
347
3E
  0
LAYER
  5
A7
330
2
100
AcDbSymbolTableRecord
100
AcDbLayerTableRecord
  2
18
 70
     0
 62
    72
  6
Continuous
370
     9
390
F
347
3E
  0
LAYER
  5
A8
330
2
100
AcDbSymbolTableRecord
100
AcDbLayerTableRecord
  2
19
 70
     0
 62
   212
  6
Continuous
370
     9
390
F
347
3E
  0
LAYER
  5
A9
330
2
100
AcDbSymbolTableRecord
100
AcDbLayerTableRecord
  2
20
 70
     0
 62
    52
  6
Continuous
370
     9
390
F
347
3E
  0
LAYER
  5
AA
330
2
100
AcDbSymbolTableRecord
100
AcDbLayerTableRecord
  2
21
 70
     0
 62
   171
  6
Continuous
370
     9
390
F
347
3E
  0
LAYER
  5
AB
330
2
100
AcDbSymbolTableRecord
100
AcDbLayerTableRecord
  2
22
 70
     0
 62
    21
  6
Continuous
370
     9
390
F
347
3E
  0
LAYER
  5
AC
330
2
100
AcDbSymbolTableRecord
100
AcDbLayerTableRecord
  2
23
 70
     0
 62
   136
  6
Continuous
370
     9
390
F
347
3E
  0
LAYER
  5
AD
330
2
100
AcDbSymbolTableRecord
100
AcDbLayerTableRecord
  2
24
 70
     0
 62
   132
  6
Continuous
370
     9
390
F
347
3E
  0
LAYER
  5
AE
330
2
100
AcDbSymbolTableRecord
100
AcDbLayerTableRecord
  2
25
 70
     0
 62
   193
  6
Continuous
370
     9
390
F
347
3E
  0
ENDTAB
  0
TABLE
  2
STYLE
  5
3
330
0
100
AcDbSymbolTable
 70
     3
  0
STYLE
  5
11
330
3
100
AcDbSymbolTableRecord
100
AcDbTextStyleTableRecord
  2
Standard
 70
     0
 40
0.0
 41
1.0
 50
0.0
 71
     0
 42
80.0
  3
txt
  4
bigfont
  0
STYLE
  5
41
330
3
100
AcDbSymbolTableRecord
100
AcDbTextStyleTableRecord
  2
T_STANDARD
 70
     4
 40
10.0
 41
1.0
 50
0.0
 71
     0
 42
10.0
  3
txt
  4
bigfont
  0
STYLE
  5
1B5
330
3
100
AcDbSymbolTableRecord
100
AcDbTextStyleTableRecord
  2
ＭＳ ゴシック
 70
     0
 40
0.0
 41
1.0
 50
0.0
 71
     0
 42
0.0
  3

  4

1001
ACAD
1000
ＭＳ ゴシック
1071
      256
  0
ENDTAB
  0
TABLE
  2
VIEW
  5
6
330
0
100
AcDbSymbolTable
 70
     0
  0
ENDTAB
  0
TABLE
  2
UCS
  5
7
330
0
100
AcDbSymbolTable
 70
     0
  0
ENDTAB
  0
TABLE
  2
APPID
  5
9
330
0
100
AcDbSymbolTable
 70
     2
  0
APPID
  5
12
330
9
100
AcDbSymbolTableRecord
100
AcDbRegAppTableRecord
  2
ACAD
 70
     0
  0
APPID
  5
40
330
9
100
AcDbSymbolTableRecord
100
AcDbRegAppTableRecord
  2
ODA
 70
     0
  0
ENDTAB
  0
TABLE
  2
DIMSTYLE
  5
A
330
0
100
AcDbSymbolTable
 70
     1
100
AcDbDimStyleTable
  0
DIMSTYLE
105
27
102
{ACAD_REACTORS
330
1BF
330
1C9
330
1D2
330
1DB
330
1E5
330
255
330
25F
330
2E2
330
2EB
330
2F4
330
2FE
330
307
330
311
330
329
330
33E
330
347
330
34F
330
359
102
}
330
A
100
AcDbSymbolTableRecord
100
AcDbDimStyleTableRecord
  2
Standard
 70
     0
178
     0
340
11
  0
ENDTAB
  0
TABLE
  2
BLOCK_RECORD
  5
1
330
0
100
AcDbSymbolTable
 70
    47
  0
BLOCK_RECORD
  5
1F
330
1
100
AcDbSymbolTableRecord
100
AcDbBlockTableRecord
  2
*Model_Space
340
22
 70
     0
280
     1
281
     0
  0
BLOCK_RECORD
  5
1B
330
1
100
AcDbSymbolTableRecord
100
AcDbBlockTableRecord
  2
*Paper_Space
340
1E
 70
     0
280
     1
281
     0
  0
BLOCK_RECORD
  5
23
330
1
100
AcDbSymbolTableRecord
100
AcDbBlockTableRecord
  2
*Paper_Space0
340
26
 70
     0
280
     1
281
     0
  0
BLOCK_RECORD
  5
42
330
1
100
AcDbSymbolTableRecord
100
AcDbBlockTableRecord
  2
_ORIGIN
340
0
 70
     0
280
     1
281
     0
  0
BLOCK_RECORD
  5
47
330
1
100
AcDbSymbolTableRecord
100
AcDbBlockTableRecord
  2
_DOTBLANK
340
0
 70
     0
280
     1
281
     0
  0
BLOCK_RECORD
  5
4C
330
1
100
AcDbSymbolTableRecord
100
AcDbBlockTableRecord
  2
_DOT
340
0
 70
     0
280
     1
281
     0
  0
BLOCK_RECORD
  5
51
330
1
100
AcDbSymbolTableRecord
100
AcDbBlockTableRecord
  2
_OPEN
340
0
102
{BLKREFS
331
1BD
331
1BE
331
1C7
331
1C8
331
1D0
331
1D1
331
1D9
331
1DA
331
1E3
331
1E4
331
1EE
331
1F5
331
1FC
331
238
331
244
331
253
331
254
331
25D
331
25E
331
2D2
331
2E0
331
2E1
331
2E9
331
2EA
331
2F2
331
2F3
331
2FC
331
2FD
331
305
331
306
331
30F
331
310
331
327
331
328
331
33D
331
345
331
346
331
34E
331
357
331
358
331
370
331
379
331
381
102
}
 70
     0
280
     1
281
     0
  0
BLOCK_RECORD
  5
57
330
1
100
AcDbSymbolTableRecord
100
AcDbBlockTableRecord
  2
_CLOSED
340
0
 70
     0
280
     1
281
     0
  0
BLOCK_RECORD
  5
5E
330
1
100
AcDbSymbolTableRecord
100
AcDbBlockTableRecord
  2
_CLOSEDBLANK
340
0
 70
     0
280
     1
281
     0
  0
BLOCK_RECORD
  5
64
330
1
100
AcDbSymbolTableRecord
100
AcDbBlockTableRecord
  2
_ARROWFILLED
340
0
 70
     0
280
     1
281
     0
  0
BLOCK_RECORD
  5
68
330
1
100
AcDbSymbolTableRecord
100
AcDbBlockTableRecord
  2
_BOXBLANK
340
0
 70
     0
280
     1
281
     0
  0
BLOCK_RECORD
  5
70
330
1
100
AcDbSymbolTableRecord
100
AcDbBlockTableRecord
  2
_BOXFILLED
340
0
 70
     0
280
     1
281
     0
  0
BLOCK_RECORD
  5
75
330
1
100
AcDbSymbolTableRecord
100
AcDbBlockTableRecord
  2
_INTEGRAL
340
0
 70
     0
280
     1
281
     0
  0
BLOCK_RECORD
  5
7A
330
1
100
AcDbSymbolTableRecord
100
AcDbBlockTableRecord
  2
_OBLIQUE
340
0
 70
     0
280
     1
281
     0
  0
BLOCK_RECORD
  5
7E
330
1
100
AcDbSymbolTableRecord
100
AcDbBlockTableRecord
  2
_NONE
340
0
 70
     0
280
     1
281
     0
  0
BLOCK_RECORD
  5
81
330
1
100
AcDbSymbolTableRecord
100
AcDbBlockTableRecord
  2
MARK_OPEN
340
0
 70
     0
280
     1
281
     0
  0
BLOCK_RECORD
  5
86
330
1
100
AcDbSymbolTableRecord
100
AcDbBlockTableRecord
  2
MARK_ORIGIN
340
0
 70
     0
280
     1
281
     0
  0
BLOCK_RECORD
  5
8A
330
1
100
AcDbSymbolTableRecord
100
AcDbBlockTableRecord
  2
MARK_DOT
340
0
 70
     0
280
     1
281
     0
  0
BLOCK_RECORD
  5
B7
330
1
100
AcDbSymbolTableRecord
100
AcDbBlockTableRecord
  2
*G16
340
0
102
{BLKREFS
331
C0
102
}
 70
     0
280
     1
281
     0
  0
BLOCK_RECORD
  5
C6
330
1
100
AcDbSymbolTableRecord
100
AcDbBlockTableRecord
  2
*G17
340
0
102
{BLKREFS
331
CF
102
}
 70
     0
280
     1
281
     0
  0
BLOCK_RECORD
  5
D5
330
1
100
AcDbSymbolTableRecord
100
AcDbBlockTableRecord
  2
*G18
340
0
102
{BLKREFS
331
DE
102
}
 70
     0
280
     1
281
     0
  0
BLOCK_RECORD
  5
E4
330
1
100
AcDbSymbolTableRecord
100
AcDbBlockTableRecord
  2
*G19
340
0
102
{BLKREFS
331
ED
102
}
 70
     0
280
     1
281
     0
  0
BLOCK_RECORD
  5
109
330
1
100
AcDbSymbolTableRecord
100
AcDbBlockTableRecord
  2
*G20
340
0
102
{BLKREFS
331
110
102
}
 70
     0
280
     1
281
     0
  0
BLOCK_RECORD
  5
14B
330
1
100
AcDbSymbolTableRecord
100
AcDbBlockTableRecord
  2
*G21
340
0
102
{BLKREFS
331
19E
102
}
 70
     0
280
     1
281
     0
  0
BLOCK_RECORD
  5
14E
330
1
100
AcDbSymbolTableRecord
100
AcDbBlockTableRecord
  2
*G22
340
0
102
{BLKREFS
331
19D
102
}
 70
     0
280
     1
281
     0
  0
BLOCK_RECORD
  5
1A7
330
1
100
AcDbSymbolTableRecord
100
AcDbBlockTableRecord
  2
*G23
340
0
102
{BLKREFS
331
1AD
102
}
 70
     0
280
     1
281
     0
  0
BLOCK_RECORD
  5
1AE
330
1
100
AcDbSymbolTableRecord
100
AcDbBlockTableRecord
  2
*G24
340
0
102
{BLKREFS
331
1B4
102
}
 70
     0
280
     1
281
     0
  0
BLOCK_RECORD
  5
1B6
330
1
100
AcDbSymbolTableRecord
100
AcDbBlockTableRecord
  2
Dim1
340
0
 70
     0
280
     1
281
     0
  0
BLOCK_RECORD
  5
1C0
330
1
100
AcDbSymbolTableRecord
100
AcDbBlockTableRecord
  2
Dim2
340
0
 70
     0
280
     1
281
     0
  0
BLOCK_RECORD
  5
1CA
330
1
100
AcDbSymbolTableRecord
100
AcDbBlockTableRecord
  2
Dim3
340
0
 70
     0
280
     1
281
     0
  0
BLOCK_RECORD
  5
1D3
330
1
100
AcDbSymbolTableRecord
100
AcDbBlockTableRecord
  2
Dim4
340
0
 70
     0
280
     1
281
     0
  0
BLOCK_RECORD
  5
1DC
330
1
100
AcDbSymbolTableRecord
100
AcDbBlockTableRecord
  2
Dim5
340
0
 70
     0
280
     1
281
     0
  0
BLOCK_RECORD
  5
24C
330
1
100
AcDbSymbolTableRecord
100
AcDbBlockTableRecord
  2
Dim6
340
0
 70
     0
280
     1
281
     0
  0
BLOCK_RECORD
  5
256
330
1
100
AcDbSymbolTableRecord
100
AcDbBlockTableRecord
  2
Dim7
340
0
 70
     0
280
     1
281
     0
  0
BLOCK_RECORD
  5
261
330
1
100
AcDbSymbolTableRecord
100
AcDbBlockTableRecord
  2
*G32
340
0
102
{BLKREFS
331
268
102
}
 70
     0
280
     1
281
     0
  0
BLOCK_RECORD
  5
27C
330
1
100
AcDbSymbolTableRecord
100
AcDbBlockTableRecord
  2
*G33
340
0
102
{BLKREFS
331
296
102
}
 70
     0
280
     1
281
     0
  0
BLOCK_RECORD
  5
297
330
1
100
AcDbSymbolTableRecord
100
AcDbBlockTableRecord
  2
*G34
340
0
102
{BLKREFS
331
2B1
102
}
 70
     0
280
     1
281
     0
  0
BLOCK_RECORD
  5
2D9
330
1
100
AcDbSymbolTableRecord
100
AcDbBlockTableRecord
  2
Dim8
340
0
 70
     0
280
     1
281
     0
  0
BLOCK_RECORD
  5
2E3
330
1
100
AcDbSymbolTableRecord
100
AcDbBlockTableRecord
  2
Dim9
340
0
 70
     0
280
     1
281
     0
  0
BLOCK_RECORD
  5
2EC
330
1
100
AcDbSymbolTableRecord
100
AcDbBlockTableRecord
  2
Dim10
340
0
 70
     0
280
     1
281
     0
  0
BLOCK_RECORD
  5
2F5
330
1
100
AcDbSymbolTableRecord
100
AcDbBlockTableRecord
  2
Dim11
340
0
 70
     0
280
     1
281
     0
  0
BLOCK_RECORD
  5
2FF
330
1
100
AcDbSymbolTableRecord
100
AcDbBlockTableRecord
  2
Dim12
340
0
 70
     0
280
     1
281
     0
  0
BLOCK_RECORD
  5
308
330
1
100
AcDbSymbolTableRecord
100
AcDbBlockTableRecord
  2
Dim13
340
0
 70
     0
280
     1
281
     0
  0
BLOCK_RECORD
  5
320
330
1
100
AcDbSymbolTableRecord
100
AcDbBlockTableRecord
  2
Dim14
340
0
 70
     0
280
     1
281
     0
  0
BLOCK_RECORD
  5
32A
330
1
100
AcDbSymbolTableRecord
100
AcDbBlockTableRecord
  2
*G42
340
0
102
{BLKREFS
331
333
102
}
 70
     0
280
     1
281
     0
  0
BLOCK_RECORD
  5
336
330
1
100
AcDbSymbolTableRecord
100
AcDbBlockTableRecord
  2
Dim15
340
0
 70
     0
280
     1
281
     0
  0
BLOCK_RECORD
  5
33F
330
1
100
AcDbSymbolTableRecord
100
AcDbBlockTableRecord
  2
Dim16
340
0
 70
     0
280
     1
281
     0
  0
BLOCK_RECORD
  5
348
330
1
100
AcDbSymbolTableRecord
100
AcDbBlockTableRecord
  2
Dim17
340
0
 70
     0
280
     1
281
     0
  0
BLOCK_RECORD
  5
350
330
1
100
AcDbSymbolTableRecord
100
AcDbBlockTableRecord
  2
Dim18
340
0
 70
     0
280
     1
281
     0
  0
ENDTAB
  0
ENDSEC
  0
SECTION
  2
BLOCKS
  0
BLOCK
  5
20
330
1F
100
AcDbEntity
  8
0
100
AcDbBlockBegin
  2
*Model_Space
 70
     0
 10
0.0
 20
0.0
 30
0.0
  3
*Model_Space
  1

  0
ENDBLK
  5
21
330
1F
100
AcDbEntity
  8
0
100
AcDbBlockEnd
  0
BLOCK
  5
1C
330
1B
100
AcDbEntity
 67
     1
  8
0
100
AcDbBlockBegin
  2
*Paper_Space
 70
     0
 10
0.0
 20
0.0
 30
0.0
  3
*Paper_Space
  1

  0
ENDBLK
  5
1D
330
1B
100
AcDbEntity
 67
     1
  8
0
100
AcDbBlockEnd
  0
BLOCK
  5
24
330
23
100
AcDbEntity
  8
0
100
AcDbBlockBegin
  2
*Paper_Space0
 70
     0
 10
0.0
 20
0.0
 30
0.0
  3
*Paper_Space0
  1

  0
ENDBLK
  5
25
330
23
100
AcDbEntity
  8
0
100
AcDbBlockEnd
  0
BLOCK
  5
45
330
42
100
AcDbEntity
  8
0
100
AcDbBlockBegin
  2
_ORIGIN
 70
     0
 10
0.0
 20
0.0
 30
0.0
  3
_ORIGIN
  1

  0
CIRCLE
  5
43
330
42
100
AcDbEntity
  8
0
 62
     0
100
AcDbCircle
 10
0.0
 20
0.0
 30
0.0
 40
0.5
  0
LINE
  5
44
330
42
100
AcDbEntity
  8
0
 62
     0
100
AcDbLine
 10
0.0
 20
0.0
 30
0.0
 11
-1.0
 21
0.0
 31
0.0
  0
ENDBLK
  5
46
330
42
100
AcDbEntity
  8
0
100
AcDbBlockEnd
  0
BLOCK
  5
4A
330
47
100
AcDbEntity
  8
0
100
AcDbBlockBegin
  2
_DOTBLANK
 70
     0
 10
0.0
 20
0.0
 30
0.0
  3
_DOTBLANK
  1

  0
CIRCLE
  5
48
330
47
100
AcDbEntity
  8
0
 62
     0
100
AcDbCircle
 10
0.0
 20
0.0
 30
0.0
 40
0.5
  0
LINE
  5
49
330
47
100
AcDbEntity
  8
0
 62
     0
100
AcDbLine
 10
-0.5
 20
0.0
 30
0.0
 11
-1.0
 21
0.0
 31
0.0
  0
ENDBLK
  5
4B
330
47
100
AcDbEntity
  8
0
100
AcDbBlockEnd
  0
BLOCK
  5
4F
330
4C
100
AcDbEntity
  8
0
100
AcDbBlockBegin
  2
_DOT
 70
     0
 10
0.0
 20
0.0
 30
0.0
  3
_DOT
  1

  0
LWPOLYLINE
  5
4D
330
4C
100
AcDbEntity
  8
0
 62
     0
100
AcDbPolyline
 90
        2
 70
     1
 43
0.5
 10
-0.25
 20
0.0
 42
1.0
 10
0.25
 20
0.0
 42
1.0
  0
LINE
  5
4E
330
4C
100
AcDbEntity
  8
0
 62
     0
100
AcDbLine
 10
-0.5
 20
0.0
 30
0.0
 11
-1.0
 21
0.0
 31
0.0
  0
ENDBLK
  5
50
330
4C
100
AcDbEntity
  8
0
100
AcDbBlockEnd
  0
BLOCK
  5
55
330
51
100
AcDbEntity
  8
0
100
AcDbBlockBegin
  2
_OPEN
 70
     0
 10
0.0
 20
0.0
 30
0.0
  3
_OPEN
  1

  0
LINE
  5
52
330
51
100
AcDbEntity
  8
0
 62
     0
100
AcDbLine
 10
0.0
 20
0.0
 30
0.0
 11
-1.0
 21
0.1666666666666667
 31
0.0
  0
LINE
  5
53
330
51
100
AcDbEntity
  8
0
 62
     0
100
AcDbLine
 10
0.0
 20
0.0
 30
0.0
 11
-1.0
 21
-0.1666666666666667
 31
0.0
  0
LINE
  5
54
330
51
100
AcDbEntity
  8
0
 62
     0
100
AcDbLine
 10
0.0
 20
0.0
 30
0.0
 11
-1.0
 21
0.0
 31
0.0
  0
ENDBLK
  5
56
330
51
100
AcDbEntity
  8
0
100
AcDbBlockEnd
  0
BLOCK
  5
5C
330
57
100
AcDbEntity
  8
0
100
AcDbBlockBegin
  2
_CLOSED
 70
     0
 10
0.0
 20
0.0
 30
0.0
  3
_CLOSED
  1

  0
LINE
  5
58
330
57
100
AcDbEntity
  8
0
 62
     0
100
AcDbLine
 10
0.0
 20
0.0
 30
0.0
 11
-1.0
 21
0.1666666666666667
 31
0.0
  0
LINE
  5
59
330
57
100
AcDbEntity
  8
0
 62
     0
100
AcDbLine
 10
0.0
 20
0.0
 30
0.0
 11
-1.0
 21
-0.1666666666666667
 31
0.0
  0
LINE
  5
5A
330
57
100
AcDbEntity
  8
0
 62
     0
100
AcDbLine
 10
-1.0
 20
0.1666666666666667
 30
0.0
 11
-1.0
 21
-0.1666666666666667
 31
0.0
  0
LINE
  5
5B
330
57
100
AcDbEntity
  8
0
 62
     0
100
AcDbLine
 10
0.0
 20
0.0
 30
0.0
 11
-1.0
 21
0.0
 31
0.0
  0
ENDBLK
  5
5D
330
57
100
AcDbEntity
  8
0
100
AcDbBlockEnd
  0
BLOCK
  5
62
330
5E
100
AcDbEntity
  8
0
100
AcDbBlockBegin
  2
_CLOSEDBLANK
 70
     0
 10
0.0
 20
0.0
 30
0.0
  3
_CLOSEDBLANK
  1

  0
LINE
  5
5F
330
5E
100
AcDbEntity
  8
0
 62
     0
100
AcDbLine
 10
0.0
 20
0.0
 30
0.0
 11
-1.0
 21
0.1666666666666667
 31
0.0
  0
LINE
  5
60
330
5E
100
AcDbEntity
  8
0
 62
     0
100
AcDbLine
 10
0.0
 20
0.0
 30
0.0
 11
-1.0
 21
-0.1666666666666667
 31
0.0
  0
LINE
  5
61
330
5E
100
AcDbEntity
  8
0
 62
     0
100
AcDbLine
 10
-1.0
 20
0.1666666666666667
 30
0.0
 11
-1.0
 21
-0.1666666666666667
 31
0.0
  0
ENDBLK
  5
63
330
5E
100
AcDbEntity
  8
0
100
AcDbBlockEnd
  0
BLOCK
  5
66
330
64
100
AcDbEntity
  8
0
100
AcDbBlockBegin
  2
_ARROWFILLED
 70
     0
 10
0.0
 20
0.0
 30
0.0
  3
_ARROWFILLED
  1

  0
SOLID
  5
65
330
64
100
AcDbEntity
  8
0
 62
     0
100
AcDbTrace
 10
0.0
 20
0.0
 30
0.0
 11
-1.0
 21
-0.1666666666666667
 31
0.0
 12
-1.0
 22
0.1666666666666667
 32
0.0
 13
0.0
 23
0.0
 33
0.0
  0
ENDBLK
  5
67
330
64
100
AcDbEntity
  8
0
100
AcDbBlockEnd
  0
BLOCK
  5
6E
330
68
100
AcDbEntity
  8
0
100
AcDbBlockBegin
  2
_BOXBLANK
 70
     0
 10
0.0
 20
0.0
 30
0.0
  3
_BOXBLANK
  1

  0
LINE
  5
69
330
68
100
AcDbEntity
  8
0
 62
     0
100
AcDbLine
 10
-0.5
 20
-0.5
 30
0.0
 11
0.5
 21
-0.5
 31
0.0
  0
LINE
  5
6A
330
68
100
AcDbEntity
  8
0
 62
     0
100
AcDbLine
 10
0.5
 20
-0.5
 30
0.0
 11
0.5
 21
0.5
 31
0.0
  0
LINE
  5
6B
330
68
100
AcDbEntity
  8
0
 62
     0
100
AcDbLine
 10
0.5
 20
0.5
 30
0.0
 11
-0.5
 21
0.5
 31
0.0
  0
LINE
  5
6C
330
68
100
AcDbEntity
  8
0
 62
     0
100
AcDbLine
 10
-0.5
 20
0.5
 30
0.0
 11
-0.5
 21
-0.5
 31
0.0
  0
LINE
  5
6D
330
68
100
AcDbEntity
  8
0
 62
     0
100
AcDbLine
 10
-0.5
 20
0.0
 30
0.0
 11
-1.0
 21
0.0
 31
0.0
  0
ENDBLK
  5
6F
330
68
100
AcDbEntity
  8
0
100
AcDbBlockEnd
  0
BLOCK
  5
73
330
70
100
AcDbEntity
  8
0
100
AcDbBlockBegin
  2
_BOXFILLED
 70
     0
 10
0.0
 20
0.0
 30
0.0
  3
_BOXFILLED
  1

  0
SOLID
  5
71
330
70
100
AcDbEntity
  8
0
 62
     0
100
AcDbTrace
 10
-0.5
 20
0.5
 30
0.0
 11
0.5
 21
0.5
 31
0.0
 12
-0.5
 22
-0.5
 32
0.0
 13
0.5
 23
-0.5
 33
0.0
  0
LINE
  5
72
330
70
100
AcDbEntity
  8
0
 62
     0
100
AcDbLine
 10
-0.5
 20
0.0
 30
0.0
 11
-1.0
 21
0.0
 31
0.0
  0
ENDBLK
  5
74
330
70
100
AcDbEntity
  8
0
100
AcDbBlockEnd
  0
BLOCK
  5
78
330
75
100
AcDbEntity
  8
0
100
AcDbBlockBegin
  2
_INTEGRAL
 70
     0
 10
0.0
 20
0.0
 30
0.0
  3
_INTEGRAL
  1

  0
ARC
  5
76
330
75
100
AcDbEntity
  8
0
 62
     0
100
AcDbCircle
 10
0.444888
 20
-0.0913346
 30
0.0
 40
0.4541666
100
AcDbArc
 50
101.9999999999999
 51
167.9999999999998
  0
ARC
  5
77
330
75
100
AcDbEntity
  8
0
 62
     0
100
AcDbCircle
 10
-0.444888
 20
0.0913346
 30
0.0
 40
0.4541666
100
AcDbArc
 50
281.9999999999997
 51
347.9999999999997
  0
ENDBLK
  5
79
330
75
100
AcDbEntity
  8
0
100
AcDbBlockEnd
  0
BLOCK
  5
7C
330
7A
100
AcDbEntity
  8
0
100
AcDbBlockBegin
  2
_OBLIQUE
 70
     0
 10
0.0
 20
0.0
 30
0.0
  3
_OBLIQUE
  1

  0
LINE
  5
7B
330
7A
100
AcDbEntity
  8
0
 62
     0
100
AcDbLine
 10
-0.5
 20
-0.5
 30
0.0
 11
0.5
 21
0.5
 31
0.0
  0
ENDBLK
  5
7D
330
7A
100
AcDbEntity
  8
0
100
AcDbBlockEnd
  0
BLOCK
  5
7F
330
7E
100
AcDbEntity
  8
0
100
AcDbBlockBegin
  2
_NONE
 70
     0
 10
0.0
 20
0.0
 30
0.0
  3
_NONE
  1

  0
ENDBLK
  5
80
330
7E
100
AcDbEntity
  8
0
100
AcDbBlockEnd
  0
BLOCK
  5
84
330
81
100
AcDbEntity
  8
0
100
AcDbBlockBegin
  2
MARK_OPEN
 70
     0
 10
0.0
 20
0.0
 30
0.0
  3
MARK_OPEN
  1

  0
LINE
  5
82
330
81
100
AcDbEntity
  8
0
 62
     0
100
AcDbLine
 10
0.0
 20
0.0
 30
0.0
 11
-1.0
 21
0.1666666666666667
 31
0.0
  0
LINE
  5
83
330
81
100
AcDbEntity
  8
0
 62
     0
100
AcDbLine
 10
0.0
 20
0.0
 30
0.0
 11
-1.0
 21
-0.1666666666666667
 31
0.0
  0
ENDBLK
  5
85
330
81
100
AcDbEntity
  8
0
100
AcDbBlockEnd
  0
BLOCK
  5
88
330
86
100
AcDbEntity
  8
0
100
AcDbBlockBegin
  2
MARK_ORIGIN
 70
     0
 10
0.0
 20
0.0
 30
0.0
  3
MARK_ORIGIN
  1

  0
CIRCLE
  5
87
330
86
100
AcDbEntity
  8
0
 62
     0
100
AcDbCircle
 10
0.0
 20
0.0
 30
0.0
 40
0.5
  0
ENDBLK
  5
89
330
86
100
AcDbEntity
  8
0
100
AcDbBlockEnd
  0
BLOCK
  5
8C
330
8A
100
AcDbEntity
  8
0
100
AcDbBlockBegin
  2
MARK_DOT
 70
     0
 10
0.0
 20
0.0
 30
0.0
  3
MARK_DOT
  1

  0
LWPOLYLINE
  5
8B
330
8A
100
AcDbEntity
  8
0
 62
     0
100
AcDbPolyline
 90
        2
 70
     1
 43
0.5
 10
-0.25
 20
0.0
 42
1.0
 10
0.25
 20
0.0
 42
1.0
  0
ENDBLK
  5
8D
330
8A
100
AcDbEntity
  8
0
100
AcDbBlockEnd
  0
BLOCK
  5
B8
330
B7
100
AcDbEntity
  8
0
100
AcDbBlockBegin
  2
*G16
 70
     1
 10
0.0
 20
0.0
 30
0.0
  3
*G16
  1

  0
LINE
  5
BA
330
B7
100
AcDbEntity
  8
2
  6
Continuous
 62
     4
370
    20
100
AcDbLine
 10
2393.941028180688
 20
4569.461319016718
 30
0.0
 11
2405.941028180694
 21
4576.389522246987
 31
0.0
  0
LINE
  5
BB
330
B7
100
AcDbEntity
  8
2
  6
Continuous
 62
     4
370
    20
100
AcDbLine
 10
2405.941028180694
 20
4576.389522246987
 30
0.0
 11
2405.941028180701
 21
4590.24592870754
 31
0.0
  0
LINE
  5
BC
330
B7
100
AcDbEntity
  8
2
  6
Continuous
 62
     4
370
    20
100
AcDbLine
 10
2405.941028180701
 20
4590.24592870754
 30
0.0
 11
2393.941028180706
 21
4597.174131937823
 31
0.0
  0
LINE
  5
BD
330
B7
100
AcDbEntity
  8
2
  6
Continuous
 62
     4
370
    20
100
AcDbLine
 10
2393.941028180706
 20
4597.174131937823
 30
0.0
 11
2381.941028180703
 21
4590.245928707554
 31
0.0
  0
LINE
  5
BE
330
B7
100
AcDbEntity
  8
2
  6
Continuous
 62
     4
370
    20
100
AcDbLine
 10
2381.941028180703
 20
4590.245928707554
 30
0.0
 11
2381.941028180694
 21
4576.389522247002
 31
0.0
  0
LINE
  5
BF
330
B7
100
AcDbEntity
  8
2
  6
Continuous
 62
     4
370
    20
100
AcDbLine
 10
2381.941028180694
 20
4576.389522247002
 30
0.0
 11
2393.941028180688
 21
4569.461319016718
 31
0.0
  0
ENDBLK
  5
B9
330
B7
100
AcDbEntity
  8
0
100
AcDbBlockEnd
  0
BLOCK
  5
C7
330
C6
100
AcDbEntity
  8
0
100
AcDbBlockBegin
  2
*G17
 70
     1
 10
0.0
 20
0.0
 30
0.0
  3
*G17
  1

  0
LINE
  5
C9
330
C6
100
AcDbEntity
  8
2
  6
Continuous
 62
     4
370
    20
100
AcDbLine
 10
1823.941028180706
 20
4569.461319016718
 30
0.0
 11
1811.9410281807
 21
4576.389522246987
 31
0.0
  0
LINE
  5
CA
330
C6
100
AcDbEntity
  8
2
  6
Continuous
 62
     4
370
    20
100
AcDbLine
 10
1811.9410281807
 20
4576.389522246987
 30
0.0
 11
1811.941028180693
 21
4590.24592870754
 31
0.0
  0
LINE
  5
CB
330
C6
100
AcDbEntity
  8
2
  6
Continuous
 62
     4
370
    20
100
AcDbLine
 10
1811.941028180693
 20
4590.24592870754
 30
0.0
 11
1823.941028180688
 21
4597.174131937823
 31
0.0
  0
LINE
  5
CC
330
C6
100
AcDbEntity
  8
2
  6
Continuous
 62
     4
370
    20
100
AcDbLine
 10
1823.941028180688
 20
4597.174131937823
 30
0.0
 11
1835.941028180691
 21
4590.245928707554
 31
0.0
  0
LINE
  5
CD
330
C6
100
AcDbEntity
  8
2
  6
Continuous
 62
     4
370
    20
100
AcDbLine
 10
1835.941028180691
 20
4590.245928707554
 30
0.0
 11
1835.9410281807
 21
4576.389522247002
 31
0.0
  0
LINE
  5
CE
330
C6
100
AcDbEntity
  8
2
  6
Continuous
 62
     4
370
    20
100
AcDbLine
 10
1835.9410281807
 20
4576.389522247002
 30
0.0
 11
1823.941028180706
 21
4569.461319016718
 31
0.0
  0
ENDBLK
  5
C8
330
C6
100
AcDbEntity
  8
0
100
AcDbBlockEnd
  0
BLOCK
  5
D6
330
D5
100
AcDbEntity
  8
0
100
AcDbBlockBegin
  2
*G18
 70
     1
 10
0.0
 20
0.0
 30
0.0
  3
*G18
  1

  0
LINE
  5
D8
330
D5
100
AcDbEntity
  8
2
  6
Continuous
 62
     4
370
    20
100
AcDbLine
 10
2393.941028180688
 20
5122.174131937823
 30
0.0
 11
2405.941028180694
 21
5115.245928707554
 31
0.0
  0
LINE
  5
D9
330
D5
100
AcDbEntity
  8
2
  6
Continuous
 62
     4
370
    20
100
AcDbLine
 10
2405.941028180694
 20
5115.245928707554
 30
0.0
 11
2405.941028180701
 21
5101.389522247002
 31
0.0
  0
LINE
  5
DA
330
D5
100
AcDbEntity
  8
2
  6
Continuous
 62
     4
370
    20
100
AcDbLine
 10
2405.941028180701
 20
5101.389522247002
 30
0.0
 11
2393.941028180706
 21
5094.461319016718
 31
0.0
  0
LINE
  5
DB
330
D5
100
AcDbEntity
  8
2
  6
Continuous
 62
     4
370
    20
100
AcDbLine
 10
2393.941028180706
 20
5094.461319016718
 30
0.0
 11
2381.941028180703
 21
5101.389522246987
 31
0.0
  0
LINE
  5
DC
330
D5
100
AcDbEntity
  8
2
  6
Continuous
 62
     4
370
    20
100
AcDbLine
 10
2381.941028180703
 20
5101.389522246987
 30
0.0
 11
2381.941028180694
 21
5115.24592870754
 31
0.0
  0
LINE
  5
DD
330
D5
100
AcDbEntity
  8
2
  6
Continuous
 62
     4
370
    20
100
AcDbLine
 10
2381.941028180694
 20
5115.24592870754
 30
0.0
 11
2393.941028180688
 21
5122.174131937823
 31
0.0
  0
ENDBLK
  5
D7
330
D5
100
AcDbEntity
  8
0
100
AcDbBlockEnd
  0
BLOCK
  5
E5
330
E4
100
AcDbEntity
  8
0
100
AcDbBlockBegin
  2
*G19
 70
     1
 10
0.0
 20
0.0
 30
0.0
  3
*G19
  1

  0
LINE
  5
E7
330
E4
100
AcDbEntity
  8
2
  6
Continuous
 62
     4
370
    20
100
AcDbLine
 10
1823.941028180706
 20
5122.174131937823
 30
0.0
 11
1811.9410281807
 21
5115.245928707554
 31
0.0
  0
LINE
  5
E8
330
E4
100
AcDbEntity
  8
2
  6
Continuous
 62
     4
370
    20
100
AcDbLine
 10
1811.9410281807
 20
5115.245928707554
 30
0.0
 11
1811.941028180693
 21
5101.389522247002
 31
0.0
  0
LINE
  5
E9
330
E4
100
AcDbEntity
  8
2
  6
Continuous
 62
     4
370
    20
100
AcDbLine
 10
1811.941028180693
 20
5101.389522247002
 30
0.0
 11
1823.941028180688
 21
5094.461319016718
 31
0.0
  0
LINE
  5
EA
330
E4
100
AcDbEntity
  8
2
  6
Continuous
 62
     4
370
    20
100
AcDbLine
 10
1823.941028180688
 20
5094.461319016718
 30
0.0
 11
1835.941028180691
 21
5101.389522246987
 31
0.0
  0
LINE
  5
EB
330
E4
100
AcDbEntity
  8
2
  6
Continuous
 62
     4
370
    20
100
AcDbLine
 10
1835.941028180691
 20
5101.389522246987
 30
0.0
 11
1835.9410281807
 21
5115.24592870754
 31
0.0
  0
LINE
  5
EC
330
E4
100
AcDbEntity
  8
2
  6
Continuous
 62
     4
370
    20
100
AcDbLine
 10
1835.9410281807
 20
5115.24592870754
 30
0.0
 11
1823.941028180706
 21
5122.174131937823
 31
0.0
  0
ENDBLK
  5
E6
330
E4
100
AcDbEntity
  8
0
100
AcDbBlockEnd
  0
BLOCK
  5
10A
330
109
100
AcDbEntity
  8
0
100
AcDbBlockBegin
  2
*G20
 70
     1
 10
0.0
 20
0.0
 30
0.0
  3
*G20
  1

  0
LINE
  5
10C
330
109
100
AcDbEntity
  8
2
  6
Continuous
 62
     4
370
    20
100
AcDbLine
 10
1788.941028180697
 20
1931.607401382038
 30
0.0
 11
1788.941028180697
 21
2031.607401382038
 31
0.0
  0
LINE
  5
10D
330
109
100
AcDbEntity
  8
2
  6
Continuous
 62
     4
370
    20
100
AcDbLine
 10
1788.941028180697
 20
2031.607401382038
 30
0.0
 11
2428.941028180698
 21
2031.607401382038
 31
0.0
  0
LINE
  5
10E
330
109
100
AcDbEntity
  8
2
  6
Continuous
 62
     4
370
    20
100
AcDbLine
 10
2428.941028180698
 20
2031.607401382038
 30
0.0
 11
2428.941028180698
 21
1931.607401382038
 31
0.0
  0
LINE
  5
10F
330
109
100
AcDbEntity
  8
2
  6
Continuous
 62
     4
370
    20
100
AcDbLine
 10
2428.941028180698
 20
1931.607401382038
 30
0.0
 11
1788.941028180697
 21
1931.607401382038
 31
0.0
  0
ENDBLK
  5
10B
330
109
100
AcDbEntity
  8
0
100
AcDbBlockEnd
  0
BLOCK
  5
14C
330
14B
100
AcDbEntity
  8
0
100
AcDbBlockBegin
  2
*G21
 70
     1
 10
0.0
 20
0.0
 30
0.0
  3
*G21
  1

  0
INSERT
  5
19D
330
14B
100
AcDbEntity
  8
1
100
AcDbBlockReference
  2
*G22
 10
0.0
 20
0.0
 30
0.0
  0
ENDBLK
  5
14D
330
14B
100
AcDbEntity
  8
0
100
AcDbBlockEnd
  0
BLOCK
  5
14F
330
14E
100
AcDbEntity
  8
0
100
AcDbBlockBegin
  2
*G22
 70
     1
 10
0.0
 20
0.0
 30
0.0
  3
*G22
  1

  0
LINE
  5
151
330
14E
100
AcDbEntity
  8
2
  6
Continuous
 62
     4
370
    20
100
AcDbLine
 10
1896.532542236796
 20
2539.257280367699
 30
0.0
 11
1895.932542236796
 21
2539.257280367699
 31
0.0
  0
LINE
  5
152
330
14E
100
AcDbEntity
  8
2
  6
Continuous
 62
     4
370
    20
100
AcDbLine
 10
1896.532542236796
 20
2541.257280367699
 30
0.0
 11
1896.032542236796
 21
2541.257280367699
 31
0.0
  0
LINE
  5
153
330
14E
100
AcDbEntity
  8
2
  6
Continuous
 62
     4
370
    20
100
AcDbLine
 10
1896.032542236796
 20
2541.257280367699
 30
0.0
 11
1896.032542236796
 21
2539.957280367699
 31
0.0
  0
LINE
  5
154
330
14E
100
AcDbEntity
  8
2
  6
Continuous
 62
     4
370
    20
100
AcDbLine
 10
1895.132542236795
 20
2541.257280367699
 30
0.0
 11
1896.032542236796
 21
2539.957280367699
 31
0.0
  0
LINE
  5
155
330
14E
100
AcDbEntity
  8
2
  6
Continuous
 62
     4
370
    20
100
AcDbLine
 10
1895.132542236795
 20
2541.257280367699
 30
0.0
 11
1894.532542236796
 21
2541.257280367699
 31
0.0
  0
LINE
  5
156
330
14E
100
AcDbEntity
  8
2
  6
Continuous
 62
     4
370
    20
100
AcDbLine
 10
1894.532542236796
 20
2541.257280367699
 30
0.0
 11
1894.532542236796
 21
2539.257280367699
 31
0.0
  0
LINE
  5
157
330
14E
100
AcDbEntity
  8
2
  6
Continuous
 62
     4
370
    20
100
AcDbLine
 10
1894.532542236796
 20
2539.257280367699
 30
0.0
 11
1895.032542236796
 21
2539.257280367699
 31
0.0
  0
LINE
  5
158
330
14E
100
AcDbEntity
  8
2
  6
Continuous
 62
     4
370
    20
100
AcDbLine
 10
1895.032542236796
 20
2539.257280367699
 30
0.0
 11
1895.032542236796
 21
2540.5572803677
 31
0.0
  0
LINE
  5
159
330
14E
100
AcDbEntity
  8
2
  6
Continuous
 62
     4
370
    20
100
AcDbLine
 10
1894.432542236796
 20
2539.257280367699
 30
0.0
 11
1894.432542236796
 21
2539.757280367699
 31
0.0
  0
LINE
  5
15A
330
14E
100
AcDbEntity
  8
2
  6
Continuous
 62
     4
370
    20
100
AcDbLine
 10
1892.632542236795
 20
2540.457280367699
 30
0.0
 11
1892.632542236795
 21
2540.6572803677
 31
0.0
  0
LINE
  5
15B
330
14E
100
AcDbEntity
  8
2
  6
Continuous
 62
     4
370
    20
100
AcDbLine
 10
1892.132542236795
 20
2540.457280367699
 30
0.0
 11
1892.632542236795
 21
2540.457280367699
 31
0.0
  0
LINE
  5
15C
330
14E
100
AcDbEntity
  8
2
  6
Continuous
 62
     4
370
    20
100
AcDbLine
 10
1892.132542236795
 20
2540.5572803677
 30
0.0
 11
1892.132542236795
 21
2540.457280367699
 31
0.0
  0
LINE
  5
15D
330
14E
100
AcDbEntity
  8
2
  6
Continuous
 62
     4
370
    20
100
AcDbLine
 10
1891.332542236795
 20
2540.757280367699
 30
0.0
 11
1891.932542236796
 21
2540.757280367699
 31
0.0
  0
LINE
  5
15E
330
14E
100
AcDbEntity
  8
2
  6
Continuous
 62
     4
370
    20
100
AcDbLine
 10
1891.132542236795
 20
2539.957280367699
 30
0.0
 11
1891.132542236795
 21
2540.5572803677
 31
0.0
  0
LINE
  5
15F
330
14E
100
AcDbEntity
  8
2
  6
Continuous
 62
     4
370
    20
100
AcDbLine
 10
1891.932542236796
 20
2539.757280367699
 30
0.0
 11
1891.332542236795
 21
2539.757280367699
 31
0.0
  0
LINE
  5
160
330
14E
100
AcDbEntity
  8
2
  6
Continuous
 62
     4
370
    20
100
AcDbLine
 10
1891.632542236795
 20
2539.957280367699
 30
0.0
 11
1892.132542236795
 21
2539.957280367699
 31
0.0
  0
LINE
  5
161
330
14E
100
AcDbEntity
  8
2
  6
Continuous
 62
     4
370
    20
100
AcDbLine
 10
1891.632542236795
 20
2540.357280367699
 30
0.0
 11
1891.632542236795
 21
2539.957280367699
 31
0.0
  0
LINE
  5
162
330
14E
100
AcDbEntity
  8
2
  6
Continuous
 62
     4
370
    20
100
AcDbLine
 10
1892.732542236795
 20
2539.257280367699
 30
0.0
 11
1894.432542236796
 21
2539.257280367699
 31
0.0
  0
ARC
  5
163
330
14E
100
AcDbEntity
  8
2
  6
Continuous
 62
     4
370
    20
100
AcDbCircle
 10
1892.032542236796
 20
2539.857280367699
 30
0.0
 40
0.5999999999999943
100
AcDbArc
 50
269.9999999999998
 51
0.0
  0
ARC
  5
164
330
14E
100
AcDbEntity
  8
2
  6
Continuous
 62
     4
370
    20
100
AcDbCircle
 10
1891.232542236795
 20
2539.857280367699
 30
0.0
 40
0.5999999999999943
100
AcDbArc
 50
179.9999999999998
 51
269.9999999999998
  0
ARC
  5
165
330
14E
100
AcDbEntity
  8
2
  6
Continuous
 62
     4
370
    20
100
AcDbCircle
 10
1891.932542236796
 20
2540.5572803677
 30
0.0
 40
0.2000000000000028
100
AcDbArc
 50
0.0
 51
89.99999999999991
  0
ARC
  5
166
330
14E
100
AcDbEntity
  8
2
  6
Continuous
 62
     4
370
    20
100
AcDbCircle
 10
1892.032542236796
 20
2540.6572803677
 30
0.0
 40
0.5999999999999943
100
AcDbArc
 50
0.0
 51
89.99999999999991
  0
LINE
  5
167
330
14E
100
AcDbEntity
  8
2
  6
Continuous
 62
     4
370
    20
100
AcDbLine
 10
1892.732542236795
 20
2541.257280367699
 30
0.0
 11
1892.732542236795
 21
2539.257280367699
 31
0.0
  0
LINE
  5
168
330
14E
100
AcDbEntity
  8
2
  6
Continuous
 62
     4
370
    20
100
AcDbLine
 10
1894.432542236796
 20
2541.257280367699
 30
0.0
 11
1892.732542236795
 21
2541.257280367699
 31
0.0
  0
LINE
  5
169
330
14E
100
AcDbEntity
  8
2
  6
Continuous
 62
     4
370
    20
100
AcDbLine
 10
1896.532542236796
 20
2541.257280367699
 30
0.0
 11
1896.532542236796
 21
2539.257280367699
 31
0.0
  0
LINE
  5
16A
330
14E
100
AcDbEntity
  8
2
  6
Continuous
 62
     4
370
    20
100
AcDbLine
 10
1889.132542236795
 20
2540.357280367699
 30
0.0
 11
1889.832542236795
 21
2541.257280367699
 31
0.0
  0
LINE
  5
16B
330
14E
100
AcDbEntity
  8
2
  6
Continuous
 62
     4
370
    20
100
AcDbLine
 10
1890.032542236796
 20
2539.257280367699
 30
0.0
 11
1890.532542236796
 21
2539.257280367699
 31
0.0
  0
LINE
  5
16C
330
14E
100
AcDbEntity
  8
2
  6
Continuous
 62
     4
370
    20
100
AcDbLine
 10
1889.832542236795
 20
2541.257280367699
 30
0.0
 11
1889.232542236795
 21
2541.257280367699
 31
0.0
  0
LINE
  5
16D
330
14E
100
AcDbEntity
  8
2
  6
Continuous
 62
     4
370
    20
100
AcDbLine
 10
1889.232542236795
 20
2541.257280367699
 30
0.0
 11
1888.532542236796
 21
2540.357280367699
 31
0.0
  0
ARC
  5
16E
330
14E
100
AcDbEntity
  8
2
  6
Continuous
 62
     4
370
    20
100
AcDbCircle
 10
1891.332542236795
 20
2539.957280367699
 30
0.0
 40
0.2000000000000028
100
AcDbArc
 50
179.9999999999998
 51
269.9999999999998
  0
LINE
  5
16F
330
14E
100
AcDbEntity
  8
2
  6
Continuous
 62
     4
370
    20
100
AcDbLine
 10
1890.532542236796
 20
2541.257280367699
 30
0.0
 11
1890.032542236796
 21
2541.257280367699
 31
0.0
  0
LINE
  5
170
330
14E
100
AcDbEntity
  8
2
  6
Continuous
 62
     4
370
    20
100
AcDbLine
 10
1889.332542236795
 20
2539.257280367699
 30
0.0
 11
1889.932542236796
 21
2539.257280367699
 31
0.0
  0
ARC
  5
171
330
14E
100
AcDbEntity
  8
2
  6
Continuous
 62
     4
370
    20
100
AcDbCircle
 10
1891.232542236795
 20
2540.6572803677
 30
0.0
 40
0.5999999999999943
100
AcDbArc
 50
89.99999999999991
 51
179.9999999999998
  0
LINE
  5
172
330
14E
100
AcDbEntity
  8
2
  6
Continuous
 62
     4
370
    20
100
AcDbLine
 10
1889.932542236796
 20
2539.257280367699
 30
0.0
 11
1889.132542236795
 21
2540.357280367699
 31
0.0
  0
LINE
  5
173
330
14E
100
AcDbEntity
  8
2
  6
Continuous
 62
     4
370
    20
100
AcDbLine
 10
1890.532542236796
 20
2539.257280367699
 30
0.0
 11
1890.532542236796
 21
2541.257280367699
 31
0.0
  0
LINE
  5
174
330
14E
100
AcDbEntity
  8
2
  6
Continuous
 62
     4
370
    20
100
AcDbLine
 10
1888.532542236796
 20
2541.257280367699
 30
0.0
 11
1888.032542236796
 21
2541.257280367699
 31
0.0
  0
LINE
  5
175
330
14E
100
AcDbEntity
  8
2
  6
Continuous
 62
     4
370
    20
100
AcDbLine
 10
1888.532542236796
 20
2540.357280367699
 30
0.0
 11
1889.332542236795
 21
2539.257280367699
 31
0.0
  0
LINE
  5
176
330
14E
100
AcDbEntity
  8
2
  6
Continuous
 62
     4
370
    20
100
AcDbLine
 10
1887.344542236796
 20
2539.5572803677
 30
0.0
 11
1887.452542236796
 21
2539.257280367699
 31
0.0
  0
LINE
  5
177
330
14E
100
AcDbEntity
  8
2
  6
Continuous
 62
     4
370
    20
100
AcDbLine
 10
1893.232542236795
 20
2539.757280367699
 30
0.0
 11
1893.232542236795
 21
2540.0572803677
 31
0.0
  0
LINE
  5
178
330
14E
100
AcDbEntity
  8
2
  6
Continuous
 62
     4
370
    20
100
AcDbLine
 10
1894.432542236796
 20
2539.757280367699
 30
0.0
 11
1893.232542236795
 21
2539.757280367699
 31
0.0
  0
LINE
  5
179
330
14E
100
AcDbEntity
  8
2
  6
Continuous
 62
     4
370
    20
100
AcDbLine
 10
1886.932542236796
 20
2540.7017253677
 30
0.0
 11
1887.171742236796
 21
2540.037280367699
 31
0.0
  0
LINE
  5
17A
330
14E
100
AcDbEntity
  8
2
  6
Continuous
 62
     4
370
    20
100
AcDbLine
 10
1887.952542236796
 20
2539.257280367699
 30
0.0
 11
1887.452542236796
 21
2539.257280367699
 31
0.0
  0
LINE
  5
17B
330
14E
100
AcDbEntity
  8
2
  6
Continuous
 62
     4
370
    20
100
AcDbLine
 10
1886.932542236796
 20
2540.7017253677
 30
0.0
 11
1886.693342236796
 21
2540.037280367699
 31
0.0
  0
ARC
  5
17C
330
14E
100
AcDbEntity
  8
2
  6
Continuous
 62
     4
370
    20
100
AcDbCircle
 10
1891.932542236796
 20
2539.957280367699
 30
0.0
 40
0.2000000000000028
100
AcDbArc
 50
269.9999999999998
 51
0.0
  0
LINE
  5
17D
330
14E
100
AcDbEntity
  8
2
  6
Continuous
 62
     4
370
    20
100
AcDbLine
 10
1888.532542236796
 20
2539.257280367699
 30
0.0
 11
1888.532542236796
 21
2541.257280367699
 31
0.0
  0
LINE
  5
17E
330
14E
100
AcDbEntity
  8
2
  6
Continuous
 62
     4
370
    20
100
AcDbLine
 10
1885.912542236795
 20
2539.257280367699
 30
0.0
 11
1886.412542236795
 21
2539.257280367699
 31
0.0
  0
LINE
  5
17F
330
14E
100
AcDbEntity
  8
2
  6
Continuous
 62
     4
370
    20
100
AcDbLine
 10
1886.632542236795
 20
2541.257280367699
 30
0.0
 11
1887.232542236795
 21
2541.257280367699
 31
0.0
  0
LINE
  5
180
330
14E
100
AcDbEntity
  8
2
  6
Continuous
 62
     4
370
    20
100
AcDbLine
 10
1887.232542236795
 20
2541.257280367699
 30
0.0
 11
1887.952542236796
 21
2539.257280367699
 31
0.0
  0
LINE
  5
181
330
14E
100
AcDbEntity
  8
2
  6
Continuous
 62
     4
370
    20
100
AcDbLine
 10
1886.632542236795
 20
2541.257280367699
 30
0.0
 11
1885.912542236795
 21
2539.257280367699
 31
0.0
  0
LINE
  5
182
330
14E
100
AcDbEntity
  8
2
  6
Continuous
 62
     4
370
    20
100
AcDbLine
 10
1890.032542236796
 20
2541.257280367699
 30
0.0
 11
1890.032542236796
 21
2539.257280367699
 31
0.0
  0
LINE
  5
183
330
14E
100
AcDbEntity
  8
2
  6
Continuous
 62
     4
370
    20
100
AcDbLine
 10
1895.032542236796
 20
2540.5572803677
 30
0.0
 11
1895.932542236796
 21
2539.257280367699
 31
0.0
  0
LINE
  5
184
330
14E
100
AcDbEntity
  8
2
  6
Continuous
 62
     4
370
    20
100
AcDbLine
 10
1886.693342236796
 20
2540.037280367699
 30
0.0
 11
1887.171742236796
 21
2540.037280367699
 31
0.0
  0
LINE
  5
185
330
14E
100
AcDbEntity
  8
2
  6
Continuous
 62
     4
370
    20
100
AcDbLine
 10
1886.520542236795
 20
2539.5572803677
 30
0.0
 11
1886.412542236795
 21
2539.257280367699
 31
0.0
  0
LINE
  5
186
330
14E
100
AcDbEntity
  8
2
  6
Continuous
 62
     4
370
    20
100
AcDbLine
 10
1887.344542236796
 20
2539.5572803677
 30
0.0
 11
1886.520542236795
 21
2539.5572803677
 31
0.0
  0
LINE
  5
187
330
14E
100
AcDbEntity
  8
2
  6
Continuous
 62
     4
370
    20
100
AcDbLine
 10
1892.032542236796
 20
2541.257280367699
 30
0.0
 11
1891.232542236795
 21
2541.257280367699
 31
0.0
  0
LINE
  5
188
330
14E
100
AcDbEntity
  8
2
  6
Continuous
 62
     4
370
    20
100
AcDbLine
 10
1886.432542236796
 20
2540.8172803677
 30
0.0
 11
1886.432542236796
 21
2541.257280367699
 31
0.0
  0
LINE
  5
189
330
14E
100
AcDbEntity
  8
2
  6
Continuous
 62
     4
370
    20
100
AcDbLine
 10
1885.732542236795
 20
2540.8172803677
 30
0.0
 11
1886.432542236796
 21
2540.8172803677
 31
0.0
  0
LINE
  5
18A
330
14E
100
AcDbEntity
  8
2
  6
Continuous
 62
     4
370
    20
100
AcDbLine
 10
1885.732542236795
 20
2539.257280367699
 30
0.0
 11
1885.732542236795
 21
2540.8172803677
 31
0.0
  0
LINE
  5
18B
330
14E
100
AcDbEntity
  8
2
  6
Continuous
 62
     4
370
    20
100
AcDbLine
 10
1885.232542236795
 20
2539.257280367699
 30
0.0
 11
1885.732542236795
 21
2539.257280367699
 31
0.0
  0
LINE
  5
18C
330
14E
100
AcDbEntity
  8
2
  6
Continuous
 62
     4
370
    20
100
AcDbLine
 10
1885.232542236795
 20
2540.8172803677
 30
0.0
 11
1885.232542236795
 21
2539.257280367699
 31
0.0
  0
LINE
  5
18D
330
14E
100
AcDbEntity
  8
2
  6
Continuous
 62
     4
370
    20
100
AcDbLine
 10
1884.532542236796
 20
2540.8172803677
 30
0.0
 11
1885.232542236795
 21
2540.8172803677
 31
0.0
  0
LINE
  5
18E
330
14E
100
AcDbEntity
  8
2
  6
Continuous
 62
     4
370
    20
100
AcDbLine
 10
1884.532542236796
 20
2541.257280367699
 30
0.0
 11
1884.532542236796
 21
2540.8172803677
 31
0.0
  0
LINE
  5
18F
330
14E
100
AcDbEntity
  8
2
  6
Continuous
 62
     4
370
    20
100
AcDbLine
 10
1886.432542236796
 20
2541.257280367699
 30
0.0
 11
1884.532542236796
 21
2541.257280367699
 31
0.0
  0
LINE
  5
190
330
14E
100
AcDbEntity
  8
2
  6
Continuous
 62
     4
370
    20
100
AcDbLine
 10
1888.032542236796
 20
2539.257280367699
 30
0.0
 11
1888.532542236796
 21
2539.257280367699
 31
0.0
  0
LINE
  5
191
330
14E
100
AcDbEntity
  8
2
  6
Continuous
 62
     4
370
    20
100
AcDbLine
 10
1888.032542236796
 20
2541.257280367699
 30
0.0
 11
1888.032542236796
 21
2539.257280367699
 31
0.0
  0
LINE
  5
192
330
14E
100
AcDbEntity
  8
2
  6
Continuous
 62
     4
370
    20
100
AcDbLine
 10
1890.632542236795
 20
2540.6572803677
 30
0.0
 11
1890.632542236795
 21
2539.857280367699
 31
0.0
  0
ARC
  5
193
330
14E
100
AcDbEntity
  8
2
  6
Continuous
 62
     4
370
    20
100
AcDbCircle
 10
1891.332542236795
 20
2540.5572803677
 30
0.0
 40
0.2000000000000028
100
AcDbArc
 50
89.99999999999991
 51
179.9999999999998
  0
LINE
  5
194
330
14E
100
AcDbEntity
  8
2
  6
Continuous
 62
     4
370
    20
100
AcDbLine
 10
1891.232542236795
 20
2539.257280367699
 30
0.0
 11
1892.032542236796
 21
2539.257280367699
 31
0.0
  0
LINE
  5
195
330
14E
100
AcDbEntity
  8
2
  6
Continuous
 62
     4
370
    20
100
AcDbLine
 10
1893.232542236795
 20
2540.0572803677
 30
0.0
 11
1894.332542236795
 21
2540.0572803677
 31
0.0
  0
LINE
  5
196
330
14E
100
AcDbEntity
  8
2
  6
Continuous
 62
     4
370
    20
100
AcDbLine
 10
1894.332542236795
 20
2540.0572803677
 30
0.0
 11
1894.332542236795
 21
2540.507280367699
 31
0.0
  0
LINE
  5
197
330
14E
100
AcDbEntity
  8
2
  6
Continuous
 62
     4
370
    20
100
AcDbLine
 10
1894.332542236795
 20
2540.507280367699
 30
0.0
 11
1893.232542236795
 21
2540.507280367699
 31
0.0
  0
LINE
  5
198
330
14E
100
AcDbEntity
  8
2
  6
Continuous
 62
     4
370
    20
100
AcDbLine
 10
1893.232542236795
 20
2540.507280367699
 30
0.0
 11
1893.232542236795
 21
2540.8172803677
 31
0.0
  0
LINE
  5
199
330
14E
100
AcDbEntity
  8
2
  6
Continuous
 62
     4
370
    20
100
AcDbLine
 10
1893.232542236795
 20
2540.8172803677
 30
0.0
 11
1894.432542236796
 21
2540.8172803677
 31
0.0
  0
LINE
  5
19A
330
14E
100
AcDbEntity
  8
2
  6
Continuous
 62
     4
370
    20
100
AcDbLine
 10
1894.432542236796
 20
2540.8172803677
 30
0.0
 11
1894.432542236796
 21
2541.257280367699
 31
0.0
  0
LINE
  5
19B
330
14E
100
AcDbEntity
  8
2
  6
Continuous
 62
     4
370
    20
100
AcDbLine
 10
1892.632542236795
 20
2539.857280367699
 30
0.0
 11
1892.632542236795
 21
2540.357280367699
 31
0.0
  0
LINE
  5
19C
330
14E
100
AcDbEntity
  8
2
  6
Continuous
 62
     4
370
    20
100
AcDbLine
 10
1892.632542236795
 20
2540.357280367699
 30
0.0
 11
1891.632542236795
 21
2540.357280367699
 31
0.0
  0
ENDBLK
  5
150
330
14E
100
AcDbEntity
  8
0
100
AcDbBlockEnd
  0
BLOCK
  5
1A8
330
1A7
100
AcDbEntity
  8
0
100
AcDbBlockBegin
  2
*G23
 70
     1
 10
0.0
 20
0.0
 30
0.0
  3
*G23
  1

  0
ARC
  5
1AA
330
1A7
100
AcDbEntity
  8
2
  6
Continuous
 62
     4
370
    20
100
AcDbCircle
 10
1640.177920977799
 20
3280.6303098066
 30
0.0
 40
114.8468443292827
100
AcDbArc
 50
263.3522709877911
 51
355.8445966718888
  0
LINE
  5
1AB
330
1A7
100
AcDbEntity
  8
2
  6
Continuous
 62
     4
370
    20
100
AcDbLine
 10
1626.882719886247
 20
3166.555618133425
 30
0.0
 11
1657.214191589423
 21
3152.411820595123
 31
0.0
  0
LINE
  5
1AC
330
1A7
100
AcDbEntity
  8
2
  6
Continuous
 62
     4
370
    20
100
AcDbLine
 10
1626.882719886247
 20
3166.555618133425
 30
0.0
 11
1657.726830068082
 21
3177.781956142041
 31
0.0
  0
ENDBLK
  5
1A9
330
1A7
100
AcDbEntity
  8
0
100
AcDbBlockEnd
  0
BLOCK
  5
1AF
330
1AE
100
AcDbEntity
  8
0
100
AcDbBlockBegin
  2
*G24
 70
     1
 10
0.0
 20
0.0
 30
0.0
  3
*G24
  1

  0
ARC
  5
1B1
330
1AE
100
AcDbEntity
  8
2
  6
Continuous
 62
     4
370
    20
100
AcDbCircle
 10
2577.704135383595
 20
3280.6303098066
 30
0.0
 40
114.8468443292827
100
AcDbArc
 50
184.1554033281105
 51
276.6477290122082
  0
LINE
  5
1B2
330
1AE
100
AcDbEntity
  8
2
  6
Continuous
 62
     4
370
    20
100
AcDbLine
 10
2590.999336475147
 20
3166.555618133425
 30
0.0
 11
2560.667864771971
 21
3152.411820595123
 31
0.0
  0
LINE
  5
1B3
330
1AE
100
AcDbEntity
  8
2
  6
Continuous
 62
     4
370
    20
100
AcDbLine
 10
2590.999336475147
 20
3166.555618133425
 30
0.0
 11
2560.155226293312
 21
3177.781956142041
 31
0.0
  0
ENDBLK
  5
1B0
330
1AE
100
AcDbEntity
  8
0
100
AcDbBlockEnd
  0
BLOCK
  5
1B7
330
1B6
100
AcDbEntity
  8
0
100
AcDbBlockBegin
  2
Dim1
 70
     0
 10
0.0
 20
0.0
 30
0.0
  3
Dim1
  1

  0
LINE
  5
1B9
330
1B6
100
AcDbEntity
  8
2
  6
Continuous
 62
     4
370
    20
100
AcDbLine
 10
1788.941028180697
 20
1891.607401382038
 30
0.0
 11
1788.941028180697
 21
1538.618334609721
 31
0.0
  0
LINE
  5
1BA
330
1B6
100
AcDbEntity
  8
2
  6
Continuous
 62
     4
370
    20
100
AcDbLine
 10
2428.941028180698
 20
1891.607401382038
 30
0.0
 11
2428.941028180696
 21
1538.618334609721
 31
0.0
  0
LINE
  5
1BB
330
1B6
100
AcDbEntity
  8
2
  6
Continuous
 62
     4
370
    20
100
AcDbLine
 10
1788.941028180697
 20
1558.618334609721
 30
0.0
 11
2428.941028180696
 21
1558.618334609721
 31
0.0
  0
MTEXT
  5
1BC
330
1B6
100
AcDbEntity
  8
2
  6
Continuous
 62
     4
370
     9
100
AcDbMText
 10
2108.941028180696
 20
1558.618334609721
 30
0.0
 40
60.0
 41
756.5999999999999
 46
60.0
 71
     8
 72
     1
  1
640
  7
ＭＳ ゴシック
 73
     1
 44
1.0
1001
ACAD
1000
ACAD_MTEXT_DEFINED_HEIGHT_BEGIN
1070
    46
1040
60.0
1000
ACAD_MTEXT_DEFINED_HEIGHT_END
  0
INSERT
  5
1BD
330
1B6
100
AcDbEntity
  8
2
  6
Continuous
 62
     4
370
    20
100
AcDbBlockReference
  2
_OPEN
 10
1788.941028180697
 20
1558.618334609721
 30
0.0
 41
20.0
 42
20.0
 43
20.0
 50
179.9999999999998
  0
INSERT
  5
1BE
330
1B6
100
AcDbEntity
  8
2
  6
Continuous
 62
     4
370
    20
100
AcDbBlockReference
  2
_OPEN
 10
2428.941028180696
 20
1558.618334609721
 30
0.0
 41
20.0
 42
20.0
 43
20.0
 50
359.9999999999997
  0
ENDBLK
  5
1B8
330
1B6
100
AcDbEntity
  8
0
100
AcDbBlockEnd
  0
BLOCK
  5
1C1
330
1C0
100
AcDbEntity
  8
0
100
AcDbBlockBegin
  2
Dim2
 70
     0
 10
0.0
 20
0.0
 30
0.0
  3
Dim2
  1

  0
LINE
  5
1C3
330
1C0
100
AcDbEntity
  8
2
  6
Continuous
 62
     4
370
    20
100
AcDbLine
 10
1788.941028180697
 20
1891.607401382038
 30
0.0
 11
1788.941028180697
 21
1650.39478171551
 31
0.0
  0
LINE
  5
1C4
330
1C0
100
AcDbEntity
  8
2
  6
Continuous
 62
     4
370
    20
100
AcDbLine
 10
1858.941028180697
 20
1881.915416067645
 30
0.0
 11
1858.941028180697
 21
1650.39478171551
 31
0.0
  0
LINE
  5
1C5
330
1C0
100
AcDbEntity
  8
2
  6
Continuous
 62
     4
370
    20
100
AcDbLine
 10
1788.941028180697
 20
1670.39478171551
 30
0.0
 11
1858.941028180697
 21
1670.39478171551
 31
0.0
  0
MTEXT
  5
1C6
330
1C0
100
AcDbEntity
  8
2
  6
Continuous
 62
     4
370
     9
100
AcDbMText
 10
1823.941028180697
 20
1670.39478171551
 30
0.0
 40
60.0
 41
453.3000000000001
 46
60.0
 71
     8
 72
     1
  1
70
  7
ＭＳ ゴシック
 73
     1
 44
1.0
1001
ACAD
1000
ACAD_MTEXT_DEFINED_HEIGHT_BEGIN
1070
    46
1040
60.0
1000
ACAD_MTEXT_DEFINED_HEIGHT_END
  0
INSERT
  5
1C7
330
1C0
100
AcDbEntity
  8
2
  6
Continuous
 62
     4
370
    20
100
AcDbBlockReference
  2
_OPEN
 10
1788.941028180697
 20
1670.39478171551
 30
0.0
 41
20.0
 42
20.0
 43
20.0
 50
179.9999999999998
  0
INSERT
  5
1C8
330
1C0
100
AcDbEntity
  8
2
  6
Continuous
 62
     4
370
    20
100
AcDbBlockReference
  2
_OPEN
 10
1858.941028180697
 20
1670.39478171551
 30
0.0
 41
20.0
 42
20.0
 43
20.0
 50
359.9999999999997
  0
ENDBLK
  5
1C2
330
1C0
100
AcDbEntity
  8
0
100
AcDbBlockEnd
  0
BLOCK
  5
1CB
330
1CA
100
AcDbEntity
  8
0
100
AcDbBlockBegin
  2
Dim3
 70
     0
 10
0.0
 20
0.0
 30
0.0
  3
Dim3
  1

  0
LINE
  5
1CD
330
1CA
100
AcDbEntity
  8
2
  6
Continuous
 62
     4
370
    20
100
AcDbLine
 10
2358.941028180698
 20
1884.204498016535
 30
0.0
 11
2358.941028180698
 21
1650.39478171551
 31
0.0
  0
LINE
  5
1CE
330
1CA
100
AcDbEntity
  8
2
  6
Continuous
 62
     4
370
    20
100
AcDbLine
 10
1858.941028180697
 20
1670.39478171551
 30
0.0
 11
2358.941028180698
 21
1670.39478171551
 31
0.0
  0
MTEXT
  5
1CF
330
1CA
100
AcDbEntity
  8
2
  6
Continuous
 62
     4
370
     9
100
AcDbMText
 10
2108.941028180696
 20
1670.39478171551
 30
0.0
 40
60.0
 41
706.8000000000001
 46
60.0
 71
     8
 72
     1
  1
500
  7
ＭＳ ゴシック
 73
     1
 44
1.0
1001
ACAD
1000
ACAD_MTEXT_DEFINED_HEIGHT_BEGIN
1070
    46
1040
60.0
1000
ACAD_MTEXT_DEFINED_HEIGHT_END
  0
INSERT
  5
1D0
330
1CA
100
AcDbEntity
  8
2
  6
Continuous
 62
     4
370
    20
100
AcDbBlockReference
  2
_OPEN
 10
1858.941028180697
 20
1670.39478171551
 30
0.0
 41
20.0
 42
20.0
 43
20.0
 50
179.9999999999998
  0
INSERT
  5
1D1
330
1CA
100
AcDbEntity
  8
2
  6
Continuous
 62
     4
370
    20
100
AcDbBlockReference
  2
_OPEN
 10
2358.941028180698
 20
1670.39478171551
 30
0.0
 41
20.0
 42
20.0
 43
20.0
 50
359.9999999999997
  0
ENDBLK
  5
1CC
330
1CA
100
AcDbEntity
  8
0
100
AcDbBlockEnd
  0
BLOCK
  5
1D4
330
1D3
100
AcDbEntity
  8
0
100
AcDbBlockBegin
  2
Dim4
 70
     0
 10
0.0
 20
0.0
 30
0.0
  3
Dim4
  1

  0
LINE
  5
1D6
330
1D3
100
AcDbEntity
  8
2
  6
Continuous
 62
     4
370
    20
100
AcDbLine
 10
2428.941028180698
 20
1891.607401382038
 30
0.0
 11
2428.941028180698
 21
1650.39478171551
 31
0.0
  0
LINE
  5
1D7
330
1D3
100
AcDbEntity
  8
2
  6
Continuous
 62
     4
370
    20
100
AcDbLine
 10
2358.941028180698
 20
1670.39478171551
 30
0.0
 11
2428.941028180698
 21
1670.39478171551
 31
0.0
  0
MTEXT
  5
1D8
330
1D3
100
AcDbEntity
  8
2
  6
Continuous
 62
     4
370
     9
100
AcDbMText
 10
2393.941028180699
 20
1670.39478171551
 30
0.0
 40
60.0
 41
453.3000000000001
 46
60.0
 71
     8
 72
     1
  1
70
  7
ＭＳ ゴシック
 73
     1
 44
1.0
1001
ACAD
1000
ACAD_MTEXT_DEFINED_HEIGHT_BEGIN
1070
    46
1040
60.0
1000
ACAD_MTEXT_DEFINED_HEIGHT_END
  0
INSERT
  5
1D9
330
1D3
100
AcDbEntity
  8
2
  6
Continuous
 62
     4
370
    20
100
AcDbBlockReference
  2
_OPEN
 10
2358.941028180698
 20
1670.39478171551
 30
0.0
 41
20.0
 42
20.0
 43
20.0
 50
179.9999999999998
  0
INSERT
  5
1DA
330
1D3
100
AcDbEntity
  8
2
  6
Continuous
 62
     4
370
    20
100
AcDbBlockReference
  2
_OPEN
 10
2428.941028180698
 20
1670.39478171551
 30
0.0
 41
20.0
 42
20.0
 43
20.0
 50
359.9999999999997
  0
ENDBLK
  5
1D5
330
1D3
100
AcDbEntity
  8
0
100
AcDbBlockEnd
  0
BLOCK
  5
1DD
330
1DC
100
AcDbEntity
  8
0
100
AcDbBlockBegin
  2
Dim5
 70
     0
 10
0.0
 20
0.0
 30
0.0
  3
Dim5
  1

  0
LINE
  5
1DF
330
1DC
100
AcDbEntity
  8
2
  6
Continuous
 62
     4
370
    20
100
AcDbLine
 10
1783.941028180697
 20
3471.607401382038
 30
0.0
 11
1783.941028180698
 21
3725.733848717058
 31
0.0
  0
LINE
  5
1E0
330
1DC
100
AcDbEntity
  8
2
  6
Continuous
 62
     4
370
    20
100
AcDbLine
 10
2433.941028180697
 20
3471.607401382038
 30
0.0
 11
2433.941028180697
 21
3725.733848717058
 31
0.0
  0
LINE
  5
1E1
330
1DC
100
AcDbEntity
  8
2
  6
Continuous
 62
     4
370
    20
100
AcDbLine
 10
1783.941028180698
 20
3705.733848717058
 30
0.0
 11
2433.941028180697
 21
3705.733848717058
 31
0.0
  0
MTEXT
  5
1E2
330
1DC
100
AcDbEntity
  8
2
  6
Continuous
 62
     4
370
     9
100
AcDbMText
 10
2108.941028180699
 20
3705.733848717058
 30
0.0
 40
60.0
 41
756.5999999999999
 46
60.0
 71
     8
 72
     1
  1
650
  7
ＭＳ ゴシック
 73
     1
 44
1.0
1001
ACAD
1000
ACAD_MTEXT_DEFINED_HEIGHT_BEGIN
1070
    46
1040
60.0
1000
ACAD_MTEXT_DEFINED_HEIGHT_END
  0
INSERT
  5
1E3
330
1DC
100
AcDbEntity
  8
2
  6
Continuous
 62
     4
370
    20
100
AcDbBlockReference
  2
_OPEN
 10
1783.941028180698
 20
3705.733848717058
 30
0.0
 41
20.0
 42
20.0
 43
20.0
 50
179.9999999999998
  0
INSERT
  5
1E4
330
1DC
100
AcDbEntity
  8
2
  6
Continuous
 62
     4
370
    20
100
AcDbBlockReference
  2
_OPEN
 10
2433.941028180697
 20
3705.733848717058
 30
0.0
 41
20.0
 42
20.0
 43
20.0
 50
359.9999999999997
  0
ENDBLK
  5
1DE
330
1DC
100
AcDbEntity
  8
0
100
AcDbBlockEnd
  0
BLOCK
  5
24D
330
24C
100
AcDbEntity
  8
0
100
AcDbBlockBegin
  2
Dim6
 70
     0
 10
0.0
 20
0.0
 30
0.0
  3
Dim6
  1

  0
LINE
  5
24F
330
24C
100
AcDbEntity
  8
2
  6
Continuous
 62
     4
370
    20
100
AcDbLine
 10
1748.941028180697
 20
1931.607401382038
 30
0.0
 11
1652.319482836548
 21
1931.607401382038
 31
0.0
  0
LINE
  5
250
330
24C
100
AcDbEntity
  8
2
  6
Continuous
 62
     4
370
    20
100
AcDbLine
 10
1748.941028180697
 20
2031.607401382038
 30
0.0
 11
1652.319482836548
 21
2031.607401382038
 31
0.0
  0
LINE
  5
251
330
24C
100
AcDbEntity
  8
2
  6
Continuous
 62
     4
370
    20
100
AcDbLine
 10
1672.319482836548
 20
1851.607401382038
 30
0.0
 11
1672.319482836548
 21
2091.607401382038
 31
0.0
  0
MTEXT
  5
252
330
24C
100
AcDbEntity
  8
2
  6
Continuous
 62
     4
370
     9
100
AcDbMText
 10
1672.319482836548
 20
1981.607401382039
 30
0.0
 40
60.0
 41
606.0000000000001
 46
60.0
 71
     8
 72
     1
  1
100
  7
ＭＳ ゴシック
 11
1.615544574432587E-15
 21
1.0
 31
0.0
 73
     1
 44
1.0
1001
ACAD
1000
ACAD_MTEXT_DEFINED_HEIGHT_BEGIN
1070
    46
1040
60.0
1000
ACAD_MTEXT_DEFINED_HEIGHT_END
  0
INSERT
  5
253
330
24C
100
AcDbEntity
  8
2
  6
Continuous
 62
     4
370
    20
100
AcDbBlockReference
  2
_OPEN
 10
1672.319482836548
 20
1931.607401382038
 30
0.0
 41
20.0
 42
20.0
 43
20.0
 50
89.99999999999959
  0
INSERT
  5
254
330
24C
100
AcDbEntity
  8
2
  6
Continuous
 62
     4
370
    20
100
AcDbBlockReference
  2
_OPEN
 10
1672.319482836548
 20
2031.607401382038
 30
0.0
 41
20.0
 42
20.0
 43
20.0
 50
269.9999999999998
  0
ENDBLK
  5
24E
330
24C
100
AcDbEntity
  8
0
100
AcDbBlockEnd
  0
BLOCK
  5
257
330
256
100
AcDbEntity
  8
0
100
AcDbBlockBegin
  2
Dim7
 70
     0
 10
0.0
 20
0.0
 30
0.0
  3
Dim7
  1

  0
LINE
  5
259
330
256
100
AcDbEntity
  8
2
  6
Continuous
 62
     4
370
    20
100
AcDbLine
 10
1743.941028180697
 20
3431.607401382038
 30
0.0
 11
1568.603256192313
 21
3431.607401382038
 31
0.0
  0
LINE
  5
25A
330
256
100
AcDbEntity
  8
2
  6
Continuous
 62
     4
370
    20
100
AcDbLine
 10
1748.941028180697
 20
1931.607401382038
 30
0.0
 11
1568.603256192313
 21
1931.607401382039
 31
0.0
  0
LINE
  5
25B
330
256
100
AcDbEntity
  8
2
  6
Continuous
 62
     4
370
    20
100
AcDbLine
 10
1588.603256192313
 20
3431.607401382038
 30
0.0
 11
1588.603256192313
 21
1931.607401382039
 31
0.0
  0
MTEXT
  5
25C
330
256
100
AcDbEntity
  8
2
  6
Continuous
 62
     4
370
     9
100
AcDbMText
 10
1588.603256192313
 20
2681.607401382039
 30
0.0
 40
60.0
 41
906.0000000000001
 46
60.0
 71
     8
 72
     1
  1
1500
  7
ＭＳ ゴシック
 11
1.615544574432587E-15
 21
1.0
 31
0.0
 73
     1
 44
1.0
1001
ACAD
1000
ACAD_MTEXT_DEFINED_HEIGHT_BEGIN
1070
    46
1040
60.0
1000
ACAD_MTEXT_DEFINED_HEIGHT_END
  0
INSERT
  5
25D
330
256
100
AcDbEntity
  8
2
  6
Continuous
 62
     4
370
    20
100
AcDbBlockReference
  2
_OPEN
 10
1588.603256192313
 20
3431.607401382038
 30
0.0
 41
20.0
 42
20.0
 43
20.0
 50
89.99999999999959
  0
INSERT
  5
25E
330
256
100
AcDbEntity
  8
2
  6
Continuous
 62
     4
370
    20
100
AcDbBlockReference
  2
_OPEN
 10
1588.603256192313
 20
1931.607401382039
 30
0.0
 41
20.0
 42
20.0
 43
20.0
 50
269.9999999999998
  0
ENDBLK
  5
258
330
256
100
AcDbEntity
  8
0
100
AcDbBlockEnd
  0
BLOCK
  5
262
330
261
100
AcDbEntity
  8
0
100
AcDbBlockBegin
  2
*G32
 70
     1
 10
0.0
 20
0.0
 30
0.0
  3
*G32
  1

  0
LINE
  5
264
330
261
100
AcDbEntity
  8
2
  6
Continuous
 62
     4
370
    20
100
AcDbLine
 10
527.7776380803655
 20
1931.607401382038
 30
0.0
 11
527.7776380803655
 21
2031.607401382038
 31
0.0
  0
LINE
  5
265
330
261
100
AcDbEntity
  8
2
  6
Continuous
 62
     4
370
    20
100
AcDbLine
 10
527.7776380803655
 20
2031.607401382038
 30
0.0
 11
1167.777638080366
 21
2031.607401382038
 31
0.0
  0
LINE
  5
266
330
261
100
AcDbEntity
  8
2
  6
Continuous
 62
     4
370
    20
100
AcDbLine
 10
1167.777638080366
 20
2031.607401382038
 30
0.0
 11
1167.777638080366
 21
1931.607401382038
 31
0.0
  0
LINE
  5
267
330
261
100
AcDbEntity
  8
2
  6
Continuous
 62
     4
370
    20
100
AcDbLine
 10
1167.777638080366
 20
1931.607401382038
 30
0.0
 11
527.7776380803655
 21
1931.607401382038
 31
0.0
  0
ENDBLK
  5
263
330
261
100
AcDbEntity
  8
0
100
AcDbBlockEnd
  0
BLOCK
  5
27D
330
27C
100
AcDbEntity
  8
0
100
AcDbBlockBegin
  2
*G33
 70
     1
 10
0.0
 20
0.0
 30
0.0
  3
*G33
  1

  0
LINE
  5
27F
330
27C
100
AcDbEntity
  8
1
  6
Continuous
 62
     7
370
    20
100
AcDbLine
 10
577.7776380803637
 20
3312.280175631281
 30
0.0
 11
584.150654358282
 21
3305.907159353362
 31
0.0
  0
LINE
  5
280
330
27C
100
AcDbEntity
  8
1
  6
Continuous
 62
     7
370
    20
100
AcDbLine
 10
577.7776380803637
 20
3340.564446878742
 30
0.0
 11
612.4349256057442
 21
3305.907159353362
 31
0.0
  0
LINE
  5
281
330
27C
100
AcDbEntity
  8
1
  6
Continuous
 62
     7
370
    20
100
AcDbLine
 10
577.7776380803637
 20
3368.848718126204
 30
0.0
 11
640.7191968532054
 21
3305.907159353361
 31
0.0
  0
LINE
  5
282
330
27C
100
AcDbEntity
  8
1
  6
Continuous
 62
     7
370
    20
100
AcDbLine
 10
577.7776380803637
 20
3397.132989373666
 30
0.0
 11
669.0034681006675
 21
3305.907159353361
 31
0.0
  0
LINE
  5
283
330
27C
100
AcDbEntity
  8
1
  6
Continuous
 62
     7
370
    20
100
AcDbLine
 10
602.2877393481297
 20
3400.907159353362
 30
0.0
 11
697.2877393481288
 21
3305.907159353361
 31
0.0
  0
LINE
  5
284
330
27C
100
AcDbEntity
  8
1
  6
Continuous
 62
     7
370
    20
100
AcDbLine
 10
630.5720105955909
 20
3400.907159353361
 30
0.0
 11
725.5720105955909
 21
3305.907159353361
 31
0.0
  0
LINE
  5
285
330
27C
100
AcDbEntity
  8
1
  6
Continuous
 62
     7
370
    20
100
AcDbLine
 10
658.856281843053
 20
3400.907159353361
 30
0.0
 11
753.8562818430521
 21
3305.907159353361
 31
0.0
  0
LINE
  5
286
330
27C
100
AcDbEntity
  8
1
  6
Continuous
 62
     7
370
    20
100
AcDbLine
 10
687.1405530905142
 20
3400.907159353361
 30
0.0
 11
782.1405530905142
 21
3305.907159353361
 31
0.0
  0
LINE
  5
287
330
27C
100
AcDbEntity
  8
1
  6
Continuous
 62
     7
370
    20
100
AcDbLine
 10
715.4248243379764
 20
3400.907159353361
 30
0.0
 11
810.4248243379755
 21
3305.90715935336
 31
0.0
  0
LINE
  5
288
330
27C
100
AcDbEntity
  8
1
  6
Continuous
 62
     7
370
    20
100
AcDbLine
 10
743.7090955854376
 20
3400.907159353361
 30
0.0
 11
838.7090955854376
 21
3305.90715935336
 31
0.0
  0
LINE
  5
289
330
27C
100
AcDbEntity
  8
1
  6
Continuous
 62
     7
370
    20
100
AcDbLine
 10
771.9933668328997
 20
3400.907159353361
 30
0.0
 11
866.9933668328988
 21
3305.90715935336
 31
0.0
  0
LINE
  5
28A
330
27C
100
AcDbEntity
  8
1
  6
Continuous
 62
     7
370
    20
100
AcDbLine
 10
800.2776380803609
 20
3400.907159353361
 30
0.0
 11
895.2776380803609
 21
3305.90715935336
 31
0.0
  0
LINE
  5
28B
330
27C
100
AcDbEntity
  8
1
  6
Continuous
 62
     7
370
    20
100
AcDbLine
 10
828.5619093278231
 20
3400.90715935336
 30
0.0
 11
923.5619093278221
 21
3305.90715935336
 31
0.0
  0
LINE
  5
28C
330
27C
100
AcDbEntity
  8
1
  6
Continuous
 62
     7
370
    20
100
AcDbLine
 10
856.8461805752843
 20
3400.90715935336
 30
0.0
 11
951.8461805752843
 21
3305.90715935336
 31
0.0
  0
LINE
  5
28D
330
27C
100
AcDbEntity
  8
1
  6
Continuous
 62
     7
370
    20
100
AcDbLine
 10
885.1304518227464
 20
3400.90715935336
 30
0.0
 11
980.1304518227455
 21
3305.90715935336
 31
0.0
  0
LINE
  5
28E
330
27C
100
AcDbEntity
  8
1
  6
Continuous
 62
     7
370
    20
100
AcDbLine
 10
913.4147230702076
 20
3400.90715935336
 30
0.0
 11
1008.414723070208
 21
3305.907159353359
 31
0.0
  0
LINE
  5
28F
330
27C
100
AcDbEntity
  8
1
  6
Continuous
 62
     7
370
    20
100
AcDbLine
 10
941.6989943176698
 20
3400.90715935336
 30
0.0
 11
1036.698994317669
 21
3305.907159353359
 31
0.0
  0
LINE
  5
290
330
27C
100
AcDbEntity
  8
1
  6
Continuous
 62
     7
370
    20
100
AcDbLine
 10
969.983265565131
 20
3400.90715935336
 30
0.0
 11
1064.98326556513
 21
3305.907159353359
 31
0.0
  0
LINE
  5
291
330
27C
100
AcDbEntity
  8
1
  6
Continuous
 62
     7
370
    20
100
AcDbLine
 10
998.2675368125931
 20
3400.907159353359
 30
0.0
 11
1093.267536812592
 21
3305.907159353359
 31
0.0
  0
LINE
  5
292
330
27C
100
AcDbEntity
  8
1
  6
Continuous
 62
     7
370
    20
100
AcDbLine
 10
1026.551808060054
 20
3400.907159353359
 30
0.0
 11
1117.777638080364
 21
3309.681329333049
 31
0.0
  0
LINE
  5
293
330
27C
100
AcDbEntity
  8
1
  6
Continuous
 62
     7
370
    20
100
AcDbLine
 10
1054.836079307516
 20
3400.907159353359
 30
0.0
 11
1117.777638080364
 21
3337.965600580511
 31
0.0
  0
LINE
  5
294
330
27C
100
AcDbEntity
  8
1
  6
Continuous
 62
     7
370
    20
100
AcDbLine
 10
1083.120350554978
 20
3400.907159353359
 30
0.0
 11
1117.777638080364
 21
3366.249871827973
 31
0.0
  0
LINE
  5
295
330
27C
100
AcDbEntity
  8
1
  6
Continuous
 62
     7
370
    20
100
AcDbLine
 10
1111.40462180244
 20
3400.907159353359
 30
0.0
 11
1117.777638080364
 21
3394.534143075435
 31
0.0
  0
ENDBLK
  5
27E
330
27C
100
AcDbEntity
  8
0
100
AcDbBlockEnd
  0
BLOCK
  5
298
330
297
100
AcDbEntity
  8
0
100
AcDbBlockBegin
  2
*G34
 70
     1
 10
0.0
 20
0.0
 30
0.0
  3
*G34
  1

  0
LINE
  5
29A
330
297
100
AcDbEntity
  8
1
  6
Continuous
 62
     7
370
    20
100
AcDbLine
 10
1111.404621802443
 20
3305.907159353359
 30
0.0
 11
1117.777638080364
 21
3312.280175631279
 31
0.0
  0
LINE
  5
29B
330
297
100
AcDbEntity
  8
1
  6
Continuous
 62
     7
370
    20
100
AcDbLine
 10
1083.120350554982
 20
3305.907159353359
 30
0.0
 11
1117.777638080364
 21
3340.564446878741
 31
0.0
  0
LINE
  5
29C
330
297
100
AcDbEntity
  8
1
  6
Continuous
 62
     7
370
    20
100
AcDbLine
 10
1054.83607930752
 20
3305.907159353359
 30
0.0
 11
1117.777638080364
 21
3368.848718126203
 31
0.0
  0
LINE
  5
29D
330
297
100
AcDbEntity
  8
1
  6
Continuous
 62
     7
370
    20
100
AcDbLine
 10
1026.551808060059
 20
3305.907159353359
 30
0.0
 11
1117.777638080364
 21
3397.132989373664
 31
0.0
  0
LINE
  5
29E
330
297
100
AcDbEntity
  8
1
  6
Continuous
 62
     7
370
    20
100
AcDbLine
 10
998.2675368125977
 20
3305.907159353359
 30
0.0
 11
1093.267536812597
 21
3400.907159353359
 31
0.0
  0
LINE
  5
29F
330
297
100
AcDbEntity
  8
1
  6
Continuous
 62
     7
370
    20
100
AcDbLine
 10
969.9832655651355
 20
3305.90715935336
 30
0.0
 11
1064.983265565136
 21
3400.907159353359
 31
0.0
  0
LINE
  5
2A0
330
297
100
AcDbEntity
  8
1
  6
Continuous
 62
     7
370
    20
100
AcDbLine
 10
941.6989943176743
 20
3305.90715935336
 30
0.0
 11
1036.698994317673
 21
3400.907159353359
 31
0.0
  0
LINE
  5
2A1
330
297
100
AcDbEntity
  8
1
  6
Continuous
 62
     7
370
    20
100
AcDbLine
 10
913.4147230702122
 20
3305.90715935336
 30
0.0
 11
1008.414723070212
 21
3400.907159353359
 31
0.0
  0
LINE
  5
2A2
330
297
100
AcDbEntity
  8
1
  6
Continuous
 62
     7
370
    20
100
AcDbLine
 10
885.130451822751
 20
3305.90715935336
 30
0.0
 11
980.130451822751
 21
3400.90715935336
 31
0.0
  0
LINE
  5
2A3
330
297
100
AcDbEntity
  8
1
  6
Continuous
 62
     7
370
    20
100
AcDbLine
 10
856.8461805752897
 20
3305.90715935336
 30
0.0
 11
951.8461805752888
 21
3400.90715935336
 31
0.0
  0
LINE
  5
2A4
330
297
100
AcDbEntity
  8
1
  6
Continuous
 62
     7
370
    20
100
AcDbLine
 10
828.5619093278276
 20
3305.90715935336
 30
0.0
 11
923.5619093278276
 21
3400.90715935336
 31
0.0
  0
LINE
  5
2A5
330
297
100
AcDbEntity
  8
1
  6
Continuous
 62
     7
370
    20
100
AcDbLine
 10
800.2776380803664
 20
3305.907159353361
 30
0.0
 11
895.2776380803664
 21
3400.90715935336
 31
0.0
  0
LINE
  5
2A6
330
297
100
AcDbEntity
  8
1
  6
Continuous
 62
     7
370
    20
100
AcDbLine
 10
771.9933668329052
 20
3305.907159353361
 30
0.0
 11
866.9933668329043
 21
3400.90715935336
 31
0.0
  0
LINE
  5
2A7
330
297
100
AcDbEntity
  8
1
  6
Continuous
 62
     7
370
    20
100
AcDbLine
 10
743.709095585443
 20
3305.907159353361
 30
0.0
 11
838.709095585443
 21
3400.90715935336
 31
0.0
  0
LINE
  5
2A8
330
297
100
AcDbEntity
  8
1
  6
Continuous
 62
     7
370
    20
100
AcDbLine
 10
715.4248243379818
 20
3305.907159353361
 30
0.0
 11
810.4248243379809
 21
3400.90715935336
 31
0.0
  0
LINE
  5
2A9
330
297
100
AcDbEntity
  8
1
  6
Continuous
 62
     7
370
    20
100
AcDbLine
 10
687.1405530905197
 20
3305.907159353361
 30
0.0
 11
782.1405530905197
 21
3400.907159353361
 31
0.0
  0
LINE
  5
2AA
330
297
100
AcDbEntity
  8
1
  6
Continuous
 62
     7
370
    20
100
AcDbLine
 10
658.8562818430585
 20
3305.907159353361
 30
0.0
 11
753.8562818430585
 21
3400.907159353361
 31
0.0
  0
LINE
  5
2AB
330
297
100
AcDbEntity
  8
1
  6
Continuous
 62
     7
370
    20
100
AcDbLine
 10
630.5720105955972
 20
3305.907159353361
 30
0.0
 11
725.5720105955963
 21
3400.907159353361
 31
0.0
  0
LINE
  5
2AC
330
297
100
AcDbEntity
  8
1
  6
Continuous
 62
     7
370
    20
100
AcDbLine
 10
602.2877393481351
 20
3305.907159353362
 30
0.0
 11
697.2877393481351
 21
3400.907159353361
 31
0.0
  0
LINE
  5
2AD
330
297
100
AcDbEntity
  8
1
  6
Continuous
 62
     7
370
    20
100
AcDbLine
 10
577.7776380803637
 20
3309.681329333052
 30
0.0
 11
669.0034681006739
 21
3400.907159353361
 31
0.0
  0
LINE
  5
2AE
330
297
100
AcDbEntity
  8
1
  6
Continuous
 62
     7
370
    20
100
AcDbLine
 10
577.7776380803637
 20
3337.965600580513
 30
0.0
 11
640.7191968532118
 21
3400.907159353361
 31
0.0
  0
LINE
  5
2AF
330
297
100
AcDbEntity
  8
1
  6
Continuous
 62
     7
370
    20
100
AcDbLine
 10
577.7776380803637
 20
3366.249871827975
 30
0.0
 11
612.4349256057505
 21
3400.907159353362
 31
0.0
  0
LINE
  5
2B0
330
297
100
AcDbEntity
  8
1
  6
Continuous
 62
     7
370
    20
100
AcDbLine
 10
577.7776380803637
 20
3394.534143075437
 30
0.0
 11
584.1506543582893
 21
3400.907159353362
 31
0.0
  0
ENDBLK
  5
299
330
297
100
AcDbEntity
  8
0
100
AcDbBlockEnd
  0
BLOCK
  5
2DA
330
2D9
100
AcDbEntity
  8
0
100
AcDbBlockBegin
  2
Dim8
 70
     0
 10
0.0
 20
0.0
 30
0.0
  3
Dim8
  1

  0
LINE
  5
2DC
330
2D9
100
AcDbEntity
  8
2
  6
Continuous
 62
     4
370
    20
100
AcDbLine
 10
1172.777638080366
 20
1991.607401382038
 30
0.0
 11
1172.777638080367
 21
1650.39478171551
 31
0.0
  0
LINE
  5
2DD
330
2D9
100
AcDbEntity
  8
2
  6
Continuous
 62
     4
370
    20
100
AcDbLine
 10
1067.777638080366
 20
2051.610064710931
 30
0.0
 11
1067.777638080366
 21
1650.39478171551
 31
0.0
  0
LINE
  5
2DE
330
2D9
100
AcDbEntity
  8
2
  6
Continuous
 62
     4
370
    20
100
AcDbLine
 10
1172.777638080367
 20
1670.39478171551
 30
0.0
 11
1067.777638080366
 21
1670.39478171551
 31
0.0
  0
MTEXT
  5
2DF
330
2D9
100
AcDbEntity
  8
2
  6
Continuous
 62
     4
370
     9
100
AcDbMText
 10
1120.277638080366
 20
1670.39478171551
 30
0.0
 40
60.0
 41
655.8
 46
60.0
 71
     8
 72
     1
  1
105
  7
ＭＳ ゴシック
 73
     1
 44
1.0
1001
ACAD
1000
ACAD_MTEXT_DEFINED_HEIGHT_BEGIN
1070
    46
1040
60.0
1000
ACAD_MTEXT_DEFINED_HEIGHT_END
  0
INSERT
  5
2E0
330
2D9
100
AcDbEntity
  8
2
  6
Continuous
 62
     4
370
    20
100
AcDbBlockReference
  2
_OPEN
 10
1172.777638080367
 20
1670.39478171551
 30
0.0
 41
20.0
 42
20.0
 43
20.0
 50
359.9999999999998
  0
INSERT
  5
2E1
330
2D9
100
AcDbEntity
  8
2
  6
Continuous
 62
     4
370
    20
100
AcDbBlockReference
  2
_OPEN
 10
1067.777638080366
 20
1670.39478171551
 30
0.0
 41
20.0
 42
20.0
 43
20.0
 50
180.0
  0
ENDBLK
  5
2DB
330
2D9
100
AcDbEntity
  8
0
100
AcDbBlockEnd
  0
BLOCK
  5
2E4
330
2E3
100
AcDbEntity
  8
0
100
AcDbBlockBegin
  2
Dim9
 70
     0
 10
0.0
 20
0.0
 30
0.0
  3
Dim9
  1

  0
LINE
  5
2E6
330
2E3
100
AcDbEntity
  8
2
  6
Continuous
 62
     4
370
    20
100
AcDbLine
 10
627.777638080365
 20
2051.610064710931
 30
0.0
 11
627.7776380803655
 21
1650.39478171551
 31
0.0
  0
LINE
  5
2E7
330
2E3
100
AcDbEntity
  8
2
  6
Continuous
 62
     4
370
    20
100
AcDbLine
 10
1067.777638080366
 20
1670.39478171551
 30
0.0
 11
627.7776380803655
 21
1670.39478171551
 31
0.0
  0
MTEXT
  5
2E8
330
2E3
100
AcDbEntity
  8
2
  6
Continuous
 62
     4
370
     9
100
AcDbMText
 10
847.7776380803655
 20
1670.39478171551
 30
0.0
 40
60.0
 41
760.2
 46
60.0
 71
     8
 72
     1
  1
440
  7
ＭＳ ゴシック
 73
     1
 44
1.0
1001
ACAD
1000
ACAD_MTEXT_DEFINED_HEIGHT_BEGIN
1070
    46
1040
60.0
1000
ACAD_MTEXT_DEFINED_HEIGHT_END
  0
INSERT
  5
2E9
330
2E3
100
AcDbEntity
  8
2
  6
Continuous
 62
     4
370
    20
100
AcDbBlockReference
  2
_OPEN
 10
1067.777638080366
 20
1670.39478171551
 30
0.0
 41
20.0
 42
20.0
 43
20.0
 50
359.9999999999998
  0
INSERT
  5
2EA
330
2E3
100
AcDbEntity
  8
2
  6
Continuous
 62
     4
370
    20
100
AcDbBlockReference
  2
_OPEN
 10
627.7776380803655
 20
1670.39478171551
 30
0.0
 41
20.0
 42
20.0
 43
20.0
 50
180.0
  0
ENDBLK
  5
2E5
330
2E3
100
AcDbEntity
  8
0
100
AcDbBlockEnd
  0
BLOCK
  5
2ED
330
2EC
100
AcDbEntity
  8
0
100
AcDbBlockBegin
  2
Dim10
 70
     0
 10
0.0
 20
0.0
 30
0.0
  3
Dim10
  1

  0
LINE
  5
2EF
330
2EC
100
AcDbEntity
  8
2
  6
Continuous
 62
     4
370
    20
100
AcDbLine
 10
522.7776380803655
 20
1991.607401382038
 30
0.0
 11
522.7776380803659
 21
1650.39478171551
 31
0.0
  0
LINE
  5
2F0
330
2EC
100
AcDbEntity
  8
2
  6
Continuous
 62
     4
370
    20
100
AcDbLine
 10
627.7776380803655
 20
1670.39478171551
 30
0.0
 11
522.7776380803659
 21
1670.39478171551
 31
0.0
  0
MTEXT
  5
2F1
330
2EC
100
AcDbEntity
  8
2
  6
Continuous
 62
     4
370
     9
100
AcDbMText
 10
575.2776380803655
 20
1670.39478171551
 30
0.0
 40
60.0
 41
655.8
 46
60.0
 71
     8
 72
     1
  1
105
  7
ＭＳ ゴシック
 73
     1
 44
1.0
1001
ACAD
1000
ACAD_MTEXT_DEFINED_HEIGHT_BEGIN
1070
    46
1040
60.0
1000
ACAD_MTEXT_DEFINED_HEIGHT_END
  0
INSERT
  5
2F2
330
2EC
100
AcDbEntity
  8
2
  6
Continuous
 62
     4
370
    20
100
AcDbBlockReference
  2
_OPEN
 10
627.7776380803655
 20
1670.39478171551
 30
0.0
 41
20.0
 42
20.0
 43
20.0
 50
359.9999999999998
  0
INSERT
  5
2F3
330
2EC
100
AcDbEntity
  8
2
  6
Continuous
 62
     4
370
    20
100
AcDbBlockReference
  2
_OPEN
 10
522.7776380803659
 20
1670.39478171551
 30
0.0
 41
20.0
 42
20.0
 43
20.0
 50
180.0
  0
ENDBLK
  5
2EE
330
2EC
100
AcDbEntity
  8
0
100
AcDbBlockEnd
  0
BLOCK
  5
2F6
330
2F5
100
AcDbEntity
  8
0
100
AcDbBlockBegin
  2
Dim11
 70
     0
 10
0.0
 20
0.0
 30
0.0
  3
Dim11
  1

  0
LINE
  5
2F8
330
2F5
100
AcDbEntity
  8
2
  6
Continuous
 62
     4
370
    20
100
AcDbLine
 10
487.7776380803655
 20
1931.607401382038
 30
0.0
 11
432.3596013817244
 21
1931.607401382038
 31
0.0
  0
LINE
  5
2F9
330
2F5
100
AcDbEntity
  8
2
  6
Continuous
 62
     4
370
    20
100
AcDbLine
 10
592.7776380803641
 20
2086.610064710931
 30
0.0
 11
432.3596013817244
 21
2086.61006471093
 31
0.0
  0
LINE
  5
2FA
330
2F5
100
AcDbEntity
  8
2
  6
Continuous
 62
     4
370
    20
100
AcDbLine
 10
452.3596013817244
 20
1931.607401382038
 30
0.0
 11
452.3596013817244
 21
2086.61006471093
 31
0.0
  0
MTEXT
  5
2FB
330
2F5
100
AcDbEntity
  8
2
  6
Continuous
 62
     4
370
     9
100
AcDbMText
 10
452.3596013817248
 20
2009.108733046484
 30
0.0
 40
60.0
 41
705.6
 46
60.0
 71
     8
 72
     1
  1
155
  7
ＭＳ ゴシック
 11
-1.271035289592820E-15
 21
1.0
 31
0.0
 73
     1
 44
1.0
1001
ACAD
1000
ACAD_MTEXT_DEFINED_HEIGHT_BEGIN
1070
    46
1040
60.0
1000
ACAD_MTEXT_DEFINED_HEIGHT_END
  0
INSERT
  5
2FC
330
2F5
100
AcDbEntity
  8
2
  6
Continuous
 62
     4
370
    20
100
AcDbBlockReference
  2
_OPEN
 10
452.3596013817244
 20
1931.607401382038
 30
0.0
 41
20.0
 42
20.0
 43
20.0
 50
269.9999999999999
  0
INSERT
  5
2FD
330
2F5
100
AcDbEntity
  8
2
  6
Continuous
 62
     4
370
    20
100
AcDbBlockReference
  2
_OPEN
 10
452.3596013817244
 20
2086.61006471093
 30
0.0
 41
20.0
 42
20.0
 43
20.0
 50
90.00000000000009
  0
ENDBLK
  5
2F7
330
2F5
100
AcDbEntity
  8
0
100
AcDbBlockEnd
  0
BLOCK
  5
300
330
2FF
100
AcDbEntity
  8
0
100
AcDbBlockBegin
  2
Dim12
 70
     0
 10
0.0
 20
0.0
 30
0.0
  3
Dim12
  1

  0
LINE
  5
302
330
2FF
100
AcDbEntity
  8
2
  6
Continuous
 62
     4
370
    20
100
AcDbLine
 10
592.7776380803641
 20
2316.61006471093
 30
0.0
 11
432.3596013817244
 21
2316.610064710929
 31
0.0
  0
LINE
  5
303
330
2FF
100
AcDbEntity
  8
2
  6
Continuous
 62
     4
370
    20
100
AcDbLine
 10
452.3596013817244
 20
2086.61006471093
 30
0.0
 11
452.3596013817244
 21
2316.610064710929
 31
0.0
  0
MTEXT
  5
304
330
2FF
100
AcDbEntity
  8
2
  6
Continuous
 62
     4
370
     9
100
AcDbMText
 10
452.3596013817248
 20
2201.61006471093
 30
0.0
 40
60.0
 41
756.5999999999999
 46
60.0
 71
     8
 72
     1
  1
230
  7
ＭＳ ゴシック
 11
-1.271035289592820E-15
 21
1.0
 31
0.0
 73
     1
 44
1.0
1001
ACAD
1000
ACAD_MTEXT_DEFINED_HEIGHT_BEGIN
1070
    46
1040
60.0
1000
ACAD_MTEXT_DEFINED_HEIGHT_END
  0
INSERT
  5
305
330
2FF
100
AcDbEntity
  8
2
  6
Continuous
 62
     4
370
    20
100
AcDbBlockReference
  2
_OPEN
 10
452.3596013817244
 20
2086.61006471093
 30
0.0
 41
20.0
 42
20.0
 43
20.0
 50
269.9999999999999
  0
INSERT
  5
306
330
2FF
100
AcDbEntity
  8
2
  6
Continuous
 62
     4
370
    20
100
AcDbBlockReference
  2
_OPEN
 10
452.3596013817244
 20
2316.610064710929
 30
0.0
 41
20.0
 42
20.0
 43
20.0
 50
90.00000000000009
  0
ENDBLK
  5
301
330
2FF
100
AcDbEntity
  8
0
100
AcDbBlockEnd
  0
BLOCK
  5
309
330
308
100
AcDbEntity
  8
0
100
AcDbBlockBegin
  2
Dim13
 70
     0
 10
0.0
 20
0.0
 30
0.0
  3
Dim13
  1

  0
LINE
  5
30B
330
308
100
AcDbEntity
  8
2
  6
Continuous
 62
     4
370
    20
100
AcDbLine
 10
482.7776380803655
 20
3421.607401382037
 30
0.0
 11
353.0531309994456
 21
3421.607401382037
 31
0.0
  0
LINE
  5
30C
330
308
100
AcDbEntity
  8
2
  6
Continuous
 62
     4
370
    20
100
AcDbLine
 10
487.7776380803655
 20
1931.607401382038
 30
0.0
 11
353.0531309994456
 21
1931.607401382038
 31
0.0
  0
LINE
  5
30D
330
308
100
AcDbEntity
  8
2
  6
Continuous
 62
     4
370
    20
100
AcDbLine
 10
373.0531309994456
 20
3421.607401382037
 30
0.0
 11
373.0531309994456
 21
1931.607401382038
 31
0.0
  0
MTEXT
  5
30E
330
308
100
AcDbEntity
  8
2
  6
Continuous
 62
     4
370
     9
100
AcDbMText
 10
373.0531309994456
 20
2676.607401382038
 30
0.0
 40
60.0
 41
955.8
 46
60.0
 71
     8
 72
     1
  1
1490
  7
ＭＳ ゴシック
 11
-2.159213709292946E-15
 21
1.0
 31
0.0
 73
     1
 44
1.0
1001
ACAD
1000
ACAD_MTEXT_DEFINED_HEIGHT_BEGIN
1070
    46
1040
60.0
1000
ACAD_MTEXT_DEFINED_HEIGHT_END
  0
INSERT
  5
30F
330
308
100
AcDbEntity
  8
2
  6
Continuous
 62
     4
370
    20
100
AcDbBlockReference
  2
_OPEN
 10
373.0531309994456
 20
3421.607401382037
 30
0.0
 41
20.0
 42
20.0
 43
20.0
 50
90.00000000000011
  0
INSERT
  5
310
330
308
100
AcDbEntity
  8
2
  6
Continuous
 62
     4
370
    20
100
AcDbBlockReference
  2
_OPEN
 10
373.0531309994456
 20
1931.607401382038
 30
0.0
 41
20.0
 42
20.0
 43
20.0
 50
269.9999999999999
  0
ENDBLK
  5
30A
330
308
100
AcDbEntity
  8
0
100
AcDbBlockEnd
  0
BLOCK
  5
321
330
320
100
AcDbEntity
  8
0
100
AcDbBlockBegin
  2
Dim14
 70
     0
 10
0.0
 20
0.0
 30
0.0
  3
Dim14
  1

  0
LINE
  5
323
330
320
100
AcDbEntity
  8
2
  6
Continuous
 62
     4
370
    20
100
AcDbLine
 10
3213.247708907298
 20
1891.607401382037
 30
0.0
 11
3213.247708907298
 21
1538.618334609721
 31
0.0
  0
LINE
  5
324
330
320
100
AcDbEntity
  8
2
  6
Continuous
 62
     4
370
    20
100
AcDbLine
 10
3808.247708907298
 20
1891.607401382037
 30
0.0
 11
3808.247708907298
 21
1538.618334609721
 31
0.0
  0
LINE
  5
325
330
320
100
AcDbEntity
  8
2
  6
Continuous
 62
     4
370
    20
100
AcDbLine
 10
3213.247708907298
 20
1558.618334609721
 30
0.0
 11
3808.247708907298
 21
1558.618334609721
 31
0.0
  0
MTEXT
  5
326
330
320
100
AcDbEntity
  8
2
  6
Continuous
 62
     4
370
     9
100
AcDbMText
 10
3510.747708907298
 20
1558.618334609721
 30
0.0
 40
60.0
 41
806.3999999999999
 46
60.0
 71
     8
 72
     1
  1
595
  7
ＭＳ ゴシック
 73
     1
 44
1.0
1001
ACAD
1000
ACAD_MTEXT_DEFINED_HEIGHT_BEGIN
1070
    46
1040
60.0
1000
ACAD_MTEXT_DEFINED_HEIGHT_END
  0
INSERT
  5
327
330
320
100
AcDbEntity
  8
2
  6
Continuous
 62
     4
370
    20
100
AcDbBlockReference
  2
_OPEN
 10
3213.247708907298
 20
1558.618334609721
 30
0.0
 41
20.0
 42
20.0
 43
20.0
 50
179.9999999999998
  0
INSERT
  5
328
330
320
100
AcDbEntity
  8
2
  6
Continuous
 62
     4
370
    20
100
AcDbBlockReference
  2
_OPEN
 10
3808.247708907298
 20
1558.618334609721
 30
0.0
 41
20.0
 42
20.0
 43
20.0
 50
359.9999999999996
  0
ENDBLK
  5
322
330
320
100
AcDbEntity
  8
0
100
AcDbBlockEnd
  0
BLOCK
  5
32B
330
32A
100
AcDbEntity
  8
0
100
AcDbBlockBegin
  2
*G42
 70
     1
 10
0.0
 20
0.0
 30
0.0
  3
*G42
  1

  0
LINE
  5
32D
330
32A
100
AcDbEntity
  8
2
  6
Continuous
 62
     4
370
    20
100
AcDbLine
 10
3213.247708907298
 20
2031.607401382037
 30
0.0
 11
3808.247708907298
 21
2031.607401382037
 31
0.0
  0
LINE
  5
32E
330
32A
100
AcDbEntity
  8
2
  6
Continuous
 62
     4
370
    20
100
AcDbLine
 10
3808.247708907298
 20
1931.607401382037
 30
0.0
 11
3213.247708907298
 21
1931.607401382037
 31
0.0
  0
LINE
  5
32F
330
32A
100
AcDbEntity
  8
2
  6
Continuous
 62
     4
370
    20
100
AcDbLine
 10
3808.247708907298
 20
2031.607401382037
 30
0.0
 11
3808.247708907298
 21
2025.607401382037
 31
0.0
  0
LINE
  5
330
330
32A
100
AcDbEntity
  8
2
  6
Continuous
 62
     4
370
    20
100
AcDbLine
 10
3808.247708907298
 20
1937.607401382037
 30
0.0
 11
3808.247708907298
 21
1931.607401382037
 31
0.0
  0
LINE
  5
331
330
32A
100
AcDbEntity
  8
2
  6
Continuous
 62
     4
370
    20
100
AcDbLine
 10
3213.247708907298
 20
2025.607401382037
 30
0.0
 11
3213.247708907298
 21
2031.607401382037
 31
0.0
  0
LINE
  5
332
330
32A
100
AcDbEntity
  8
2
  6
Continuous
 62
     4
370
    20
100
AcDbLine
 10
3213.247708907298
 20
1931.607401382037
 30
0.0
 11
3213.247708907298
 21
1937.607401382037
 31
0.0
  0
ENDBLK
  5
32C
330
32A
100
AcDbEntity
  8
0
100
AcDbBlockEnd
  0
BLOCK
  5
337
330
336
100
AcDbEntity
  8
0
100
AcDbBlockBegin
  2
Dim15
 70
     0
 10
0.0
 20
0.0
 30
0.0
  3
Dim15
  1

  0
LINE
  5
339
330
336
100
AcDbEntity
  8
2
  6
Continuous
 62
     4
370
    20
100
AcDbLine
 10
3213.247708907298
 20
1891.607401382037
 30
0.0
 11
3213.247708907298
 21
1650.394781715509
 31
0.0
  0
LINE
  5
33A
330
336
100
AcDbEntity
  8
2
  6
Continuous
 62
     4
370
    20
100
AcDbLine
 10
3233.247708907298
 20
1886.221354073933
 30
0.0
 11
3233.247708907298
 21
1650.394781715509
 31
0.0
  0
LINE
  5
33B
330
336
100
AcDbEntity
  8
2
  6
Continuous
 62
     4
370
    20
100
AcDbLine
 10
3126.891283232306
 20
1670.394781715509
 30
0.0
 11
3233.247708907298
 21
1670.394781715509
 31
0.0
  0
MTEXT
  5
33C
330
336
100
AcDbEntity
  8
2
  6
Continuous
 62
     4
370
     9
100
AcDbMText
 10
3186.891283232306
 20
1670.394781715509
 30
0.0
 40
60.0
 41
456.6
 46
60.0
 71
     9
 72
     1
  1
20
  7
ＭＳ ゴシック
 73
     1
 44
1.0
1001
ACAD
1000
ACAD_MTEXT_DEFINED_HEIGHT_BEGIN
1070
    46
1040
60.0
1000
ACAD_MTEXT_DEFINED_HEIGHT_END
  0
INSERT
  5
33D
330
336
100
AcDbEntity
  8
2
  6
Continuous
 62
     4
370
    20
100
AcDbBlockReference
  2
_OPEN
 10
3213.247708907298
 20
1670.394781715509
 30
0.0
 41
20.0
 42
20.0
 43
20.0
 50
359.9999999999996
  0
ENDBLK
  5
338
330
336
100
AcDbEntity
  8
0
100
AcDbBlockEnd
  0
BLOCK
  5
340
330
33F
100
AcDbEntity
  8
0
100
AcDbBlockBegin
  2
Dim16
 70
     0
 10
0.0
 20
0.0
 30
0.0
  3
Dim16
  1

  0
LINE
  5
342
330
33F
100
AcDbEntity
  8
2
  6
Continuous
 62
     4
370
    20
100
AcDbLine
 10
3788.247708907298
 20
1885.458326757636
 30
0.0
 11
3788.247708907298
 21
1650.394781715509
 31
0.0
  0
LINE
  5
343
330
33F
100
AcDbEntity
  8
2
  6
Continuous
 62
     4
370
    20
100
AcDbLine
 10
3233.247708907298
 20
1670.394781715509
 30
0.0
 11
3788.247708907298
 21
1670.394781715509
 31
0.0
  0
MTEXT
  5
344
330
33F
100
AcDbEntity
  8
2
  6
Continuous
 62
     4
370
     9
100
AcDbMText
 10
3510.747708907298
 20
1670.394781715509
 30
0.0
 40
60.0
 41
806.3999999999999
 46
60.0
 71
     8
 72
     1
  1
555
  7
ＭＳ ゴシック
 73
     1
 44
1.0
1001
ACAD
1000
ACAD_MTEXT_DEFINED_HEIGHT_BEGIN
1070
    46
1040
60.0
1000
ACAD_MTEXT_DEFINED_HEIGHT_END
  0
INSERT
  5
345
330
33F
100
AcDbEntity
  8
2
  6
Continuous
 62
     4
370
    20
100
AcDbBlockReference
  2
_OPEN
 10
3233.247708907298
 20
1670.394781715509
 30
0.0
 41
20.0
 42
20.0
 43
20.0
 50
179.9999999999998
  0
INSERT
  5
346
330
33F
100
AcDbEntity
  8
2
  6
Continuous
 62
     4
370
    20
100
AcDbBlockReference
  2
_OPEN
 10
3788.247708907298
 20
1670.394781715509
 30
0.0
 41
20.0
 42
20.0
 43
20.0
 50
359.9999999999996
  0
ENDBLK
  5
341
330
33F
100
AcDbEntity
  8
0
100
AcDbBlockEnd
  0
BLOCK
  5
349
330
348
100
AcDbEntity
  8
0
100
AcDbBlockBegin
  2
Dim17
 70
     0
 10
0.0
 20
0.0
 30
0.0
  3
Dim17
  1

  0
LINE
  5
34B
330
348
100
AcDbEntity
  8
2
  6
Continuous
 62
     4
370
    20
100
AcDbLine
 10
3808.247708907298
 20
1861.607401382037
 30
0.0
 11
3808.247708907298
 21
1650.394781715509
 31
0.0
  0
LINE
  5
34C
330
348
100
AcDbEntity
  8
2
  6
Continuous
 62
     4
370
    20
100
AcDbLine
 10
3788.247708907298
 20
1670.394781715509
 30
0.0
 11
3884.358173868043
 21
1670.394781715509
 31
0.0
  0
MTEXT
  5
34D
330
348
100
AcDbEntity
  8
2
  6
Continuous
 62
     4
370
     9
100
AcDbMText
 10
3824.358173868043
 20
1670.394781715509
 30
0.0
 40
60.0
 41
456.6
 46
60.0
 71
     7
 72
     1
  1
20
  7
ＭＳ ゴシック
 73
     1
 44
1.0
1001
ACAD
1000
ACAD_MTEXT_DEFINED_HEIGHT_BEGIN
1070
    46
1040
60.0
1000
ACAD_MTEXT_DEFINED_HEIGHT_END
  0
INSERT
  5
34E
330
348
100
AcDbEntity
  8
2
  6
Continuous
 62
     4
370
    20
100
AcDbBlockReference
  2
_OPEN
 10
3808.247708907298
 20
1670.394781715509
 30
0.0
 41
20.0
 42
20.0
 43
20.0
 50
179.9999999999998
  0
ENDBLK
  5
34A
330
348
100
AcDbEntity
  8
0
100
AcDbBlockEnd
  0
BLOCK
  5
351
330
350
100
AcDbEntity
  8
0
100
AcDbBlockBegin
  2
Dim18
 70
     0
 10
0.0
 20
0.0
 30
0.0
  3
Dim18
  1

  0
LINE
  5
353
330
350
100
AcDbEntity
  8
2
  6
Continuous
 62
     4
370
    20
100
AcDbLine
 10
3813.203625330716
 20
3479.307159353357
 30
0.0
 11
3813.203625330715
 21
3733.433606688377
 31
0.0
  0
LINE
  5
354
330
350
100
AcDbEntity
  8
2
  6
Continuous
 62
     4
370
    20
100
AcDbLine
 10
3163.203625330716
 20
3479.307159353357
 30
0.0
 11
3163.203625330716
 21
3733.433606688377
 31
0.0
  0
LINE
  5
355
330
350
100
AcDbEntity
  8
2
  6
Continuous
 62
     4
370
    20
100
AcDbLine
 10
3813.203625330715
 20
3713.433606688377
 30
0.0
 11
3163.203625330716
 21
3713.433606688377
 31
0.0
  0
MTEXT
  5
356
330
350
100
AcDbEntity
  8
2
  6
Continuous
 62
     4
370
     9
100
AcDbMText
 10
3488.203625330714
 20
3713.433606688377
 30
0.0
 40
60.0
 41
756.5999999999999
 46
60.0
 71
     8
 72
     1
  1
650
  7
ＭＳ ゴシック
 73
     1
 44
1.0
1001
ACAD
1000
ACAD_MTEXT_DEFINED_HEIGHT_BEGIN
1070
    46
1040
60.0
1000
ACAD_MTEXT_DEFINED_HEIGHT_END
  0
INSERT
  5
357
330
350
100
AcDbEntity
  8
2
  6
Continuous
 62
     4
370
    20
100
AcDbBlockReference
  2
_OPEN
 10
3813.203625330715
 20
3713.433606688377
 30
0.0
 41
20.0
 42
20.0
 43
20.0
 50
359.9999999999997
  0
INSERT
  5
358
330
350
100
AcDbEntity
  8
2
  6
Continuous
 62
     4
370
    20
100
AcDbBlockReference
  2
_OPEN
 10
3163.203625330716
 20
3713.433606688377
 30
0.0
 41
20.0
 42
20.0
 43
20.0
 50
179.9999999999998
  0
ENDBLK
  5
352
330
350
100
AcDbEntity
  8
0
100
AcDbBlockEnd
  0
ENDSEC
  0
SECTION
  2
ENTITIES
  0
LINE
  5
AF
330
1F
100
AcDbEntity
  8
15
  6
DASHDOT
 62
   174
370
    20
100
AcDbLine
 10
2406.750452901133
 20
4548.017725477272
 30
0.0
 11
2439.751846541066
 21
4548.017725477272
 31
0.0
  0
LINE
  5
B0
330
1F
100
AcDbEntity
  8
15
  6
DASHDOT
 62
   174
370
    20
100
AcDbLine
 10
2423.641028180694
 20
4558.067528678888
 30
0.0
 11
2423.641028180694
 21
4537.10718406974
 31
0.0
  0
LINE
  5
B1
330
1F
100
AcDbEntity
  8
20
  6
Continuous
 62
    52
370
    20
100
AcDbLine
 10
2423.641028180694
 20
4548.017725477272
 30
0.0
 11
1970.817563682663
 21
4095.194260979244
 31
0.0
  0
ARC
  5
B2
330
1F
100
AcDbEntity
  8
20
  6
Continuous
 62
    52
370
    20
100
AcDbCircle
 10
2423.641028180694
 20
4548.017725477272
 30
0.0
 40
640.389084853885
100
AcDbArc
 50
182.6582203154263
 51
224.999999999999
  0
CIRCLE
  5
B3
330
1F
100
AcDbEntity
  8
15
  6
Continuous
 62
   174
370
    20
100
AcDbCircle
 10
2423.641028180694
 20
4548.017725477272
 30
0.0
 40
4.0
  0
CIRCLE
  5
B4
330
1F
100
AcDbEntity
  8
2
  6
Continuous
 62
     4
370
    20
100
AcDbCircle
 10
2393.941028180697
 20
4583.317725477271
 30
0.0
 40
10.0
  0
CIRCLE
  5
B5
330
1F
100
AcDbEntity
  8
2
  6
Continuous
 62
     4
370
    20
100
AcDbCircle
 10
2393.941028180697
 20
4583.317725477271
 30
0.0
 40
17.0
  0
CIRCLE
  5
B6
330
1F
100
AcDbEntity
  8
2
  6
Continuous
 62
     4
370
    20
100
AcDbCircle
 10
2393.941028180697
 20
4583.317725477271
 30
0.0
 40
12.0
  0
INSERT
  5
C0
330
1F
100
AcDbEntity
  8
0
100
AcDbBlockReference
  2
*G16
 10
0.0
 20
0.0
 30
0.0
  0
CIRCLE
  5
C1
330
1F
100
AcDbEntity
  8
2
  6
Continuous
 62
     4
370
    20
100
AcDbCircle
 10
2393.941028180697
 20
4583.317725477271
 30
0.0
 40
8.0
  0
CIRCLE
  5
C2
330
1F
100
AcDbEntity
  8
2
  6
Continuous
 62
     4
370
    20
100
AcDbCircle
 10
2393.941028180697
 20
4583.317725477271
 30
0.0
 40
13.85640646055072
  0
CIRCLE
  5
C3
330
1F
100
AcDbEntity
  8
2
  6
Continuous
 62
     4
370
    20
100
AcDbCircle
 10
1823.941028180697
 20
4583.317725477271
 30
0.0
 40
10.0
  0
CIRCLE
  5
C4
330
1F
100
AcDbEntity
  8
2
  6
Continuous
 62
     4
370
    20
100
AcDbCircle
 10
1823.941028180697
 20
4583.317725477271
 30
0.0
 40
17.0
  0
CIRCLE
  5
C5
330
1F
100
AcDbEntity
  8
2
  6
Continuous
 62
     4
370
    20
100
AcDbCircle
 10
1823.941028180697
 20
4583.317725477271
 30
0.0
 40
12.0
  0
INSERT
  5
CF
330
1F
100
AcDbEntity
  8
0
100
AcDbBlockReference
  2
*G17
 10
0.0
 20
0.0
 30
0.0
  0
CIRCLE
  5
D0
330
1F
100
AcDbEntity
  8
2
  6
Continuous
 62
     4
370
    20
100
AcDbCircle
 10
1823.941028180697
 20
4583.317725477271
 30
0.0
 40
8.0
  0
CIRCLE
  5
D1
330
1F
100
AcDbEntity
  8
2
  6
Continuous
 62
     4
370
    20
100
AcDbCircle
 10
1823.941028180697
 20
4583.317725477271
 30
0.0
 40
13.85640646055072
  0
CIRCLE
  5
D2
330
1F
100
AcDbEntity
  8
2
  6
Continuous
 62
     4
370
    20
100
AcDbCircle
 10
2393.941028180697
 20
5108.317725477271
 30
0.0
 40
10.0
  0
CIRCLE
  5
D3
330
1F
100
AcDbEntity
  8
2
  6
Continuous
 62
     4
370
    20
100
AcDbCircle
 10
2393.941028180697
 20
5108.317725477271
 30
0.0
 40
17.0
  0
CIRCLE
  5
D4
330
1F
100
AcDbEntity
  8
2
  6
Continuous
 62
     4
370
    20
100
AcDbCircle
 10
2393.941028180697
 20
5108.317725477271
 30
0.0
 40
12.0
  0
INSERT
  5
DE
330
1F
100
AcDbEntity
  8
0
100
AcDbBlockReference
  2
*G18
 10
0.0
 20
0.0
 30
0.0
  0
CIRCLE
  5
DF
330
1F
100
AcDbEntity
  8
2
  6
Continuous
 62
     4
370
    20
100
AcDbCircle
 10
2393.941028180697
 20
5108.317725477271
 30
0.0
 40
8.0
  0
CIRCLE
  5
E0
330
1F
100
AcDbEntity
  8
2
  6
Continuous
 62
     4
370
    20
100
AcDbCircle
 10
2393.941028180697
 20
5108.317725477271
 30
0.0
 40
13.85640646055072
  0
CIRCLE
  5
E1
330
1F
100
AcDbEntity
  8
2
  6
Continuous
 62
     4
370
    20
100
AcDbCircle
 10
1823.941028180697
 20
5108.317725477271
 30
0.0
 40
10.0
  0
CIRCLE
  5
E2
330
1F
100
AcDbEntity
  8
2
  6
Continuous
 62
     4
370
    20
100
AcDbCircle
 10
1823.941028180697
 20
5108.317725477271
 30
0.0
 40
17.0
  0
CIRCLE
  5
E3
330
1F
100
AcDbEntity
  8
2
  6
Continuous
 62
     4
370
    20
100
AcDbCircle
 10
1823.941028180697
 20
5108.317725477271
 30
0.0
 40
12.0
  0
INSERT
  5
ED
330
1F
100
AcDbEntity
  8
0
100
AcDbBlockReference
  2
*G19
 10
0.0
 20
0.0
 30
0.0
  0
CIRCLE
  5
EE
330
1F
100
AcDbEntity
  8
2
  6
Continuous
 62
     4
370
    20
100
AcDbCircle
 10
1823.941028180697
 20
5108.317725477271
 30
0.0
 40
8.0
  0
CIRCLE
  5
EF
330
1F
100
AcDbEntity
  8
2
  6
Continuous
 62
     4
370
    20
100
AcDbCircle
 10
1823.941028180697
 20
5108.317725477271
 30
0.0
 40
13.85640646055072
  0
LINE
  5
F0
330
1F
100
AcDbEntity
  8
2
  6
HIDDEN
 62
     4
370
    20
100
AcDbLine
 10
1803.941028180697
 20
4563.317725477271
 30
0.0
 11
1803.941028180697
 21
5128.317725477271
 31
0.0
  0
LINE
  5
F1
330
1F
100
AcDbEntity
  8
2
  6
HIDDEN
 62
     4
370
    20
100
AcDbLine
 10
2413.941028180697
 20
4563.317725477271
 30
0.0
 11
1803.941028180697
 21
4563.317725477271
 31
0.0
  0
LINE
  5
F2
330
1F
100
AcDbEntity
  8
2
  6
HIDDEN
 62
     4
370
    20
100
AcDbLine
 10
2413.941028180697
 20
5128.317725477271
 30
0.0
 11
2413.941028180697
 21
4563.317725477271
 31
0.0
  0
LINE
  5
F3
330
1F
100
AcDbEntity
  8
2
  6
HIDDEN
 62
     4
370
    20
100
AcDbLine
 10
1803.941028180697
 20
5128.317725477271
 30
0.0
 11
2413.941028180697
 21
5128.317725477271
 31
0.0
  0
LINE
  5
F4
330
1F
100
AcDbEntity
  8
2
  6
Continuous
 62
     4
370
    20
100
AcDbLine
 10
1783.941028180697
 20
5148.317725477271
 30
0.0
 11
1783.941028180697
 21
4498.317725477271
 31
0.0
  0
LINE
  5
F5
330
1F
100
AcDbEntity
  8
2
  6
Continuous
 62
     4
370
    20
100
AcDbLine
 10
1783.941028180697
 20
4498.317725477271
 30
0.0
 11
2433.941028180697
 21
4498.317725477271
 31
0.0
  0
LINE
  5
F6
330
1F
100
AcDbEntity
  8
2
  6
Continuous
 62
     4
370
    20
100
AcDbLine
 10
2433.941028180697
 20
4498.317725477271
 30
0.0
 11
2433.941028180697
 21
5148.317725477271
 31
0.0
  0
LINE
  5
F7
330
1F
100
AcDbEntity
  8
2
  6
Continuous
 62
     4
370
    20
100
AcDbLine
 10
2433.941028180697
 20
5148.317725477271
 30
0.0
 11
1783.941028180697
 21
5148.317725477271
 31
0.0
  0
LINE
  5
F8
330
1F
100
AcDbEntity
  8
2
  6
DASHDOT
 62
     4
370
    20
100
AcDbLine
 10
1805.202300494519
 20
4583.317725477271
 30
0.0
 11
1842.192533351638
 21
4583.317725477271
 31
0.0
  0
LINE
  5
F9
330
1F
100
AcDbEntity
  8
2
  6
DASHDOT
 62
     4
370
    20
100
AcDbLine
 10
1823.941028180697
 20
4563.12684646076
 30
0.0
 11
1823.941028180697
 21
4603.837085687668
 31
0.0
  0
LINE
  5
FA
330
1F
100
AcDbEntity
  8
2
  6
DASHDOT
 62
     4
370
    20
100
AcDbLine
 10
1805.202300494519
 20
4583.317725477271
 30
0.0
 11
1842.192533351638
 21
4583.317725477271
 31
0.0
  0
LINE
  5
FB
330
1F
100
AcDbEntity
  8
2
  6
DASHDOT
 62
     4
370
    20
100
AcDbLine
 10
1823.941028180697
 20
4563.326846460761
 30
0.0
 11
1823.941028180697
 21
4603.83708568767
 31
0.0
  0
LINE
  5
FC
330
1F
100
AcDbEntity
  8
2
  6
DASHDOT
 62
     4
370
    20
100
AcDbLine
 10
2412.679755866875
 20
4583.317725477271
 30
0.0
 11
2375.689523009756
 21
4583.317725477271
 31
0.0
  0
LINE
  5
FD
330
1F
100
AcDbEntity
  8
2
  6
DASHDOT
 62
     4
370
    20
100
AcDbLine
 10
2393.941028180697
 20
4563.12684646076
 30
0.0
 11
2393.941028180697
 21
4603.837085687668
 31
0.0
  0
LINE
  5
FE
330
1F
100
AcDbEntity
  8
2
  6
DASHDOT
 62
     4
370
    20
100
AcDbLine
 10
2412.679755866875
 20
4583.317725477271
 30
0.0
 11
2375.689523009756
 21
4583.317725477271
 31
0.0
  0
LINE
  5
FF
330
1F
100
AcDbEntity
  8
2
  6
DASHDOT
 62
     4
370
    20
100
AcDbLine
 10
2393.941028180697
 20
4563.326846460761
 30
0.0
 11
2393.941028180697
 21
4603.83708568767
 31
0.0
  0
LINE
  5
100
330
1F
100
AcDbEntity
  8
2
  6
DASHDOT
 62
     4
370
    20
100
AcDbLine
 10
1805.202300494519
 20
5108.317725477271
 30
0.0
 11
1842.192533351638
 21
5108.317725477271
 31
0.0
  0
LINE
  5
101
330
1F
100
AcDbEntity
  8
2
  6
DASHDOT
 62
     4
370
    20
100
AcDbLine
 10
1823.941028180697
 20
5128.508604493782
 30
0.0
 11
1823.941028180697
 21
5087.798365266874
 31
0.0
  0
LINE
  5
102
330
1F
100
AcDbEntity
  8
2
  6
DASHDOT
 62
     4
370
    20
100
AcDbLine
 10
1805.202300494519
 20
5108.317725477271
 30
0.0
 11
1842.192533351638
 21
5108.317725477271
 31
0.0
  0
LINE
  5
103
330
1F
100
AcDbEntity
  8
2
  6
DASHDOT
 62
     4
370
    20
100
AcDbLine
 10
1823.941028180697
 20
5128.308604493781
 30
0.0
 11
1823.941028180697
 21
5087.798365266872
 31
0.0
  0
LINE
  5
104
330
1F
100
AcDbEntity
  8
2
  6
DASHDOT
 62
     4
370
    20
100
AcDbLine
 10
2412.679755866875
 20
5108.317725477271
 30
0.0
 11
2375.689523009756
 21
5108.317725477271
 31
0.0
  0
LINE
  5
105
330
1F
100
AcDbEntity
  8
2
  6
DASHDOT
 62
     4
370
    20
100
AcDbLine
 10
2393.941028180697
 20
5128.508604493782
 30
0.0
 11
2393.941028180697
 21
5087.798365266874
 31
0.0
  0
LINE
  5
106
330
1F
100
AcDbEntity
  8
2
  6
DASHDOT
 62
     4
370
    20
100
AcDbLine
 10
2412.679755866875
 20
5108.317725477271
 30
0.0
 11
2375.689523009756
 21
5108.317725477271
 31
0.0
  0
LINE
  5
107
330
1F
100
AcDbEntity
  8
2
  6
DASHDOT
 62
     4
370
    20
100
AcDbLine
 10
2393.941028180697
 20
5128.308604493781
 30
0.0
 11
2393.941028180697
 21
5087.798365266872
 31
0.0
  0
LINE
  5
108
330
1F
100
AcDbEntity
  8
2
  6
Continuous
 62
     4
370
    20
100
AcDbLine
 10
1808.941028180697
 20
2031.607401382038
 30
0.0
 11
2408.941028180697
 21
2031.607401382038
 31
0.0
  0
INSERT
  5
110
330
1F
100
AcDbEntity
  8
0
100
AcDbBlockReference
  2
*G20
 10
0.0
 20
0.0
 30
0.0
  0
LINE
  5
111
330
1F
100
AcDbEntity
  8
2
  6
Continuous
 62
     4
370
    20
100
AcDbLine
 10
2428.941028180698
 20
2025.607401382038
 30
0.0
 11
1788.941028180697
 21
2025.607401382038
 31
0.0
  0
LINE
  5
112
330
1F
100
AcDbEntity
  8
2
  6
Continuous
 62
     4
370
    20
100
AcDbLine
 10
1788.941028180697
 20
1937.607401382038
 30
0.0
 11
2428.941028180698
 21
1937.607401382038
 31
0.0
  0
LINE
  5
113
330
1F
100
AcDbEntity
  8
2
  6
HIDDEN
 62
     4
370
    20
100
AcDbLine
 10
2388.941028180698
 20
1931.607401382038
 30
0.0
 11
2388.941028180698
 21
2031.607401382038
 31
0.0
  0
LINE
  5
114
330
1F
100
AcDbEntity
  8
2
  6
HIDDEN
 62
     4
370
    20
100
AcDbLine
 10
2394.941028180698
 20
2025.607401382038
 30
0.0
 11
2394.941028180698
 21
1937.607401382038
 31
0.0
  0
LINE
  5
115
330
1F
100
AcDbEntity
  8
2
  6
Continuous
 62
     4
370
    20
100
AcDbLine
 10
1858.941028180697
 20
1945.187749214687
 30
0.0
 11
1858.941028180697
 21
1921.915416067645
 31
0.0
  0
LINE
  5
116
330
1F
100
AcDbEntity
  8
2
  6
Continuous
 62
     4
370
    20
100
AcDbLine
 10
2358.941028180698
 20
1944.806235556539
 30
0.0
 11
2358.941028180698
 21
1924.204498016535
 31
0.0
  0
LINE
  5
117
330
1F
100
AcDbEntity
  8
2
  6
Continuous
 62
     4
370
    20
100
AcDbLine
 10
2433.941028180697
 20
3431.607401382038
 30
0.0
 11
2433.941028180697
 21
3290.90715935336
 31
0.0
  0
LINE
  5
118
330
1F
100
AcDbEntity
  8
2
  6
Continuous
 62
     4
370
    20
100
AcDbLine
 10
1783.941028180697
 20
3431.607401382038
 30
0.0
 11
1783.941028180697
 21
3290.90715935336
 31
0.0
  0
LINE
  5
119
330
1F
100
AcDbEntity
  8
2
  6
Continuous
 62
     4
370
    20
100
AcDbLine
 10
1783.941028180697
 20
3431.607401382038
 30
0.0
 11
2433.941028180697
 21
3431.607401382038
 31
0.0
  0
LINE
  5
11A
330
1F
100
AcDbEntity
  8
2
  6
Continuous
 62
     4
370
    20
100
AcDbLine
 10
1783.941028180697
 20
3260.90715935336
 30
0.0
 11
2433.941028180697
 21
3260.90715935336
 31
0.0
  0
LINE
  5
11B
330
1F
100
AcDbEntity
  8
2
  6
Continuous
 62
     4
370
    20
100
AcDbLine
 10
1783.941028180697
 20
2031.607401382038
 30
0.0
 11
1783.941028180697
 21
3260.90715935336
 31
0.0
  0
LINE
  5
11C
330
1F
100
AcDbEntity
  8
2
  6
Continuous
 62
     4
370
    20
100
AcDbLine
 10
2433.941028180697
 20
3260.90715935336
 30
0.0
 11
2433.941028180697
 21
2031.607401382038
 31
0.0
  0
LINE
  5
11D
330
1F
100
AcDbEntity
  8
2
  6
Continuous
 62
     4
370
    20
100
AcDbLine
 10
1808.941028180697
 20
2031.607401382038
 30
0.0
 11
1783.941028180697
 21
2031.607401382038
 31
0.0
  0
LINE
  5
11E
330
1F
100
AcDbEntity
  8
2
  6
Continuous
 62
     4
370
    20
100
AcDbLine
 10
2408.941028180697
 20
2031.607401382038
 30
0.0
 11
2433.941028180697
 21
2031.607401382038
 31
0.0
  0
LINE
  5
11F
330
1F
100
AcDbEntity
  8
2
  6
DASHDOT
 62
     4
370
    20
100
AcDbLine
 10
1865.532542236796
 20
2646.257280367699
 30
0.0
 11
1915.532542236796
 21
2646.257280367699
 31
0.0
  0
ARC
  5
120
330
1F
100
AcDbEntity
  8
2
  6
Continuous
 62
     4
370
    20
100
AcDbCircle
 10
1890.532542236796
 20
2646.257280367699
 30
0.0
 40
13.24999999999999
100
AcDbArc
 50
0.0
 51
179.9999999999998
  0
LINE
  5
121
330
1F
100
AcDbEntity
  8
2
  6
Continuous
 62
     4
370
    20
100
AcDbLine
 10
1877.282542236796
 20
2646.257280367699
 30
0.0
 11
1877.282542236796
 21
2551.0572803677
 31
0.0
  0
LINE
  5
122
330
1F
100
AcDbEntity
  8
2
  6
Continuous
 62
     4
370
    20
100
AcDbLine
 10
1881.282542236796
 20
2547.0572803677
 30
0.0
 11
1899.782542236796
 21
2547.0572803677
 31
0.0
  0
LINE
  5
123
330
1F
100
AcDbEntity
  8
2
  6
Continuous
 62
     4
370
    20
100
AcDbLine
 10
1903.782542236796
 20
2551.0572803677
 30
0.0
 11
1903.782542236796
 21
2646.257280367699
 31
0.0
  0
ARC
  5
124
330
1F
100
AcDbEntity
  8
2
  6
Continuous
 62
     4
370
    20
100
AcDbCircle
 10
1899.782542236796
 20
2551.0572803677
 30
0.0
 40
4.0
100
AcDbArc
 50
269.9999999999998
 51
0.0
  0
ARC
  5
125
330
1F
100
AcDbEntity
  8
2
  6
Continuous
 62
     4
370
    20
100
AcDbCircle
 10
1881.282542236796
 20
2551.0572803677
 30
0.0
 40
4.0
100
AcDbArc
 50
179.9999999999998
 51
269.9999999999998
  0
ARC
  5
126
330
1F
100
AcDbEntity
  8
2
  6
Continuous
 62
     4
370
    20
100
AcDbCircle
 10
1890.532542236796
 20
2646.257280367699
 30
0.0
 40
13.7
100
AcDbArc
 50
0.0
 51
179.9999999999998
  0
ARC
  5
127
330
1F
100
AcDbEntity
  8
2
  6
Continuous
 62
     4
370
    20
100
AcDbCircle
 10
1889.710748236795
 20
2518.757280367699
 30
0.0
 40
0.5
100
AcDbArc
 50
188.1545630000596
 51
269.9999999999998
  0
ARC
  5
128
330
1F
100
AcDbEntity
  8
2
  6
Continuous
 62
     4
370
    20
100
AcDbCircle
 10
1891.354337236796
 20
2518.757280367699
 30
0.0
 40
0.5
100
AcDbArc
 50
269.9999999999998
 51
351.8454369999693
  0
ARC
  5
129
330
1F
100
AcDbEntity
  8
2
  6
Continuous
 62
     4
370
    20
100
AcDbCircle
 10
1891.354337236796
 20
2523.757280367699
 30
0.0
 40
0.5
100
AcDbArc
 50
8.154563000030414
 51
89.99999999999991
  0
ARC
  5
12A
330
1F
100
AcDbEntity
  8
2
  6
Continuous
 62
     4
370
    20
100
AcDbCircle
 10
1889.710748236795
 20
2523.757280367699
 30
0.0
 40
0.5
100
AcDbArc
 50
89.99999999999991
 51
171.84543699994
  0
ARC
  5
12B
330
1F
100
AcDbEntity
  8
2
  6
Continuous
 62
     4
370
    20
100
AcDbCircle
 10
1873.907542236796
 20
2521.257280367699
 30
0.0
 40
18.125
100
AcDbArc
 50
351.8454369999988
 51
8.154563000000849
  0
ARC
  5
12C
330
1F
100
AcDbEntity
  8
2
  6
Continuous
 62
     4
370
    20
100
AcDbCircle
 10
1907.157542236796
 20
2521.257280367699
 30
0.0
 40
18.125
100
AcDbArc
 50
171.8454369999992
 51
188.1545630000005
  0
LINE
  5
12D
330
1F
100
AcDbEntity
  8
2
  6
Continuous
 62
     4
370
    20
100
AcDbLine
 10
1891.354337236796
 20
2518.257280367699
 30
0.0
 11
1889.710748236795
 21
2518.257280367699
 31
0.0
  0
LINE
  5
12E
330
1F
100
AcDbEntity
  8
2
  6
Continuous
 62
     4
370
    20
100
AcDbLine
 10
1891.354337236796
 20
2524.257280367699
 30
0.0
 11
1889.710748236795
 21
2524.257280367699
 31
0.0
  0
CIRCLE
  5
12F
330
1F
100
AcDbEntity
  8
2
  6
Continuous
 62
     4
370
    20
100
AcDbCircle
 10
1890.532542236796
 20
2521.257280367699
 30
0.0
 40
6.999999999999986
  0
LINE
  5
130
330
1F
100
AcDbEntity
  8
2
  6
DASHDOT
 62
     4
370
    20
100
AcDbLine
 10
1905.532542236796
 20
2521.257280367699
 30
0.0
 11
1875.532542236796
 21
2521.257280367699
 31
0.0
  0
LINE
  5
131
330
1F
100
AcDbEntity
  8
2
  6
Continuous
 62
     4
370
    20
100
AcDbLine
 10
1904.232542236795
 20
2646.257280367699
 30
0.0
 11
1904.232542236795
 21
2550.257280367699
 31
0.0
  0
ARC
  5
132
330
1F
100
AcDbEntity
  8
2
  6
Continuous
 62
     4
370
    20
100
AcDbCircle
 10
1872.032542236796
 20
2507.757280367699
 30
0.0
 40
1.5
100
AcDbArc
 50
179.9999999999998
 51
269.9999999999998
  0
ARC
  5
133
330
1F
100
AcDbEntity
  8
2
  6
Continuous
 62
     4
370
    20
100
AcDbCircle
 10
1909.032542236796
 20
2507.757280367699
 30
0.0
 40
1.5
100
AcDbArc
 50
269.9999999999998
 51
0.0
  0
ARC
  5
134
330
1F
100
AcDbEntity
  8
2
  6
Continuous
 62
     4
370
    20
100
AcDbCircle
 10
1909.032542236796
 20
2664.757280367699
 30
0.0
 40
1.5
100
AcDbArc
 50
0.0
 51
89.99999999999991
  0
ARC
  5
135
330
1F
100
AcDbEntity
  8
2
  6
Continuous
 62
     4
370
    20
100
AcDbCircle
 10
1872.032542236796
 20
2664.757280367699
 30
0.0
 40
1.5
100
AcDbArc
 50
89.99999999999991
 51
179.9999999999998
  0
LINE
  5
136
330
1F
100
AcDbEntity
  8
2
  6
Continuous
 62
     4
370
    20
100
AcDbLine
 10
1874.532542236796
 20
2664.257280367699
 30
0.0
 11
1871.132542236795
 21
2665.957280367699
 31
0.0
  0
LINE
  5
137
330
1F
100
AcDbEntity
  8
2
  6
Continuous
 62
     4
370
    20
100
AcDbLine
 10
1874.532542236796
 20
2508.257280367699
 30
0.0
 11
1871.132542236795
 21
2506.5572803677
 31
0.0
  0
LINE
  5
138
330
1F
100
AcDbEntity
  8
2
  6
Continuous
 62
     4
370
    20
100
AcDbLine
 10
1874.532542236796
 20
2664.257280367699
 30
0.0
 11
1874.532542236796
 21
2508.257280367699
 31
0.0
  0
LINE
  5
139
330
1F
100
AcDbEntity
  8
2
  6
Continuous
 62
     4
370
    20
100
AcDbLine
 10
1906.532542236796
 20
2508.257280367699
 30
0.0
 11
1909.932542236796
 21
2506.5572803677
 31
0.0
  0
LINE
  5
13A
330
1F
100
AcDbEntity
  8
2
  6
Continuous
 62
     4
370
    20
100
AcDbLine
 10
1906.532542236796
 20
2664.257280367699
 30
0.0
 11
1909.932542236796
 21
2665.957280367699
 31
0.0
  0
LINE
  5
13B
330
1F
100
AcDbEntity
  8
2
  6
DASHDOT
 62
     4
370
    20
100
AcDbLine
 10
1890.532542236796
 20
2501.257280367699
 30
0.0
 11
1890.532542236796
 21
2671.257280367699
 31
0.0
  0
LINE
  5
13C
330
1F
100
AcDbEntity
  8
2
  6
Continuous
 62
     4
370
    20
100
AcDbLine
 10
1906.532542236796
 20
2508.257280367699
 30
0.0
 11
1874.532542236796
 21
2508.257280367699
 31
0.0
  0
LINE
  5
13D
330
1F
100
AcDbEntity
  8
2
  6
Continuous
 62
     4
370
    20
100
AcDbLine
 10
1906.532542236796
 20
2664.257280367699
 30
0.0
 11
1874.532542236796
 21
2664.257280367699
 31
0.0
  0
LINE
  5
13E
330
1F
100
AcDbEntity
  8
2
  6
Continuous
 62
     4
370
    20
100
AcDbLine
 10
1906.532542236796
 20
2664.257280367699
 30
0.0
 11
1906.532542236796
 21
2508.257280367699
 31
0.0
  0
LINE
  5
13F
330
1F
100
AcDbEntity
  8
2
  6
Continuous
 62
     4
370
    20
100
AcDbLine
 10
1909.032542236796
 20
2506.257280367699
 30
0.0
 11
1872.032542236796
 21
2506.257280367699
 31
0.0
  0
LINE
  5
140
330
1F
100
AcDbEntity
  8
2
  6
Continuous
 62
     4
370
    20
100
AcDbLine
 10
1910.532542236796
 20
2664.757280367699
 30
0.0
 11
1910.532542236796
 21
2507.757280367699
 31
0.0
  0
LINE
  5
141
330
1F
100
AcDbEntity
  8
2
  6
Continuous
 62
     4
370
    20
100
AcDbLine
 10
1872.032542236796
 20
2666.257280367699
 30
0.0
 11
1909.032542236796
 21
2666.257280367699
 31
0.0
  0
LINE
  5
142
330
1F
100
AcDbEntity
  8
2
  6
Continuous
 62
     4
370
    20
100
AcDbLine
 10
1870.532542236796
 20
2507.757280367699
 30
0.0
 11
1870.532542236796
 21
2664.757280367699
 31
0.0
  0
ARC
  5
143
330
1F
100
AcDbEntity
  8
2
  6
Continuous
 62
     4
370
    20
100
AcDbCircle
 10
1880.832542236795
 20
2550.257280367699
 30
0.0
 40
4.0
100
AcDbArc
 50
179.9999999999998
 51
253.1420439999931
  0
ARC
  5
144
330
1F
100
AcDbEntity
  8
2
  6
Continuous
 62
     4
370
    20
100
AcDbCircle
 10
1901.682542236796
 20
2545.472147367699
 30
0.0
 40
1.0
100
AcDbArc
 50
106.8579560000028
 51
179.9999999999998
  0
LINE
  5
145
330
1F
100
AcDbEntity
  8
2
  6
Continuous
 62
     4
370
    20
100
AcDbLine
 10
1876.832542236795
 20
2550.257280367699
 30
0.0
 11
1876.832542236795
 21
2646.257280367699
 31
0.0
  0
ARC
  5
146
330
1F
100
AcDbEntity
  8
2
  6
Continuous
 62
     4
370
    20
100
AcDbCircle
 10
1890.532542236796
 20
2521.257280367699
 30
0.0
 40
10.14999999999999
100
AcDbArc
 50
179.9999999999998
 51
0.0
  0
LINE
  5
147
330
1F
100
AcDbEntity
  8
2
  6
Continuous
 62
     4
370
    20
100
AcDbLine
 10
1900.682542236796
 20
2545.472147367699
 30
0.0
 11
1900.682542236796
 21
2521.257280367699
 31
0.0
  0
LINE
  5
148
330
1F
100
AcDbEntity
  8
2
  6
Continuous
 62
     4
370
    20
100
AcDbLine
 10
1880.382542236795
 20
2545.472147367699
 30
0.0
 11
1880.382542236795
 21
2521.257280367699
 31
0.0
  0
ARC
  5
149
330
1F
100
AcDbEntity
  8
2
  6
Continuous
 62
     4
370
    20
100
AcDbCircle
 10
1900.232542236795
 20
2550.257280367699
 30
0.0
 40
4.0
100
AcDbArc
 50
286.8579560000062
 51
0.0
  0
ARC
  5
14A
330
1F
100
AcDbEntity
  8
2
  6
Continuous
 62
     4
370
    20
100
AcDbCircle
 10
1879.382542236795
 20
2545.472147367699
 30
0.0
 40
1.0
100
AcDbArc
 50
0.0
 51
73.14204399999724
  0
INSERT
  5
19E
330
1F
100
AcDbEntity
  8
1
100
AcDbBlockReference
  2
*G21
 10
0.0
 20
0.0
 30
0.0
  0
LINE
  5
19F
330
1F
100
AcDbEntity
  8
2
  6
Continuous
 62
     4
370
    20
100
AcDbLine
 10
1899.532542236796
 20
2546.257280367699
 30
0.0
 11
1881.532542236796
 21
2546.257280367699
 31
0.0
  0
ARC
  5
1A0
330
1F
100
AcDbEntity
  8
2
  6
Continuous
 62
     4
370
    20
100
AcDbCircle
 10
1899.532542236796
 20
2545.257280367699
 30
0.0
 40
1.0
100
AcDbArc
 50
0.0
 51
89.99999999999991
  0
ARC
  5
1A1
330
1F
100
AcDbEntity
  8
2
  6
Continuous
 62
     4
370
    20
100
AcDbCircle
 10
1881.532542236796
 20
2545.257280367699
 30
0.0
 40
1.0
100
AcDbArc
 50
89.99999999999991
 51
179.9999999999998
  0
ARC
  5
1A2
330
1F
100
AcDbEntity
  8
2
  6
Continuous
 62
     4
370
    20
100
AcDbCircle
 10
1890.532542236796
 20
2521.257280367699
 30
0.0
 40
9.999999999999986
100
AcDbArc
 50
179.9999999999998
 51
0.0
  0
LINE
  5
1A3
330
1F
100
AcDbEntity
  8
2
  6
Continuous
 62
     4
370
    20
100
AcDbLine
 10
1900.532542236796
 20
2547.1282223677
 30
0.0
 11
1900.532542236796
 21
2521.257280367699
 31
0.0
  0
LINE
  5
1A4
330
1F
100
AcDbEntity
  8
2
  6
Continuous
 62
     4
370
    20
100
AcDbLine
 10
1880.532542236796
 20
2521.257280367699
 30
0.0
 11
1880.532542236796
 21
2547.1282223677
 31
0.0
  0
LINE
  5
1A5
330
1F
100
AcDbEntity
  8
2
  6
HIDDEN
 62
     4
370
    20
100
AcDbLine
 10
1838.941028180697
 20
1931.607401382038
 30
0.0
 11
1838.941028180697
 21
2031.607401382038
 31
0.0
  0
LINE
  5
1A6
330
1F
100
AcDbEntity
  8
2
  6
HIDDEN
 62
     4
370
    20
100
AcDbLine
 10
1832.941028180697
 20
2025.607401382038
 30
0.0
 11
1832.941028180697
 21
1937.607401382038
 31
0.0
  0
INSERT
  5
1AD
330
1F
100
AcDbEntity
  8
0
100
AcDbBlockReference
  2
*G23
 10
0.0
 20
0.0
 30
0.0
  0
INSERT
  5
1B4
330
1F
100
AcDbEntity
  8
0
100
AcDbBlockReference
  2
*G24
 10
0.0
 20
0.0
 30
0.0
  0
DIMENSION
  5
1BF
330
1F
100
AcDbEntity
  8
2
  6
Continuous
 62
     4
370
    20
100
AcDbDimension
  2
Dim1
 10
2428.941028180696
 20
1558.618334609721
 30
0.0
 11
2108.941028180696
 21
1558.618334609721
 31
0.0
 70
   160
  1
<>
 71
     8
 42
-1.0
 73
     0
 74
     0
 75
     0
  3
Standard
100
AcDbAlignedDimension
 13
1788.941028180697
 23
1931.607401382038
 33
0.0
 14
2428.941028180698
 24
1931.607401382038
 34
0.0
100
AcDbRotatedDimension
1001
ACAD
1000
DSTYLE
1002
{
1070
   279
1070
     1
1070
   340
1005
1B5
1070
   140
1040
60.0
1070
    40
1040
1.0
1070
   147
1040
0.0
1070
    76
1070
     0
1070
    75
1070
     0
1070
   344
1005
51
1070
   343
1005
51
1070
   173
1070
     1
1070
   289
1070
     2
1070
   288
1070
     1
1070
    77
1070
     1
1070
   172
1070
     1
1070
   174
1070
     0
1070
    74
1070
     0
1070
    73
1070
     0
1070
   284
1070
     8
1070
    78
1070
     8
1070
    42
1040
40.0
1070
    44
1040
20.0
1070
    43
1040
10.0
1070
   271
1070
     2
1070
    41
1040
20.0
1002
}
  0
DIMENSION
  5
1C9
330
1F
100
AcDbEntity
  8
2
  6
Continuous
 62
     4
370
    20
100
AcDbDimension
  2
Dim2
 10
1858.941028180697
 20
1670.39478171551
 30
0.0
 11
1823.941028180697
 21
1670.39478171551
 31
0.0
 70
   160
  1
70
 71
     8
 42
-1.0
 73
     0
 74
     0
 75
     0
  3
Standard
100
AcDbAlignedDimension
 13
1788.941028180697
 23
1931.607401382038
 33
0.0
 14
1858.941028180697
 24
1921.915416067645
 34
0.0
100
AcDbRotatedDimension
1001
ACAD
1000
DSTYLE
1002
{
1070
   279
1070
     1
1070
   340
1005
1B5
1070
   140
1040
60.0
1070
    40
1040
1.0
1070
   147
1040
0.0
1070
    76
1070
     0
1070
    75
1070
     0
1070
   344
1005
51
1070
   343
1005
51
1070
   173
1070
     1
1070
   289
1070
     2
1070
   288
1070
     1
1070
    77
1070
     1
1070
   172
1070
     1
1070
   174
1070
     0
1070
    74
1070
     0
1070
    73
1070
     0
1070
   284
1070
     8
1070
    78
1070
     8
1070
    42
1040
40.0
1070
    44
1040
20.0
1070
    43
1040
10.0
1070
   271
1070
     2
1070
    41
1040
20.0
1002
}
  0
DIMENSION
  5
1D2
330
1F
100
AcDbEntity
  8
2
  6
Continuous
 62
     4
370
    20
100
AcDbDimension
  2
Dim3
 10
2358.941028180698
 20
1670.39478171551
 30
0.0
 11
2108.941028180696
 21
1670.39478171551
 31
0.0
 70
   160
  1
500
 71
     8
 42
-1.0
 73
     0
 74
     0
 75
     0
  3
Standard
100
AcDbAlignedDimension
 13
1858.941028180697
 23
1921.915416067645
 33
0.0
 14
2358.941028180698
 24
1924.204498016535
 34
0.0
100
AcDbRotatedDimension
1001
ACAD
1000
DSTYLE
1002
{
1070
   279
1070
     1
1070
   340
1005
1B5
1070
   140
1040
60.0
1070
    40
1040
1.0
1070
   147
1040
0.0
1070
    76
1070
     0
1070
    75
1070
     1
1070
   344
1005
51
1070
   343
1005
51
1070
   173
1070
     1
1070
   289
1070
     2
1070
   288
1070
     1
1070
    77
1070
     1
1070
   172
1070
     1
1070
   174
1070
     0
1070
    74
1070
     0
1070
    73
1070
     0
1070
   284
1070
     8
1070
    78
1070
     8
1070
    42
1040
40.0
1070
    44
1040
20.0
1070
    43
1040
10.0
1070
   271
1070
     2
1070
    41
1040
20.0
1002
}
  0
DIMENSION
  5
1DB
330
1F
100
AcDbEntity
  8
2
  6
Continuous
 62
     4
370
    20
100
AcDbDimension
  2
Dim4
 10
2428.941028180698
 20
1670.39478171551
 30
0.0
 11
2393.941028180699
 21
1670.39478171551
 31
0.0
 70
   160
  1
70
 71
     8
 42
-1.0
 73
     0
 74
     0
 75
     0
  3
Standard
100
AcDbAlignedDimension
 13
2358.941028180698
 23
1924.204498016535
 33
0.0
 14
2428.941028180698
 24
1931.607401382038
 34
0.0
100
AcDbRotatedDimension
1001
ACAD
1000
DSTYLE
1002
{
1070
   279
1070
     1
1070
   340
1005
1B5
1070
   140
1040
60.0
1070
    40
1040
1.0
1070
   147
1040
0.0
1070
    76
1070
     0
1070
    75
1070
     1
1070
   344
1005
51
1070
   343
1005
51
1070
   173
1070
     1
1070
   289
1070
     2
1070
   288
1070
     1
1070
    77
1070
     1
1070
   172
1070
     1
1070
   174
1070
     0
1070
    74
1070
     0
1070
    73
1070
     0
1070
   284
1070
     8
1070
    78
1070
     8
1070
    42
1040
40.0
1070
    44
1040
20.0
1070
    43
1040
10.0
1070
   271
1070
     2
1070
    41
1040
20.0
1002
}
  0
DIMENSION
  5
1E5
330
1F
100
AcDbEntity
  8
2
  6
Continuous
 62
     4
370
    20
100
AcDbDimension
  2
Dim5
 10
2433.941028180697
 20
3705.733848717058
 30
0.0
 11
2108.941028180699
 21
3705.733848717058
 31
0.0
 70
   160
  1
<>
 71
     8
 42
-1.0
 73
     0
 74
     0
 75
     0
  3
Standard
100
AcDbAlignedDimension
 13
1783.941028180697
 23
3431.607401382038
 33
0.0
 14
2433.941028180697
 24
3431.607401382038
 34
0.0
100
AcDbRotatedDimension
1001
ACAD
1000
DSTYLE
1002
{
1070
   279
1070
     1
1070
   340
1005
1B5
1070
   140
1040
60.0
1070
    40
1040
1.0
1070
   147
1040
0.0
1070
    76
1070
     0
1070
    75
1070
     0
1070
   344
1005
51
1070
   343
1005
51
1070
   173
1070
     1
1070
   289
1070
     2
1070
   288
1070
     1
1070
    77
1070
     1
1070
   172
1070
     1
1070
   174
1070
     0
1070
    74
1070
     0
1070
    73
1070
     0
1070
   284
1070
     8
1070
    78
1070
     8
1070
    42
1040
40.0
1070
    44
1040
20.0
1070
    43
1040
10.0
1070
   271
1070
     2
1070
    41
1040
20.0
1002
}
  0
LINE
  5
1E6
330
1F
100
AcDbEntity
  8
8
  6
HIDDEN
 62
    30
370
    20
100
AcDbLine
 10
1993.941028180697
 20
1991.607401382038
 30
0.0
 11
1993.941028180697
 21
1946.607401382038
 31
0.0
  0
LINE
  5
1E7
330
1F
100
AcDbEntity
  8
8
  6
HIDDEN
 62
    30
370
    20
100
AcDbLine
 10
2233.941028180697
 20
1991.607401382038
 30
0.0
 11
2233.941028180697
 21
1946.607401382038
 31
0.0
  0
LINE
  5
1E8
330
1F
100
AcDbEntity
  8
8
  6
HIDDEN
 62
    30
370
    20
100
AcDbLine
 10
2233.941028180697
 20
1946.607401382038
 30
0.0
 11
2178.941028180697
 21
1946.607401382038
 31
0.0
  0
LINE
  5
1E9
330
1F
100
AcDbEntity
  8
8
  6
HIDDEN
 62
    30
370
    20
100
AcDbLine
 10
2233.941028180696
 20
1991.607401382038
 30
0.0
 11
2178.941028180697
 21
1991.607401382038
 31
0.0
  0
LINE
  5
1EA
330
1F
100
AcDbEntity
  8
8
  6
HIDDEN
 62
    30
370
    20
100
AcDbLine
 10
1993.941028180697
 20
1946.607401382038
 30
0.0
 11
2178.941028180697
 21
1946.607401382038
 31
0.0
  0
LINE
  5
1EB
330
1F
100
AcDbEntity
  8
8
  6
HIDDEN
 62
    30
370
    20
100
AcDbLine
 10
1993.941028180697
 20
1991.607401382038
 30
0.0
 11
2182.163649383167
 21
1991.607401382038
 31
0.0
  0
LINE
  5
1EC
330
1F
100
AcDbEntity
  8
8
  6
Continuous
 62
    30
370
    20
100
AcDbLine
 10
2268.941028180697
 20
1937.607401382038
 30
0.0
 11
2268.941028180697
 21
2025.607401382038
 31
0.0
  0
LINE
  5
1ED
330
1F
100
AcDbEntity
  8
8
  6
Continuous
 62
    30
370
    20
100
AcDbLine
 10
1958.941028180697
 20
1937.607401382038
 30
0.0
 11
1958.941028180697
 21
2025.607401382038
 31
0.0
  0
INSERT
  5
1EE
330
1F
100
AcDbEntity
  8
2
  6
Continuous
 62
     4
370
    20
100
AcDbBlockReference
  2
_OPEN
 10
2233.941028180697
 20
1973.493580626196
 30
0.0
 41
40.0
 42
40.0
 43
40.0
 50
109.1284609358541
  0
POLYLINE
  5
1EF
330
1F
100
AcDbEntity
  8
2
  6
Continuous
 62
     4
370
    20
100
AcDb2dPolyline
 66
     1
 10
0.0
 20
0.0
 30
0.0
  0
VERTEX
  5
1F0
330
1EF
100
AcDbEntity
  8
2
  6
Continuous
 62
     4
370
    20
100
AcDbVertex
100
AcDb2dVertex
 10
2233.941028180697
 20
1973.493580626196
 30
0.0
  0
VERTEX
  5
1F1
330
1EF
100
AcDbEntity
  8
2
  6
Continuous
 62
     4
370
    20
100
AcDbVertex
100
AcDb2dVertex
 10
2432.271585974096
 20
1401.667899338151
 30
0.0
  0
VERTEX
  5
1F2
330
1EF
100
AcDbEntity
  8
2
  6
Continuous
 62
     4
370
    20
100
AcDbVertex
100
AcDb2dVertex
 10
2650.206387134702
 20
1401.667899338151
 30
0.0
  0
SEQEND
  5
1F3
330
1EF
100
AcDbEntity
  8
2
  6
Continuous
 62
     4
370
    20
  0
MTEXT
  5
1F4
330
1F
100
AcDbEntity
  8
2
  6
Continuous
 62
     4
370
     9
100
AcDbMText
 10
2470.206387134702
 20
1401.667899338151
 30
0.0
 40
60.0
 41
276.4101
 46
60.0
 71
     7
 72
     1
  1
{\fＭＳ ゴシック;\T0.750000;吸気口}
 73
     1
 44
1.0
1001
ACAD
1000
ACAD_MTEXT_DEFINED_HEIGHT_BEGIN
1070
    46
1040
60.0
1000
ACAD_MTEXT_DEFINED_HEIGHT_END
  0
INSERT
  5
1F5
330
1F
100
AcDbEntity
  8
2
  6
Continuous
 62
     4
370
    20
100
AcDbBlockReference
  2
_OPEN
 10
1858.941028180696
 20
1931.607401382038
 30
0.0
 41
40.0
 42
40.0
 43
40.0
 50
56.8255048994225
  0
POLYLINE
  5
1F6
330
1F
100
AcDbEntity
  8
2
  6
Continuous
 62
     4
370
    20
100
AcDb2dPolyline
 66
     1
 10
0.0
 20
0.0
 30
0.0
  0
VERTEX
  5
1F7
330
1F6
100
AcDbEntity
  8
2
  6
Continuous
 62
     4
370
    20
100
AcDbVertex
100
AcDb2dVertex
 10
1858.941028180696
 20
1931.607401382038
 30
0.0
  0
VERTEX
  5
1F8
330
1F6
100
AcDbEntity
  8
2
  6
Continuous
 62
     4
370
    20
100
AcDbVertex
100
AcDb2dVertex
 10
1607.451068412285
 20
1546.916823577397
 30
0.0
  0
VERTEX
  5
1F9
330
1F6
100
AcDbEntity
  8
2
  6
Continuous
 62
     4
370
    20
100
AcDbVertex
100
AcDb2dVertex
 10
1427.451068412285
 20
1546.916823577397
 30
0.0
  0
SEQEND
  5
1FA
330
1F6
100
AcDbEntity
  8
2
  6
Continuous
 62
     4
370
    20
  0
MTEXT
  5
1FB
330
1F
100
AcDbEntity
  8
2
  6
Continuous
 62
     4
370
     9
100
AcDbMText
 10
1607.451068412285
 20
1546.916823577397
 30
0.0
 40
60.0
 41
269.1042
 46
60.0
 71
     9
 72
     1
  1
{\fＭＳ ゴシック;\T0.750000;4-Φ20}
 73
     1
 44
1.0
1001
ACAD
1000
ACAD_MTEXT_DEFINED_HEIGHT_BEGIN
1070
    46
1040
60.0
1000
ACAD_MTEXT_DEFINED_HEIGHT_END
  0
INSERT
  5
1FC
330
1F
100
AcDbEntity
  8
2
  6
Continuous
 62
     4
370
    20
100
AcDbBlockReference
  2
_OPEN
 10
2311.440545892892
 20
1926.34661569296
 30
0.0
 41
40.0
 42
40.0
 43
40.0
 50
133.8416046680272
  0
POLYLINE
  5
1FD
330
1F
100
AcDbEntity
  8
2
  6
Continuous
 62
     4
370
    20
100
AcDb2dPolyline
 66
     1
 10
0.0
 20
0.0
 30
0.0
  0
VERTEX
  5
1FE
330
1FD
100
AcDbEntity
  8
2
  6
Continuous
 62
     4
370
    20
100
AcDbVertex
100
AcDb2dVertex
 10
2311.440545892892
 20
1926.34661569296
 30
0.0
  0
VERTEX
  5
1FF
330
1FD
100
AcDbEntity
  8
2
  6
Continuous
 62
     4
370
    20
100
AcDbVertex
100
AcDb2dVertex
 10
2696.421045791156
 20
1525.47575509707
 30
0.0
  0
VERTEX
  5
200
330
1FD
100
AcDbEntity
  8
2
  6
Continuous
 62
     4
370
    20
100
AcDbVertex
100
AcDb2dVertex
 10
2876.421045791156
 20
1525.47575509707
 30
0.0
  0
SEQEND
  5
201
330
1FD
100
AcDbEntity
  8
2
  6
Continuous
 62
     4
370
    20
  0
MTEXT
  5
202
330
1F
100
AcDbEntity
  8
2
  6
Continuous
 62
     4
370
     9
100
AcDbMText
 10
2696.421045791156
 20
1525.47575509707
 30
0.0
 40
60.0
 41
279.9032999999999
 46
60.0
 71
     7
 72
     1
  1
{\fＭＳ ゴシック;\T0.750000;通線口}
 73
     1
 44
1.0
1001
ACAD
1000
ACAD_MTEXT_DEFINED_HEIGHT_BEGIN
1070
    46
1040
60.0
1000
ACAD_MTEXT_DEFINED_HEIGHT_END
  0
LINE
  5
203
330
1F
100
AcDbEntity
  8
2
  6
DOT
 62
     4
370
    20
100
AcDbLine
 10
2373.941028180697
 20
1914.607401382038
 30
0.0
 11
2373.9410281807
 21
1954.607401382038
 31
0.0
  0
LINE
  5
204
330
1F
100
AcDbEntity
  8
2
  6
DOT
 62
     4
370
    20
100
AcDbLine
 10
2373.9410281807
 20
1954.607401382038
 30
0.0
 11
2233.9410281807
 21
1914.607401382038
 31
0.0
  0
LINE
  5
205
330
1F
100
AcDbEntity
  8
2
  6
DOT
 62
     4
370
    20
100
AcDbLine
 10
2233.9410281807
 20
1954.607401382038
 30
0.0
 11
2373.9410281807
 21
1914.607401382038
 31
0.0
  0
LINE
  5
206
330
1F
100
AcDbEntity
  8
2
  6
DOT
 62
     4
370
    20
100
AcDbLine
 10
2233.9410281807
 20
1954.607401382038
 30
0.0
 11
2233.9410281807
 21
1914.607401382038
 31
0.0
  0
LINE
  5
207
330
1F
100
AcDbEntity
  8
16
  6
Continuous
 62
     7
370
    50
100
AcDbLine
 10
3992.183898781856
 20
5648.302574151556
 30
0.0
 11
292.5
 21
5648.302574151556
 31
0.0
  0
LINE
  5
208
330
1F
100
AcDbEntity
  8
16
  6
Continuous
 62
     7
370
    50
100
AcDbLine
 10
292.5
 20
5648.302574151556
 30
0.0
 11
292.5
 21
442.3722692591805
 31
0.0
  0
LINE
  5
209
330
1F
100
AcDbEntity
  8
16
  6
Continuous
 62
     7
370
    20
100
AcDbLine
 10
2336.933877972385
 20
602.4972268579263
 30
0.0
 11
1880.183888768277
 21
602.4972268579263
 31
0.0
  0
LINE
  5
20A
330
1F
100
AcDbEntity
  8
16
  6
Continuous
 62
     7
370
    20
100
AcDbLine
 10
2336.933877972385
 20
654.9972565857429
 30
0.0
 11
1880.183888768277
 21
654.9972565857429
 31
0.0
  0
LINE
  5
20B
330
1F
100
AcDbEntity
  8
16
  6
Continuous
 62
     7
370
    20
100
AcDbLine
 10
1985.183882509788
 20
442.3722692591805
 30
0.0
 11
1985.183882509788
 21
867.6222603408355
 31
0.0
  0
LINE
  5
20C
330
1F
100
AcDbEntity
  8
16
  6
Continuous
 62
     7
370
    20
100
AcDbLine
 10
2336.933877972385
 20
759.9972831843156
 30
0.0
 11
1880.183888768277
 21
759.9972831843156
 31
0.0
  0
LINE
  5
20D
330
1F
100
AcDbEntity
  8
16
  6
Continuous
 62
     7
370
    20
100
AcDbLine
 10
2336.933877972385
 20
707.4972205994386
 30
0.0
 11
1880.183888768277
 21
707.4972205994386
 31
0.0
  0
LINE
  5
20E
330
1F
100
AcDbEntity
  8
16
  6
Continuous
 62
     7
370
    20
100
AcDbLine
 10
2336.933877972385
 20
549.9972792727608
 30
0.0
 11
1880.183888768277
 21
549.9972792727608
 31
0.0
  0
LINE
  5
20F
330
1F
100
AcDbEntity
  8
16
  6
Continuous
 62
     7
370
    20
100
AcDbLine
 10
2336.933877972385
 20
497.4972495449442
 30
0.0
 11
1880.183888768277
 21
497.4972495449442
 31
0.0
  0
LINE
  5
210
330
1F
100
AcDbEntity
  8
16
  6
Continuous
 62
     7
370
    20
100
AcDbLine
 10
2420.933905822655
 20
636.622241252448
 30
0.0
 11
2420.933905822655
 21
552.6222626877684
 31
0.0
  0
LINE
  5
211
330
1F
100
AcDbEntity
  8
16
  6
Continuous
 62
     7
370
    20
100
AcDbLine
 10
2651.933908482512
 20
867.6222603408355
 30
0.0
 11
2651.933908482512
 21
694.3723035244006
 31
0.0
  0
LINE
  5
212
330
1F
100
AcDbEntity
  8
16
  6
Continuous
 62
     7
370
    20
100
AcDbLine
 10
2651.933908482512
 20
636.622241252448
 30
0.0
 11
2651.933908482512
 21
552.6222626877684
 31
0.0
  0
LINE
  5
213
330
1F
100
AcDbEntity
  8
16
  6
Continuous
 62
     7
370
    20
100
AcDbLine
 10
3056.183900815864
 20
867.6222603408355
 30
0.0
 11
3056.183900815864
 21
442.3722692591805
 31
0.0
  0
LINE
  5
214
330
1F
100
AcDbEntity
  8
16
  6
Continuous
 62
     7
370
    20
100
AcDbLine
 10
2494.433901441714
 20
867.6222603408355
 30
0.0
 11
2494.433901441714
 21
636.622241252448
 31
0.0
  0
LINE
  5
215
330
1F
100
AcDbEntity
  8
16
  6
Continuous
 62
     7
370
    20
100
AcDbLine
 10
2336.933877972385
 20
812.4972800550718
 30
0.0
 11
2966.933873278519
 21
812.4972800550718
 31
0.0
  0
LINE
  5
216
330
1F
100
AcDbEntity
  8
16
  6
Continuous
 62
     7
370
    20
100
AcDbLine
 10
2336.933877972385
 20
812.4972800550718
 30
0.0
 11
1880.183888768277
 21
812.4972800550718
 31
0.0
  0
LINE
  5
217
330
1F
100
AcDbEntity
  8
16
  6
Continuous
 62
     7
370
    20
100
AcDbLine
 10
1880.183888768277
 20
442.3722692591805
 30
0.0
 11
1880.183888768277
 21
867.6222603408355
 31
0.0
  0
LINE
  5
218
330
1F
100
AcDbEntity
  8
16
  6
Continuous
 62
     7
370
    50
100
AcDbLine
 10
2809.433899094781
 20
867.6222603408355
 30
0.0
 11
2809.433899094781
 21
636.622241252448
 31
0.0
  0
LINE
  5
219
330
1F
100
AcDbEntity
  8
16
  6
Continuous
 62
     7
370
    50
100
AcDbLine
 10
2966.933873278519
 20
867.6222603408355
 30
0.0
 11
2966.933873278519
 21
442.3722692591805
 31
0.0
  0
LINE
  5
21A
330
1F
100
AcDbEntity
  8
16
  6
Continuous
 62
     7
370
    50
100
AcDbLine
 10
2336.933877972385
 20
636.622241252448
 30
0.0
 11
2966.933873278519
 21
636.622241252448
 31
0.0
  0
LINE
  5
21B
330
1F
100
AcDbEntity
  8
16
  6
Continuous
 62
     7
370
    50
100
AcDbLine
 10
2809.433899094781
 20
694.3723035244006
 30
0.0
 11
2336.933877972385
 21
694.3723035244006
 31
0.0
  0
LINE
  5
21C
330
1F
100
AcDbEntity
  8
16
  6
Continuous
 62
     7
370
    50
100
AcDbLine
 10
2336.933877972385
 20
442.3722692591805
 30
0.0
 11
2336.933877972385
 21
867.6222603408355
 31
0.0
  0
LINE
  5
21D
330
1F
100
AcDbEntity
  8
16
  6
Continuous
 62
     7
370
    50
100
AcDbLine
 10
1817.18394180896
 20
867.6222603408355
 30
0.0
 11
1817.18394180896
 21
442.3722692591805
 31
0.0
  0
MTEXT
  5
21E
330
1F
100
AcDbEntity
  8
16
  6
Continuous
 62
     7
370
     9
100
AcDbMText
 10
1829.58250518057
 20
742.0563791100981
 30
0.0
 40
42.0
 41
340.15674
 46
42.0
 71
     7
 72
     1
  1
{\f@HG丸ｺﾞｼｯｸM-PRO|b1;\T0.750000;訂　　　正}
  7
T_STANDARD
 11
6.123233995736766E-17
 21
-1.0
 31
0.0
 73
     1
 44
1.0
1001
ACAD
1000
ACAD_MTEXT_DEFINED_HEIGHT_BEGIN
1070
    46
1040
42.0
1000
ACAD_MTEXT_DEFINED_HEIGHT_END
  0
MTEXT
  5
21F
330
1F
100
AcDbEntity
  8
16
  6
Continuous
 62
     7
370
     9
100
AcDbMText
 10
2372.302548008333
 20
818.1653195994681
 30
0.0
 40
42.0
 41
138.909015
 46
42.0
 71
     7
 72
     1
  1
{\fHG丸ｺﾞｼｯｸM-PRO|b1;\T0.750000;承認}
 73
     1
 44
1.0
1001
ACAD
1000
ACAD_MTEXT_DEFINED_HEIGHT_BEGIN
1070
    46
1040
42.0
1000
ACAD_MTEXT_DEFINED_HEIGHT_END
  0
MTEXT
  5
220
330
1F
100
AcDbEntity
  8
16
  6
Continuous
 62
     7
370
     9
100
AcDbMText
 10
2529.802571477662
 20
818.1653195994681
 30
0.0
 40
42.0
 41
138.312615
 46
42.0
 71
     7
 72
     1
  1
{\fHG丸ｺﾞｼｯｸM-PRO|b1;\T0.750000;検図}
 73
     1
 44
1.0
1001
ACAD
1000
ACAD_MTEXT_DEFINED_HEIGHT_BEGIN
1070
    46
1040
42.0
1000
ACAD_MTEXT_DEFINED_HEIGHT_END
  0
MTEXT
  5
221
330
1F
100
AcDbEntity
  8
16
  6
Continuous
 62
     7
370
     9
100
AcDbMText
 10
2687.30257851846
 20
818.1653195994681
 30
0.0
 40
42.0
 41
137.358375
 46
42.0
 71
     7
 72
     1
  1
{\fHG丸ｺﾞｼｯｸM-PRO|b1;\T0.750000;製図}
 73
     1
 44
1.0
1001
ACAD
1000
ACAD_MTEXT_DEFINED_HEIGHT_BEGIN
1070
    46
1040
42.0
1000
ACAD_MTEXT_DEFINED_HEIGHT_END
  0
MTEXT
  5
222
330
1F
100
AcDbEntity
  8
16
  6
Continuous
 62
     7
370
     9
100
AcDbMText
 10
2844.802569130728
 20
818.1653195994681
 30
0.0
 40
42.0
 41
139.803615
 46
42.0
 71
     7
 72
     1
  1
{\fHG丸ｺﾞｼｯｸM-PRO|b1;\T0.750000;尺度}
 73
     1
 44
1.0
1001
ACAD
1000
ACAD_MTEXT_DEFINED_HEIGHT_BEGIN
1070
    46
1040
42.0
1000
ACAD_MTEXT_DEFINED_HEIGHT_END
  0
MTEXT
  5
223
330
1F
100
AcDbEntity
  8
16
  6
Continuous
 62
     7
370
     9
100
AcDbMText
 10
2372.302548008333
 20
644.9153627830333
 30
0.0
 40
42.0
 41
132.408255
 46
42.0
 71
     7
 72
     1
  1
{\fHG丸ｺﾞｼｯｸM-PRO|b1;\T0.750000;日付}
 73
     1
 44
1.0
1001
ACAD
1000
ACAD_MTEXT_DEFINED_HEIGHT_BEGIN
1070
    46
1040
42.0
1000
ACAD_MTEXT_DEFINED_HEIGHT_END
  0
MTEXT
  5
224
330
1F
100
AcDbEntity
  8
16
  6
Continuous
 62
     7
370
     9
100
AcDbMText
 10
2362.849255039319
 20
630.2927449117856
 30
0.0
 40
33.59999999999999
 41
104.972364
 46
33.59999999999999
 71
     7
 72
     1
  1
{\f@HG丸ｺﾞｼｯｸM-PRO|b1;\T0.750000;工番}
  7
T_STANDARD
 11
6.123233995736766E-17
 21
-1.0
 31
0.0
 73
     1
 44
1.0
1001
ACAD
1000
ACAD_MTEXT_DEFINED_HEIGHT_BEGIN
1070
    46
1040
33.59999999999999
1000
ACAD_MTEXT_DEFINED_HEIGHT_END
  0
MTEXT
  5
225
330
1F
100
AcDbEntity
  8
16
  6
Continuous
 62
     7
370
     9
100
AcDbMText
 10
2714.542904794118
 20
571.5033112605238
 30
0.0
 40
42.0
 41
277.765845
 46
42.0
 71
     7
 72
     1
  1
{\fHG丸ｺﾞｼｯｸM-PRO|b1;\T0.750000;第三角法}
 73
     1
 44
1.0
1001
ACAD
1000
ACAD_MTEXT_DEFINED_HEIGHT_BEGIN
1070
    46
1040
42.0
1000
ACAD_MTEXT_DEFINED_HEIGHT_END
  0
MTEXT
  5
226
330
1F
100
AcDbEntity
  8
16
  6
Continuous
 62
     7
370
     9
100
AcDbMText
 10
2995.465958910427
 20
863.7273166368827
 30
0.0
 40
31.49999999999999
 41
120.6856927220175
 46
31.49999999999999
 71
     7
 72
     1
  1
{\f@HG丸ｺﾞｼｯｸM-PRO|b1;\W0.766667;\T0.750000;納入先}
  7
T_STANDARD
 11
6.123233995736766E-17
 21
-1.0
 31
0.0
 73
     1
 44
1.0
1001
ACAD
1000
ACAD_MTEXT_DEFINED_HEIGHT_BEGIN
1070
    46
1040
31.49999999999999
1000
ACAD_MTEXT_DEFINED_HEIGHT_END
  0
MTEXT
  5
227
330
1F
100
AcDbEntity
  8
16
  6
Continuous
 62
     7
370
     9
100
AcDbMText
 10
2995.473932449064
 20
728.7022399266166
 30
0.0
 40
31.49999999999999
 41
182.8693384983674
 46
31.49999999999999
 71
     7
 72
     1
  1
{\f@HG丸ｺﾞｼｯｸM-PRO|b1;\W1.166667;\T0.750000;名　称}
  7
T_STANDARD
 11
6.123233995736766E-17
 21
-1.0
 31
0.0
 73
     1
 44
1.0
1001
ACAD
1000
ACAD_MTEXT_DEFINED_HEIGHT_BEGIN
1070
    46
1040
31.49999999999999
1000
ACAD_MTEXT_DEFINED_HEIGHT_END
  0
MTEXT
  5
228
330
1F
100
AcDbEntity
  8
16
  6
Continuous
 62
     7
370
     9
100
AcDbMText
 10
2995.420316338794
 20
536.4574447507571
 30
0.0
 40
31.49999999999999
 41
119.0927271514837
 46
31.49999999999999
 71
     7
 72
     1
  1
{\f@HG丸ｺﾞｼｯｸM-PRO|b1;\W1.166667;\T0.750000;図番}
  7
T_STANDARD
 11
6.123233995736766E-17
 21
-1.0
 31
0.0
 73
     1
 44
1.0
1001
ACAD
1000
ACAD_MTEXT_DEFINED_HEIGHT_BEGIN
1070
    46
1040
31.49999999999999
1000
ACAD_MTEXT_DEFINED_HEIGHT_END
  0
MTEXT
  5
229
330
1F
100
AcDbEntity
  8
16
  6
Continuous
 62
     7
370
     9
100
AcDbMText
 10
2807.184190914687
 20
644.7332708067875
 30
0.0
 40
42.0
 41
238.83402576096
 46
42.0
 71
     7
 72
     1
  1
{\fHG丸ｺﾞｼｯｸM-PRO|b1;\W0.875000;\T1.440576;（　　）}
 73
     1
 44
1.0
1001
ACAD
1000
ACAD_MTEXT_DEFINED_HEIGHT_BEGIN
1070
    46
1040
42.0
1000
ACAD_MTEXT_DEFINED_HEIGHT_END
  0
LINE
  5
22A
330
1F
100
AcDbEntity
  8
16
  6
Continuous
 62
     7
370
    20
100
AcDbLine
 10
3056.183900815864
 20
694.3723035244006
 30
0.0
 11
3992.183898781856
 21
694.3723035244006
 31
0.0
  0
LINE
  5
22B
330
1F
100
AcDbEntity
  8
16
  6
Continuous
 62
     7
370
    50
100
AcDbLine
 10
3992.183898781856
 20
783.6222324905652
 30
0.0
 11
2966.933873278519
 21
783.6222324905652
 31
0.0
  0
LINE
  5
22C
330
1F
100
AcDbEntity
  8
16
  6
Continuous
 62
     7
370
    50
100
AcDbLine
 10
1817.18394180896
 20
867.6222603408355
 30
0.0
 11
3992.183898781856
 21
867.6222603408355
 31
0.0
  0
LINE
  5
22D
330
1F
100
AcDbEntity
  8
16
  6
Continuous
 62
     7
370
    50
100
AcDbLine
 10
2336.933877972385
 20
552.6222626877684
 30
0.0
 11
3992.183898781856
 21
552.6222626877684
 31
0.0
  0
MTEXT
  5
22E
330
1F
100
AcDbEntity
  8
16
  6
Continuous
 62
     7
370
     9
100
AcDbMText
 10
3941.498573669411
 20
794.1770182020687
 30
0.0
 40
62.99999999999999
 41
42.59998295999998
 46
62.99999999999999
 71
     8
 72
     1
  1
{\fＦＡ 隷書Ｍ;\W0.833333;\T0.750000;殿}
 73
     1
 44
1.0
1001
ACAD
1000
ACAD_MTEXT_DEFINED_HEIGHT_BEGIN
1070
    46
1040
62.99999999999999
1000
ACAD_MTEXT_DEFINED_HEIGHT_END
  0
MTEXT
  5
22F
330
1F
100
AcDbEntity
  8
1
  6
Continuous
 62
     7
370
     9
100
AcDbMText
 10
2849.195839277564
 20
734.4295639513971
 30
0.0
 40
40.0
 41
112.6947746512
 46
40.0
 71
     7
 72
     1
  1
{\fＭＳ ゴシック;\T0.775244;1/20}
 73
     1
 44
1.0
1001
ACAD
1000
ACAD_MTEXT_DEFINED_HEIGHT_BEGIN
1070
    46
1040
40.0
1000
ACAD_MTEXT_DEFINED_HEIGHT_END
  0
MTEXT
  5
230
330
1F
100
AcDbEntity
  8
16
  6
Continuous
 62
     7
370
     9
100
AcDbMText
 10
2482.603581863406
 20
463.171862048775
 30
0.0
 40
62.99999999999999
 41
516.2440981219199
 46
62.99999999999999
 71
     7
 72
     1
  1
{\fHG丸ｺﾞｼｯｸM-PRO|b1;\W0.666667;\T0.750000;株式会社  桜電社}
 73
     1
 44
1.0
1001
ACAD
1000
ACAD_MTEXT_DEFINED_HEIGHT_BEGIN
1070
    46
1040
62.99999999999999
1000
ACAD_MTEXT_DEFINED_HEIGHT_END
  0
LINE
  5
231
330
1F
100
AcDbEntity
  8
16
  6
Continuous
 62
     7
370
    50
100
AcDbLine
 10
292.5
 20
442.3722692591805
 30
0.0
 11
3992.183898781856
 21
442.3722692591805
 31
0.0
  0
LINE
  5
232
330
1F
100
AcDbEntity
  8
16
  6
Continuous
 62
     7
370
    50
100
AcDbLine
 10
3992.183898781856
 20
442.3722692591805
 30
0.0
 11
3992.183898781856
 21
5648.302574151556
 31
0.0
  0
LINE
  5
233
330
1F
100
AcDbEntity
  8
2
  6
Continuous
 62
     4
370
    20
100
AcDbLine
 10
1783.941028180695
 20
3431.607401382038
 30
0.0
 11
1783.941028180695
 21
3290.90715935336
 31
0.0
  0
LINE
  5
234
330
1F
100
AcDbEntity
  8
2
  6
Continuous
 62
     4
370
    20
100
AcDbLine
 10
2433.941028180697
 20
3306.607401382041
 30
0.0
 11
1783.941028180695
 21
3306.607401382041
 31
0.0
  0
MTEXT
  5
235
330
1F
100
AcDbEntity
  8
1
  6
Continuous
 62
     7
370
     9
100
AcDbMText
 10
2681.905026596492
 20
719.986884134129
 30
0.0
 40
60.0
 41
159.65231113905
 46
60.0
 71
     7
 72
     1
  1
{\fＭＳ ゴシック;\W0.833333;\T0.750000;淳一}
 73
     1
 44
1.0
1001
ACAD
1000
ACAD_MTEXT_DEFINED_HEIGHT_BEGIN
1070
    46
1040
60.0
1000
ACAD_MTEXT_DEFINED_HEIGHT_END
  0
MTEXT
  5
236
330
1F
100
AcDbEntity
  8
1
  6
Continuous
 62
     7
370
     9
100
AcDbMText
 10
2524.405035984223
 20
719.986884134129
 30
0.0
 40
60.0
 41
160.78831068465
 46
60.0
 71
     7
 72
     1
  1
{\fＭＳ ゴシック;\W0.833333;\T0.750000;黒澤}
 73
     1
 44
1.0
1001
ACAD
1000
ACAD_MTEXT_DEFINED_HEIGHT_BEGIN
1070
    46
1040
60.0
1000
ACAD_MTEXT_DEFINED_HEIGHT_END
  0
MTEXT
  5
237
330
1F
100
AcDbEntity
  8
1
  6
Continuous
 62
     7
370
     9
100
AcDbMText
 10
2366.905028943424
 20
719.986884134129
 30
0.0
 40
60.0
 41
159.65231113905
 46
60.0
 71
     7
 72
     1
  1
{\fＭＳ ゴシック;\W0.833333;\T0.750000;柿間}
 73
     1
 44
1.0
1001
ACAD
1000
ACAD_MTEXT_DEFINED_HEIGHT_BEGIN
1070
    46
1040
60.0
1000
ACAD_MTEXT_DEFINED_HEIGHT_END
  0
INSERT
  5
238
330
1F
100
AcDbEntity
  8
2
  6
Continuous
 62
     4
370
    20
100
AcDbBlockReference
  2
_OPEN
 10
2238.887612573393
 20
2617.712287092998
 30
0.0
 41
40.0
 42
40.0
 43
40.0
 50
238.6913050423755
  0
POLYLINE
  5
239
330
1F
100
AcDbEntity
  8
2
  6
Continuous
 62
     4
370
    20
100
AcDb2dPolyline
 66
     1
 10
0.0
 20
0.0
 30
0.0
  0
VERTEX
  5
23A
330
239
100
AcDbEntity
  8
2
  6
Continuous
 62
     4
370
    20
100
AcDbVertex
100
AcDb2dVertex
 10
2238.887612573393
 20
2617.712287092998
 30
0.0
  0
VERTEX
  5
23B
330
239
100
AcDbEntity
  8
2
  6
Continuous
 62
     4
370
    20
100
AcDbVertex
100
AcDb2dVertex
 10
2474.154961833884
 20
3004.526849095223
 30
0.0
  0
VERTEX
  5
23C
330
239
100
AcDbEntity
  8
2
  6
Continuous
 62
     4
370
    20
100
AcDbVertex
100
AcDb2dVertex
 10
2924.770019395953
 20
3004.526849095223
 30
0.0
  0
SEQEND
  5
23D
330
239
100
AcDbEntity
  8
2
  6
Continuous
 62
     4
370
    20
  0
MTEXT
  5
23E
330
1F
100
AcDbEntity
  8
2
  6
Continuous
 62
     4
370
     9
100
AcDbMText
 10
2474.770019395953
 20
3004.526849095223
 30
0.0
 40
60.0
 41
292.8536999999999
 46
60.0
 71
     7
 72
     1
  1
{\fＭＳ ゴシック;\T0.750000;筐　体}
 73
     1
 44
1.0
1001
ACAD
1000
ACAD_MTEXT_DEFINED_HEIGHT_BEGIN
1070
    46
1040
60.0
1000
ACAD_MTEXT_DEFINED_HEIGHT_END
  0
MTEXT
  5
23F
330
1F
100
AcDbEntity
  8
2
  6
Continuous
 62
     4
370
     9
100
AcDbMText
 10
2474.770019395953
 20
3004.526849095223
 30
0.0
 40
60.0
 41
707.9786629439998
 46
60.0
 71
     1
 72
     1
  1
{\fＭＳ ゴシック;\T1.051056;（SPHC　3.2ｔ）}
 73
     1
 44
1.0
1001
ACAD
1000
ACAD_MTEXT_DEFINED_HEIGHT_BEGIN
1070
    46
1040
60.0
1000
ACAD_MTEXT_DEFINED_HEIGHT_END
  0
LINE
  5
240
330
1F
100
AcDbEntity
  8
2
  6
Continuous
 62
     4
370
    20
100
AcDbLine
 10
1833.941028180696
 20
3290.90715935336
 30
0.0
 11
1783.941028180695
 21
3290.90715935336
 31
0.0
  0
LINE
  5
241
330
1F
100
AcDbEntity
  8
2
  6
Continuous
 62
     4
370
    20
100
AcDbLine
 10
2433.941028180697
 20
3290.90715935336
 30
0.0
 11
2383.941028180697
 21
3290.90715935336
 31
0.0
  0
LINE
  5
242
330
1F
100
AcDbEntity
  8
2
  6
Continuous
 62
     4
370
    20
100
AcDbLine
 10
1833.941028180696
 20
3306.607401382041
 30
0.0
 11
1833.941028180696
 21
3260.90715935336
 31
0.0
  0
LINE
  5
243
330
1F
100
AcDbEntity
  8
2
  6
Continuous
 62
     4
370
    20
100
AcDbLine
 10
2383.941028180697
 20
3306.607401382041
 30
0.0
 11
2383.941028180697
 21
3260.90715935336
 31
0.0
  0
INSERT
  5
244
330
1F
100
AcDbEntity
  8
2
  6
Continuous
 62
     4
370
    20
100
AcDbBlockReference
  2
_OPEN
 10
2346.849542809642
 20
1981.828761429758
 30
0.0
 41
40.0
 42
40.0
 43
40.0
 50
243.358132003504
  0
POLYLINE
  5
245
330
1F
100
AcDbEntity
  8
2
  6
Continuous
 62
     4
370
    20
100
AcDb2dPolyline
 66
     1
 10
0.0
 20
0.0
 30
0.0
  0
VERTEX
  5
246
330
245
100
AcDbEntity
  8
2
  6
Continuous
 62
     4
370
    20
100
AcDbVertex
100
AcDb2dVertex
 10
2346.849542809642
 20
1981.828761429758
 30
0.0
  0
VERTEX
  5
247
330
245
100
AcDbEntity
  8
2
  6
Continuous
 62
     4
370
    20
100
AcDbVertex
100
AcDb2dVertex
 10
2529.20753671377
 20
2345.325574951511
 30
0.0
  0
VERTEX
  5
248
330
245
100
AcDbEntity
  8
2
  6
Continuous
 62
     4
370
    20
100
AcDbVertex
100
AcDb2dVertex
 10
3003.783634391486
 20
2345.325574951511
 30
0.0
  0
SEQEND
  5
249
330
245
100
AcDbEntity
  8
2
  6
Continuous
 62
     4
370
    20
  0
MTEXT
  5
24A
330
1F
100
AcDbEntity
  8
2
  6
Continuous
 62
     4
370
     9
100
AcDbMText
 10
2523.783634391486
 20
2345.325574951511
 30
0.0
 40
60.0
 41
766.6615499999998
 46
60.0
 71
     7
 72
     1
  1
{\fＭＳ ゴシック;\T0.750000;チャンネルベース}
 73
     1
 44
1.0
1001
ACAD
1000
ACAD_MTEXT_DEFINED_HEIGHT_BEGIN
1070
    46
1040
60.0
1000
ACAD_MTEXT_DEFINED_HEIGHT_END
  0
MTEXT
  5
24B
330
1F
100
AcDbEntity
  8
2
  6
Continuous
 62
     4
370
     9
100
AcDbMText
 10
2523.783634391486
 20
2345.325574951511
 30
0.0
 40
60.0
 41
707.9786629439998
 46
60.0
 71
     1
 72
     1
  1
{\fＭＳ ゴシック;\T1.051056;（SPHC　4.5ｔ）}
 73
     1
 44
1.0
1001
ACAD
1000
ACAD_MTEXT_DEFINED_HEIGHT_BEGIN
1070
    46
1040
60.0
1000
ACAD_MTEXT_DEFINED_HEIGHT_END
  0
DIMENSION
  5
255
330
1F
100
AcDbEntity
  8
2
  6
Continuous
 62
     4
370
    20
100
AcDbDimension
  2
Dim6
 10
1672.319482836548
 20
2031.607401382038
 30
0.0
 11
1672.319482836548
 21
1981.607401382039
 31
0.0
 70
   160
  1
<>
 71
     8
 42
-1.0
 73
     0
 74
     0
 75
     0
  3
Standard
100
AcDbAlignedDimension
 13
1788.941028180697
 23
1931.607401382038
 33
0.0
 14
1788.941028180697
 24
2031.607401382038
 34
0.0
 50
89.99999999999991
100
AcDbRotatedDimension
1001
ACAD
1000
DSTYLE
1002
{
1070
   279
1070
     1
1070
   340
1005
1B5
1070
   140
1040
60.0
1070
    40
1040
1.0
1070
   147
1040
0.0
1070
    76
1070
     0
1070
    75
1070
     0
1070
   344
1005
51
1070
   343
1005
51
1070
   173
1070
     1
1070
   289
1070
     2
1070
   288
1070
     1
1070
    77
1070
     1
1070
   172
1070
     1
1070
   174
1070
     0
1070
    74
1070
     0
1070
    73
1070
     0
1070
   284
1070
     8
1070
    78
1070
     8
1070
    42
1040
40.0
1070
    44
1040
20.0
1070
    43
1040
10.0
1070
   271
1070
     2
1070
    41
1040
20.0
1002
}
  0
DIMENSION
  5
25F
330
1F
100
AcDbEntity
  8
2
  6
Continuous
 62
     4
370
    20
100
AcDbDimension
  2
Dim7
 10
1588.603256192313
 20
1931.607401382039
 30
0.0
 11
1588.603256192313
 21
2681.607401382039
 31
0.0
 70
   160
  1
<>
 71
     8
 42
-1.0
 73
     0
 74
     0
 75
     0
 53
89.99999999999991
  3
Standard
100
AcDbAlignedDimension
 13
1783.941028180697
 23
3431.607401382038
 33
0.0
 14
1788.941028180697
 24
1931.607401382038
 34
0.0
 50
-89.99999999999991
100
AcDbRotatedDimension
1001
ACAD
1000
DSTYLE
1002
{
1070
   279
1070
     1
1070
   340
1005
1B5
1070
   140
1040
60.0
1070
    40
1040
1.0
1070
   147
1040
0.0
1070
    76
1070
     0
1070
    75
1070
     0
1070
   344
1005
51
1070
   343
1005
51
1070
   173
1070
     1
1070
   289
1070
     2
1070
   288
1070
     1
1070
    77
1070
     1
1070
   172
1070
     1
1070
   174
1070
     0
1070
    74
1070
     0
1070
    73
1070
     0
1070
   284
1070
     8
1070
    78
1070
     8
1070
    42
1040
40.0
1070
    44
1040
20.0
1070
    43
1040
10.0
1070
   271
1070
     2
1070
    41
1040
20.0
1002
}
  0
LINE
  5
260
330
1F
100
AcDbEntity
  8
2
  6
Continuous
 62
     4
370
    20
100
AcDbLine
 10
547.7776380803655
 20
2031.607401382038
 30
0.0
 11
1147.777638080366
 21
2031.607401382038
 31
0.0
  0
INSERT
  5
268
330
1F
100
AcDbEntity
  8
0
100
AcDbBlockReference
  2
*G32
 10
0.0
 20
0.0
 30
0.0
  0
LINE
  5
269
330
1F
100
AcDbEntity
  8
2
  6
Continuous
 62
     4
370
    20
100
AcDbLine
 10
1167.777638080366
 20
2025.607401382038
 30
0.0
 11
527.7776380803655
 21
2025.607401382038
 31
0.0
  0
LINE
  5
26A
330
1F
100
AcDbEntity
  8
2
  6
Continuous
 62
     4
370
    20
100
AcDbLine
 10
527.7776380803655
 20
1937.607401382038
 30
0.0
 11
1167.777638080366
 21
1937.607401382038
 31
0.0
  0
LINE
  5
26B
330
1F
100
AcDbEntity
  8
2
  6
HIDDEN
 62
     4
370
    20
100
AcDbLine
 10
1127.777638080366
 20
1931.607401382038
 30
0.0
 11
1127.777638080366
 21
2031.607401382038
 31
0.0
  0
LINE
  5
26C
330
1F
100
AcDbEntity
  8
2
  6
HIDDEN
 62
     4
370
    20
100
AcDbLine
 10
1133.777638080366
 20
2025.607401382038
 30
0.0
 11
1133.777638080366
 21
1937.607401382038
 31
0.0
  0
LINE
  5
26D
330
1F
100
AcDbEntity
  8
2
  6
Continuous
 62
     4
370
    20
100
AcDbLine
 10
597.7776380803655
 20
1945.187749214687
 30
0.0
 11
597.7776380803655
 21
1921.915416067645
 31
0.0
  0
LINE
  5
26E
330
1F
100
AcDbEntity
  8
2
  6
Continuous
 62
     4
370
    20
100
AcDbLine
 10
1097.777638080366
 20
1944.806235556539
 30
0.0
 11
1097.777638080366
 21
1924.204498016535
 31
0.0
  0
LINE
  5
26F
330
1F
100
AcDbEntity
  8
2
  6
Continuous
 62
     4
370
    20
100
AcDbLine
 10
522.7776380803655
 20
3260.90715935336
 30
0.0
 11
1172.777638080366
 21
3260.90715935336
 31
0.0
  0
LINE
  5
270
330
1F
100
AcDbEntity
  8
2
  6
Continuous
 62
     4
370
    20
100
AcDbLine
 10
522.7776380803655
 20
2031.607401382038
 30
0.0
 11
522.7776380803655
 21
3260.90715935336
 31
0.0
  0
LINE
  5
271
330
1F
100
AcDbEntity
  8
2
  6
Continuous
 62
     4
370
    20
100
AcDbLine
 10
1172.777638080366
 20
3260.90715935336
 30
0.0
 11
1172.777638080366
 21
2031.607401382038
 31
0.0
  0
LINE
  5
272
330
1F
100
AcDbEntity
  8
2
  6
Continuous
 62
     4
370
    20
100
AcDbLine
 10
547.7776380803655
 20
2031.607401382038
 30
0.0
 11
522.7776380803655
 21
2031.607401382038
 31
0.0
  0
LINE
  5
273
330
1F
100
AcDbEntity
  8
2
  6
Continuous
 62
     4
370
    20
100
AcDbLine
 10
1147.777638080366
 20
2031.607401382038
 30
0.0
 11
1172.777638080366
 21
2031.607401382038
 31
0.0
  0
LINE
  5
274
330
1F
100
AcDbEntity
  8
2
  6
HIDDEN
 62
     4
370
    20
100
AcDbLine
 10
577.7776380803655
 20
1931.607401382038
 30
0.0
 11
577.7776380803655
 21
2031.607401382038
 31
0.0
  0
LINE
  5
275
330
1F
100
AcDbEntity
  8
2
  6
HIDDEN
 62
     4
370
    20
100
AcDbLine
 10
571.7776380803655
 20
2025.607401382038
 30
0.0
 11
571.7776380803655
 21
1937.607401382038
 31
0.0
  0
LINE
  5
276
330
1F
100
AcDbEntity
  8
2
  6
Continuous
 62
     4
370
    20
100
AcDbLine
 10
1172.777638080366
 20
3290.90715935336
 30
0.0
 11
522.7776380803646
 21
3290.90715935336
 31
0.0
  0
LINE
  5
277
330
1F
100
AcDbEntity
  8
2
  6
Continuous
 62
     4
370
    20
100
AcDbLine
 10
1172.777638080366
 20
3421.607401382037
 30
0.0
 11
1172.777638080366
 21
3290.90715935336
 31
0.0
  0
LINE
  5
278
330
1F
100
AcDbEntity
  8
1
  6
Continuous
 62
     7
370
    20
100
AcDbLine
 10
1117.777638080364
 20
3305.907159353359
 30
0.0
 11
1117.777638080364
 21
3400.907159353359
 31
0.0
  0
LINE
  5
279
330
1F
100
AcDbEntity
  8
1
  6
Continuous
 62
     7
370
    20
100
AcDbLine
 10
577.7776380803637
 20
3400.907159353362
 30
0.0
 11
577.7776380803637
 21
3305.907159353362
 31
0.0
  0
LINE
  5
27A
330
1F
100
AcDbEntity
  8
1
  6
Continuous
 62
     7
370
    20
100
AcDbLine
 10
577.7776380803637
 20
3400.907159353362
 30
0.0
 11
1117.777638080364
 21
3400.907159353359
 31
0.0
  0
LINE
  5
27B
330
1F
100
AcDbEntity
  8
1
  6
Continuous
 62
     7
370
    20
100
AcDbLine
 10
577.7776380803637
 20
3305.907159353362
 30
0.0
 11
1117.777638080364
 21
3305.907159353359
 31
0.0
  0
INSERT
  5
296
330
1F
100
AcDbEntity
  8
0
100
AcDbBlockReference
  2
*G33
 10
0.0
 20
0.0
 30
0.0
  0
INSERT
  5
2B1
330
1F
100
AcDbEntity
  8
0
100
AcDbBlockReference
  2
*G34
 10
0.0
 20
0.0
 30
0.0
  0
LINE
  5
2B2
330
1F
100
AcDbEntity
  8
2
  6
Continuous
 62
     4
370
    20
100
AcDbLine
 10
522.7776380803646
 20
3421.607401382037
 30
0.0
 11
1172.777638080366
 21
3421.607401382037
 31
0.0
  0
LINE
  5
2B3
330
1F
100
AcDbEntity
  8
2
  6
Continuous
 62
     4
370
    20
100
AcDbLine
 10
522.7776380803646
 20
3421.607401382037
 30
0.0
 11
522.7776380803646
 21
3290.90715935336
 31
0.0
  0
LINE
  5
2B4
330
1F
100
AcDbEntity
  8
2
  6
Continuous
 62
     4
370
    20
100
AcDbLine
 10
572.7776380803655
 20
3290.90715935336
 30
0.0
 11
572.7776380803655
 21
3260.90715935336
 31
0.0
  0
LINE
  5
2B5
330
1F
100
AcDbEntity
  8
2
  6
Continuous
 62
     4
370
    20
100
AcDbLine
 10
1122.777638080366
 20
3290.90715935336
 30
0.0
 11
1122.777638080366
 21
3260.90715935336
 31
0.0
  0
LINE
  5
2B6
330
1F
100
AcDbEntity
  8
2
  6
Continuous
 62
     4
370
    20
100
AcDbLine
 10
847.7776380803659
 20
2316.61006471093
 30
0.0
 11
847.7776380803659
 21
3260.90715935336
 31
0.0
  0
LINE
  5
2B7
330
1F
100
AcDbEntity
  8
2
  6
Continuous
 62
     4
370
    20
100
AcDbLine
 10
847.7776380803659
 20
2086.610064710931
 30
0.0
 11
847.7776380803659
 21
2031.607401382038
 31
0.0
  0
LINE
  5
2B8
330
1F
100
AcDbEntity
  8
3
  6
Continuous
 62
     3
370
    20
100
AcDbLine
 10
1062.777638080368
 20
2086.610064710931
 30
0.0
 11
1067.777638080367
 21
2091.610064710931
 31
0.0
  0
LINE
  5
2B9
330
1F
100
AcDbEntity
  8
3
  6
Continuous
 62
     3
370
    20
100
AcDbLine
 10
1067.777638080367
 20
2311.61006471093
 30
0.0
 11
1067.777638080367
 21
2091.610064710931
 31
0.0
  0
LINE
  5
2BA
330
1F
100
AcDbEntity
  8
3
  6
Continuous
 62
     3
370
    20
100
AcDbLine
 10
632.7776380803659
 20
2086.610064710931
 30
0.0
 11
1062.777638080368
 21
2086.610064710931
 31
0.0
  0
LINE
  5
2BB
330
1F
100
AcDbEntity
  8
3
  6
Continuous
 62
     3
370
    20
100
AcDbLine
 10
632.7776380803659
 20
2086.610064710931
 30
0.0
 11
627.7776380803659
 21
2091.610064710931
 31
0.0
  0
LINE
  5
2BC
330
1F
100
AcDbEntity
  8
3
  6
Continuous
 62
     3
370
    20
100
AcDbLine
 10
627.7776380803659
 20
2311.61006471093
 30
0.0
 11
627.7776380803659
 21
2091.610064710931
 31
0.0
  0
LINE
  5
2BD
330
1F
100
AcDbEntity
  8
3
  6
Continuous
 62
     3
370
    20
100
AcDbLine
 10
1062.777638080368
 20
2316.61006471093
 30
0.0
 11
1067.777638080367
 21
2311.61006471093
 31
0.0
  0
LINE
  5
2BE
330
1F
100
AcDbEntity
  8
3
  6
Continuous
 62
     3
370
    20
100
AcDbLine
 10
632.7776380803659
 20
2316.61006471093
 30
0.0
 11
1062.777638080368
 21
2316.61006471093
 31
0.0
  0
LINE
  5
2BF
330
1F
100
AcDbEntity
  8
3
  6
Continuous
 62
     3
370
    20
100
AcDbLine
 10
627.7776380803659
 20
2311.61006471093
 30
0.0
 11
632.7776380803659
 21
2316.61006471093
 31
0.0
  0
CIRCLE
  5
2C0
330
1F
100
AcDbEntity
  8
1
  6
Continuous
 62
     7
370
    20
100
AcDbCircle
 10
960.7776380803659
 20
2101.607814010457
 30
0.0
 40
5.5
  0
LINE
  5
2C1
330
1F
100
AcDbEntity
  8
1
  6
DASHDOT
 62
     7
370
    20
100
AcDbLine
 10
960.7776380803659
 20
2109.085155635555
 30
0.0
 11
960.7776380803659
 21
2094.142537358081
 31
0.0
  0
LINE
  5
2C2
330
1F
100
AcDbEntity
  8
1
  6
DASHDOT
 62
     7
370
    20
100
AcDbLine
 10
954.0198935196793
 20
2101.608320999087
 30
0.0
 11
968.4069404799855
 21
2101.607241634641
 31
0.0
  0
CIRCLE
  5
2C3
330
1F
100
AcDbEntity
  8
1
  6
Continuous
 62
     7
370
    20
100
AcDbCircle
 10
734.7776380803568
 20
2101.607814010457
 30
0.0
 40
5.5
  0
LINE
  5
2C4
330
1F
100
AcDbEntity
  8
1
  6
DASHDOT
 62
     7
370
    20
100
AcDbLine
 10
734.7776380803568
 20
2109.085155635555
 30
0.0
 11
734.7776380803568
 21
2094.142537358081
 31
0.0
  0
LINE
  5
2C5
330
1F
100
AcDbEntity
  8
1
  6
DASHDOT
 62
     7
370
    20
100
AcDbLine
 10
728.0198935196674
 20
2101.608320999087
 30
0.0
 11
742.4069404799736
 21
2101.607241634641
 31
0.0
  0
CIRCLE
  5
2C6
330
1F
100
AcDbEntity
  8
1
  6
Continuous
 62
     7
370
    20
100
AcDbCircle
 10
960.7776380803659
 20
2301.577054437331
 30
0.0
 40
5.5
  0
LINE
  5
2C7
330
1F
100
AcDbEntity
  8
1
  6
DASHDOT
 62
     7
370
    20
100
AcDbLine
 10
960.7776380803659
 20
2309.054396062429
 30
0.0
 11
960.7776380803659
 21
2294.111777784954
 31
0.0
  0
LINE
  5
2C8
330
1F
100
AcDbEntity
  8
1
  6
DASHDOT
 62
     7
370
    20
100
AcDbLine
 10
954.0198935196793
 20
2301.57756142596
 30
0.0
 11
968.4069404799855
 21
2301.576482061514
 31
0.0
  0
CIRCLE
  5
2C9
330
1F
100
AcDbEntity
  8
1
  6
Continuous
 62
     7
370
    20
100
AcDbCircle
 10
734.7776380803568
 20
2301.607814010457
 30
0.0
 40
5.5
  0
LINE
  5
2CA
330
1F
100
AcDbEntity
  8
1
  6
DASHDOT
 62
     7
370
    20
100
AcDbLine
 10
734.7776380803568
 20
2309.085155635554
 30
0.0
 11
734.7776380803568
 21
2294.14253735808
 31
0.0
  0
LINE
  5
2CB
330
1F
100
AcDbEntity
  8
1
  6
DASHDOT
 62
     7
370
    20
100
AcDbLine
 10
728.0198935196711
 20
2301.608320999086
 30
0.0
 11
742.4069404799773
 21
2301.60724163464
 31
0.0
  0
CIRCLE
  5
2CC
330
1F
100
AcDbEntity
  8
1
  6
Continuous
 62
     7
370
    20
100
AcDbCircle
 10
1052.777638080367
 20
2201.607814010457
 30
0.0
 40
5.5
  0
LINE
  5
2CD
330
1F
100
AcDbEntity
  8
1
  6
DASHDOT
 62
     7
370
    20
100
AcDbLine
 10
1052.777638080367
 20
2209.085155635555
 30
0.0
 11
1052.777638080367
 21
2194.142537358081
 31
0.0
  0
LINE
  5
2CE
330
1F
100
AcDbEntity
  8
1
  6
DASHDOT
 62
     7
370
    20
100
AcDbLine
 10
1046.01989351968
 20
2201.608320999086
 30
0.0
 11
1060.406940479986
 21
2201.60724163464
 31
0.0
  0
CIRCLE
  5
2CF
330
1F
100
AcDbEntity
  8
1
  6
Continuous
 62
     7
370
    20
100
AcDbCircle
 10
642.7776380803659
 20
2201.607814010457
 30
0.0
 40
5.5
  0
LINE
  5
2D0
330
1F
100
AcDbEntity
  8
1
  6
DASHDOT
 62
     7
370
    20
100
AcDbLine
 10
642.7776380803659
 20
2209.085155635555
 30
0.0
 11
642.7776380803659
 21
2194.142537358081
 31
0.0
  0
LINE
  5
2D1
330
1F
100
AcDbEntity
  8
1
  6
DASHDOT
 62
     7
370
    20
100
AcDbLine
 10
636.0198935196793
 20
2201.608320999086
 30
0.0
 11
650.4069404799855
 21
2201.607241634639
 31
0.0
  0
INSERT
  5
2D2
330
1F
100
AcDbEntity
  8
2
  6
Continuous
 62
     4
370
    20
100
AcDbBlockReference
  2
_OPEN
 10
835.4926215940902
 20
2186.107337426697
 30
0.0
 41
40.0
 42
40.0
 43
40.0
 50
102.3985091983183
  0
POLYLINE
  5
2D3
330
1F
100
AcDbEntity
  8
2
  6
Continuous
 62
     4
370
    20
100
AcDb2dPolyline
 66
     1
 10
0.0
 20
0.0
 30
0.0
  0
VERTEX
  5
2D4
330
2D3
100
AcDbEntity
  8
2
  6
Continuous
 62
     4
370
    20
100
AcDbVertex
100
AcDb2dVertex
 10
835.4926215940902
 20
2186.107337426697
 30
0.0
  0
VERTEX
  5
2D5
330
2D3
100
AcDbEntity
  8
2
  6
Continuous
 62
     4
370
    20
100
AcDbVertex
100
AcDb2dVertex
 10
979.2142416642876
 20
1532.342813782401
 30
0.0
  0
VERTEX
  5
2D6
330
2D3
100
AcDbEntity
  8
2
  6
Continuous
 62
     4
370
    20
100
AcDbVertex
100
AcDb2dVertex
 10
1168.268572795106
 20
1532.342813782401
 30
0.0
  0
SEQEND
  5
2D7
330
2D3
100
AcDbEntity
  8
2
  6
Continuous
 62
     4
370
    20
  0
MTEXT
  5
2D8
330
1F
100
AcDbEntity
  8
2
  6
Continuous
 62
     4
370
     9
100
AcDbMText
 10
988.2685727951059
 20
1532.342813782401
 30
0.0
 40
60.0
 41
276.4101
 46
60.0
 71
     7
 72
     1
  1
{\fＭＳ ゴシック;\T0.750000;点検口}
 73
     1
 44
1.0
1001
ACAD
1000
ACAD_MTEXT_DEFINED_HEIGHT_BEGIN
1070
    46
1040
60.0
1000
ACAD_MTEXT_DEFINED_HEIGHT_END
  0
DIMENSION
  5
2E2
330
1F
100
AcDbEntity
  8
2
  6
Continuous
 62
     4
370
    20
100
AcDbDimension
  2
Dim8
 10
1067.777638080366
 20
1670.39478171551
 30
0.0
 11
1120.277638080366
 21
1670.39478171551
 31
0.0
 70
   160
  1
105
 71
     8
 42
-1.0
 73
     0
 74
     0
 75
     0
 53
0.0000000000001527
  3
Standard
100
AcDbAlignedDimension
 13
1172.777638080366
 23
2031.607401382038
 33
0.0
 14
1067.777638080366
 24
2091.610064710931
 34
0.0
 50
179.9999999999998
100
AcDbRotatedDimension
1001
ACAD
1000
DSTYLE
1002
{
1070
   279
1070
     1
1070
   340
1005
1B5
1070
   140
1040
60.0
1070
    40
1040
1.0
1070
   147
1040
0.0
1070
    76
1070
     0
1070
    75
1070
     0
1070
   344
1005
51
1070
   343
1005
51
1070
   173
1070
     1
1070
   289
1070
     2
1070
   288
1070
     1
1070
    77
1070
     1
1070
   172
1070
     1
1070
   174
1070
     0
1070
    74
1070
     0
1070
    73
1070
     0
1070
   284
1070
     8
1070
    78
1070
     8
1070
    42
1040
40.0
1070
    44
1040
20.0
1070
    43
1040
10.0
1070
   271
1070
     2
1070
    41
1040
20.0
1002
}
  0
DIMENSION
  5
2EB
330
1F
100
AcDbEntity
  8
2
  6
Continuous
 62
     4
370
    20
100
AcDbDimension
  2
Dim9
 10
627.7776380803655
 20
1670.39478171551
 30
0.0
 11
847.7776380803655
 21
1670.39478171551
 31
0.0
 70
   160
  1
440
 71
     8
 42
-1.0
 73
     0
 74
     0
 75
     0
 53
0.0000000000001527
  3
Standard
100
AcDbAlignedDimension
 13
1067.777638080366
 23
2091.610064710931
 33
0.0
 14
627.777638080365
 24
2091.610064710931
 34
0.0
 50
179.9999999999998
100
AcDbRotatedDimension
1001
ACAD
1000
DSTYLE
1002
{
1070
   279
1070
     1
1070
   340
1005
1B5
1070
   140
1040
60.0
1070
    40
1040
1.0
1070
   147
1040
0.0
1070
    76
1070
     0
1070
    75
1070
     1
1070
   344
1005
51
1070
   343
1005
51
1070
   173
1070
     1
1070
   289
1070
     2
1070
   288
1070
     1
1070
    77
1070
     1
1070
   172
1070
     1
1070
   174
1070
     0
1070
    74
1070
     0
1070
    73
1070
     0
1070
   284
1070
     8
1070
    78
1070
     8
1070
    42
1040
40.0
1070
    44
1040
20.0
1070
    43
1040
10.0
1070
   271
1070
     2
1070
    41
1040
20.0
1002
}
  0
DIMENSION
  5
2F4
330
1F
100
AcDbEntity
  8
2
  6
Continuous
 62
     4
370
    20
100
AcDbDimension
  2
Dim10
 10
522.7776380803659
 20
1670.39478171551
 30
0.0
 11
575.2776380803655
 21
1670.39478171551
 31
0.0
 70
   160
  1
105
 71
     8
 42
-1.0
 73
     0
 74
     0
 75
     0
 53
0.0000000000001527
  3
Standard
100
AcDbAlignedDimension
 13
627.777638080365
 23
2091.610064710931
 33
0.0
 14
522.7776380803655
 24
2031.607401382038
 34
0.0
 50
179.9999999999998
100
AcDbRotatedDimension
1001
ACAD
1000
DSTYLE
1002
{
1070
   279
1070
     1
1070
   340
1005
1B5
1070
   140
1040
60.0
1070
    40
1040
1.0
1070
   147
1040
0.0
1070
    76
1070
     0
1070
    75
1070
     1
1070
   344
1005
51
1070
   343
1005
51
1070
   173
1070
     1
1070
   289
1070
     2
1070
   288
1070
     1
1070
    77
1070
     1
1070
   172
1070
     1
1070
   174
1070
     0
1070
    74
1070
     0
1070
    73
1070
     0
1070
   284
1070
     8
1070
    78
1070
     8
1070
    42
1040
40.0
1070
    44
1040
20.0
1070
    43
1040
10.0
1070
   271
1070
     2
1070
    41
1040
20.0
1002
}
  0
DIMENSION
  5
2FE
330
1F
100
AcDbEntity
  8
2
  6
Continuous
 62
     4
370
    20
100
AcDbDimension
  2
Dim11
 10
452.3596013817244
 20
2086.61006471093
 30
0.0
 11
452.3596013817248
 21
2009.108733046484
 31
0.0
 70
   160
  1
155
 71
     8
 42
-1.0
 73
     0
 74
     0
 75
     0
  3
Standard
100
AcDbAlignedDimension
 13
527.7776380803655
 23
1931.607401382038
 33
0.0
 14
632.7776380803641
 24
2086.610064710931
 34
0.0
 50
89.99999999999991
100
AcDbRotatedDimension
1001
ACAD
1000
DSTYLE
1002
{
1070
   279
1070
     1
1070
   340
1005
1B5
1070
   140
1040
60.0
1070
    40
1040
1.0
1070
   147
1040
0.0
1070
    76
1070
     0
1070
    75
1070
     0
1070
   344
1005
51
1070
   343
1005
51
1070
   173
1070
     1
1070
   289
1070
     2
1070
   288
1070
     1
1070
    77
1070
     1
1070
   172
1070
     1
1070
   174
1070
     0
1070
    74
1070
     0
1070
    73
1070
     0
1070
   284
1070
     8
1070
    78
1070
     8
1070
    42
1040
40.0
1070
    44
1040
20.0
1070
    43
1040
10.0
1070
   271
1070
     2
1070
    41
1040
20.0
1002
}
  0
DIMENSION
  5
307
330
1F
100
AcDbEntity
  8
2
  6
Continuous
 62
     4
370
    20
100
AcDbDimension
  2
Dim12
 10
452.3596013817244
 20
2316.610064710929
 30
0.0
 11
452.3596013817248
 21
2201.61006471093
 31
0.0
 70
   160
  1
230
 71
     8
 42
-1.0
 73
     0
 74
     0
 75
     0
  3
Standard
100
AcDbAlignedDimension
 13
632.7776380803641
 23
2086.610064710931
 33
0.0
 14
632.7776380803641
 24
2316.61006471093
 34
0.0
 50
89.99999999999991
100
AcDbRotatedDimension
1001
ACAD
1000
DSTYLE
1002
{
1070
   279
1070
     1
1070
   340
1005
1B5
1070
   140
1040
60.0
1070
    40
1040
1.0
1070
   147
1040
0.0
1070
    76
1070
     0
1070
    75
1070
     1
1070
   344
1005
51
1070
   343
1005
51
1070
   173
1070
     1
1070
   289
1070
     2
1070
   288
1070
     1
1070
    77
1070
     1
1070
   172
1070
     1
1070
   174
1070
     0
1070
    74
1070
     0
1070
    73
1070
     0
1070
   284
1070
     8
1070
    78
1070
     8
1070
    42
1040
40.0
1070
    44
1040
20.0
1070
    43
1040
10.0
1070
   271
1070
     2
1070
    41
1040
20.0
1002
}
  0
DIMENSION
  5
311
330
1F
100
AcDbEntity
  8
2
  6
Continuous
 62
     4
370
    20
100
AcDbDimension
  2
Dim13
 10
373.0531309994456
 20
1931.607401382038
 30
0.0
 11
373.0531309994456
 21
2676.607401382038
 31
0.0
 70
   160
  1
1490
 71
     8
 42
-1.0
 73
     0
 74
     0
 75
     0
 53
90.00000000000011
  3
Standard
100
AcDbAlignedDimension
 13
522.7776380803655
 23
3421.607401382037
 33
0.0
 14
527.7776380803655
 24
1931.607401382038
 34
0.0
 50
-89.99999999999991
100
AcDbRotatedDimension
1001
ACAD
1000
DSTYLE
1002
{
1070
   279
1070
     1
1070
   340
1005
1B5
1070
   140
1040
60.0
1070
    40
1040
1.0
1070
   147
1040
0.0
1070
    76
1070
     0
1070
    75
1070
     0
1070
   344
1005
51
1070
   343
1005
51
1070
   173
1070
     1
1070
   289
1070
     2
1070
   288
1070
     1
1070
    77
1070
     1
1070
   172
1070
     1
1070
   174
1070
     0
1070
    74
1070
     0
1070
    73
1070
     0
1070
   284
1070
     8
1070
    78
1070
     8
1070
    42
1040
40.0
1070
    44
1040
20.0
1070
    43
1040
10.0
1070
   271
1070
     2
1070
    41
1040
20.0
1002
}
  0
LINE
  5
312
330
1F
100
AcDbEntity
  8
2
  6
Continuous
 62
     4
370
    20
100
AcDbLine
 10
3272.054516862747
 20
3260.907159353357
 30
0.0
 11
3813.247708907298
 21
3260.907159353357
 31
0.0
  0
LINE
  5
313
330
1F
100
AcDbEntity
  8
2
  6
Continuous
 62
     4
370
    20
100
AcDbLine
 10
3813.247708907298
 20
2031.607401382037
 30
0.0
 11
3788.247708907298
 21
2031.607401382037
 31
0.0
  0
LINE
  5
314
330
1F
100
AcDbEntity
  8
2
  6
Continuous
 62
     4
370
    20
100
AcDbLine
 10
3813.247708907298
 20
3260.907159353357
 30
0.0
 11
3813.247708907298
 21
2031.607401382037
 31
0.0
  0
LINE
  5
315
330
1F
100
AcDbEntity
  8
2
  6
Continuous
 62
     4
370
    20
100
AcDbLine
 10
3208.247708907298
 20
3227.207159353358
 30
0.0
 11
3208.247708907298
 21
3260.907159353359
 31
0.0
  0
LINE
  5
316
330
1F
100
AcDbEntity
  8
2
  6
PHANTOM
 62
     4
370
    20
100
AcDbLine
 10
3165.547708907301
 20
2706.60740138204
 30
0.0
 11
3165.547708907301
 21
2707.807401382041
 31
0.0
  0
LINE
  5
317
330
1F
100
AcDbEntity
  8
2
  6
Continuous
 62
     4
370
    20
100
AcDbLine
 10
3163.247708907298
 20
3260.907159353359
 30
0.0
 11
3163.247708907301
 21
2031.60740138204
 31
0.0
  0
LINE
  5
318
330
1F
100
AcDbEntity
  8
2
  6
Continuous
 62
     4
370
    20
100
AcDbLine
 10
3203.247708907298
 20
2031.60740138204
 30
0.0
 11
3203.247708907298
 21
2046.60740138204
 31
0.0
  0
LINE
  5
319
330
1F
100
AcDbEntity
  8
2
  6
Continuous
 62
     4
370
    20
100
AcDbLine
 10
3163.247708907301
 20
2031.60740138204
 30
0.0
 11
3203.247708907298
 21
2031.60740138204
 31
0.0
  0
LINE
  5
31A
330
1F
100
AcDbEntity
  8
2
  6
Continuous
 62
     4
370
    20
100
AcDbLine
 10
3208.247708907298
 20
2074.307401382038
 30
0.0
 11
3208.247708907298
 21
2031.607401382037
 31
0.0
  0
LINE
  5
31B
330
1F
100
AcDbEntity
  8
2
  6
Continuous
 62
     4
370
    20
100
AcDbLine
 10
3163.247708907301
 20
3260.907159353359
 30
0.0
 11
3203.247708907298
 21
3260.907159353359
 31
0.0
  0
LINE
  5
31C
330
1F
100
AcDbEntity
  8
2
  6
Continuous
 62
     4
370
    20
100
AcDbLine
 10
3203.247708907298
 20
2032.683695467875
 30
0.0
 11
3203.247708907298
 21
3260.907159353359
 31
0.0
  0
LINE
  5
31D
330
1F
100
AcDbEntity
  8
2
  6
Continuous
 62
     4
370
    20
100
AcDbLine
 10
3203.247708907298
 20
3227.207159353358
 30
0.0
 11
3208.247708907298
 21
3227.207159353358
 31
0.0
  0
LINE
  5
31E
330
1F
100
AcDbEntity
  8
2
  6
Continuous
 62
     4
370
    20
100
AcDbLine
 10
3208.247708907298
 20
3260.907159353359
 30
0.0
 11
3290.747708907298
 21
3260.907159353359
 31
0.0
  0
LINE
  5
31F
330
1F
100
AcDbEntity
  8
2
  6
Continuous
 62
     4
370
    20
100
AcDbLine
 10
3203.247708907298
 20
2074.307401382038
 30
0.0
 11
3208.247708907298
 21
2074.307401382038
 31
0.0
  0
DIMENSION
  5
329
330
1F
100
AcDbEntity
  8
2
  6
Continuous
 62
     4
370
    20
100
AcDbDimension
  2
Dim14
 10
3808.247708907298
 20
1558.618334609721
 30
0.0
 11
3510.747708907298
 21
1558.618334609721
 31
0.0
 70
   160
  1
<>
 71
     8
 42
-1.0
 73
     0
 74
     0
 75
     0
 53
359.9999999999996
  3
Standard
100
AcDbAlignedDimension
 13
3213.247708907298
 23
1931.607401382037
 33
0.0
 14
3808.247708907298
 24
1931.607401382037
 34
0.0
100
AcDbRotatedDimension
1001
ACAD
1000
DSTYLE
1002
{
1070
   279
1070
     1
1070
   340
1005
1B5
1070
   140
1040
60.0
1070
    40
1040
1.0
1070
   147
1040
0.0
1070
    76
1070
     0
1070
    75
1070
     0
1070
   344
1005
51
1070
   343
1005
51
1070
   173
1070
     1
1070
   289
1070
     2
1070
   288
1070
     1
1070
    77
1070
     1
1070
   172
1070
     1
1070
   174
1070
     0
1070
    74
1070
     0
1070
    73
1070
     0
1070
   284
1070
     8
1070
    78
1070
     8
1070
    42
1040
40.0
1070
    44
1040
20.0
1070
    43
1040
10.0
1070
   271
1070
     2
1070
    41
1040
20.0
1002
}
  0
INSERT
  5
333
330
1F
100
AcDbEntity
  8
0
100
AcDbBlockReference
  2
*G42
 10
0.0
 20
0.0
 30
0.0
  0
LINE
  5
334
330
1F
100
AcDbEntity
  8
2
  6
Continuous
 62
     4
370
    20
100
AcDbLine
 10
3233.247708907298
 20
1946.060064297641
 30
0.0
 11
3233.247708907298
 21
1926.221354073933
 31
0.0
  0
LINE
  5
335
330
1F
100
AcDbEntity
  8
2
  6
Continuous
 62
     4
370
    20
100
AcDbLine
 10
3788.247708907298
 20
1942.626441374307
 30
0.0
 11
3788.247708907298
 21
1925.458326757636
 31
0.0
  0
DIMENSION
  5
33E
330
1F
100
AcDbEntity
  8
2
  6
Continuous
 62
     4
370
    20
100
AcDbDimension
  2
Dim15
 10
3233.247708907298
 20
1670.394781715509
 30
0.0
 11
3156.891283232306
 21
1670.39478171551
 31
0.0
 70
   160
  1
20
 71
     8
 42
-1.0
 73
     0
 74
     0
 75
     0
 53
359.9999999999996
  3
Standard
100
AcDbAlignedDimension
 13
3213.247708907298
 23
1931.607401382037
 33
0.0
 14
3233.247708907298
 24
1926.221354073933
 34
0.0
100
AcDbRotatedDimension
1001
ACAD
1000
DSTYLE
1002
{
1070
   279
1070
     1
1070
   340
1005
1B5
1070
   140
1040
60.0
1070
    40
1040
1.0
1070
   147
1040
0.0
1070
    76
1070
     0
1070
    75
1070
     0
1070
   344
1005
7E
1070
   343
1005
51
1070
   173
1070
     1
1070
   289
1070
     2
1070
   288
1070
     1
1070
    77
1070
     1
1070
   172
1070
     1
1070
   174
1070
     0
1070
    74
1070
     0
1070
    73
1070
     0
1070
   284
1070
     8
1070
    78
1070
     8
1070
    42
1040
40.0
1070
    44
1040
20.0
1070
    43
1040
10.0
1070
   271
1070
     2
1070
    41
1040
20.0
1002
}
  0
DIMENSION
  5
347
330
1F
100
AcDbEntity
  8
2
  6
Continuous
 62
     4
370
    20
100
AcDbDimension
  2
Dim16
 10
3788.247708907298
 20
1670.394781715509
 30
0.0
 11
3510.747708907298
 21
1670.394781715509
 31
0.0
 70
   160
  1
555
 71
     8
 42
-1.0
 73
     0
 74
     0
 75
     0
 53
359.9999999999996
  3
Standard
100
AcDbAlignedDimension
 13
3233.247708907298
 23
1926.221354073933
 33
0.0
 14
3788.247708907298
 24
1925.458326757636
 34
0.0
100
AcDbRotatedDimension
1001
ACAD
1000
DSTYLE
1002
{
1070
   279
1070
     1
1070
   340
1005
1B5
1070
   140
1040
60.0
1070
    40
1040
1.0
1070
   147
1040
0.0
1070
    76
1070
     0
1070
    75
1070
     1
1070
   344
1005
51
1070
   343
1005
51
1070
   173
1070
     1
1070
   289
1070
     2
1070
   288
1070
     1
1070
    77
1070
     1
1070
   172
1070
     1
1070
   174
1070
     0
1070
    74
1070
     0
1070
    73
1070
     0
1070
   284
1070
     8
1070
    78
1070
     8
1070
    42
1040
40.0
1070
    44
1040
20.0
1070
    43
1040
10.0
1070
   271
1070
     2
1070
    41
1040
20.0
1002
}
  0
DIMENSION
  5
34F
330
1F
100
AcDbEntity
  8
2
  6
Continuous
 62
     4
370
    20
100
AcDbDimension
  2
Dim17
 10
3808.247708907298
 20
1670.394781715509
 30
0.0
 11
3854.358173868043
 21
1670.394781715509
 31
0.0
 70
   160
  1
20
 71
     8
 42
-1.0
 73
     0
 74
     0
 75
     0
 53
359.9999999999996
  3
Standard
100
AcDbAlignedDimension
 13
3788.247708907298
 23
1925.458326757636
 33
0.0
 14
3808.247708907298
 24
1901.607401382037
 34
0.0
100
AcDbRotatedDimension
1001
ACAD
1000
DSTYLE
1002
{
1070
   279
1070
     1
1070
   340
1005
1B5
1070
   140
1040
60.0
1070
    40
1040
1.0
1070
   147
1040
0.0
1070
    76
1070
     0
1070
    75
1070
     1
1070
   344
1005
51
1070
   343
1005
7E
1070
   173
1070
     1
1070
   289
1070
     2
1070
   288
1070
     1
1070
    77
1070
     1
1070
   172
1070
     1
1070
   174
1070
     0
1070
    74
1070
     0
1070
    73
1070
     0
1070
   284
1070
     8
1070
    78
1070
     8
1070
    42
1040
40.0
1070
    44
1040
20.0
1070
    43
1040
10.0
1070
   271
1070
     2
1070
    41
1040
20.0
1002
}
  0
DIMENSION
  5
359
330
1F
100
AcDbEntity
  8
2
  6
Continuous
 62
     4
370
    20
100
AcDbDimension
  2
Dim18
 10
3163.203625330716
 20
3713.433606688377
 30
0.0
 11
3488.203625330714
 21
3713.433606688377
 31
0.0
 70
   160
  1
<>
 71
     8
 42
-1.0
 73
     0
 74
     0
 75
     0
 53
359.9999999999997
  3
Standard
100
AcDbAlignedDimension
 13
3813.203625330716
 23
3439.307159353357
 33
0.0
 14
3163.203625330716
 24
3439.307159353357
 34
0.0
 50
179.9999999999998
100
AcDbRotatedDimension
1001
ACAD
1000
DSTYLE
1002
{
1070
   279
1070
     1
1070
   340
1005
1B5
1070
   140
1040
60.0
1070
    40
1040
1.0
1070
   147
1040
0.0
1070
    76
1070
     0
1070
    75
1070
     0
1070
   344
1005
51
1070
   343
1005
51
1070
   173
1070
     1
1070
   289
1070
     2
1070
   288
1070
     1
1070
    77
1070
     1
1070
   172
1070
     1
1070
   174
1070
     0
1070
    74
1070
     0
1070
    73
1070
     0
1070
   284
1070
     8
1070
    78
1070
     8
1070
    42
1040
40.0
1070
    44
1040
20.0
1070
    43
1040
10.0
1070
   271
1070
     2
1070
    41
1040
20.0
1002
}
  0
LINE
  5
35A
330
1F
100
AcDbEntity
  8
2
  6
Continuous
 62
     4
370
    20
100
AcDbLine
 10
3208.247708907298
 20
2031.607401382037
 30
0.0
 11
3239.247708907296
 21
2031.607401382037
 31
0.0
  0
LINE
  5
35B
330
1F
100
AcDbEntity
  8
2
  6
DOT
 62
     4
370
    20
100
AcDbLine
 10
3280.247708907298
 20
2031.607401382037
 30
0.0
 11
3319.547708907297
 21
2031.607401382037
 31
0.0
  0
LINE
  5
35C
330
1F
100
AcDbEntity
  8
2
  6
Continuous
 62
     4
370
    20
100
AcDbLine
 10
3247.247708907298
 20
2025.607401382037
 30
0.0
 11
3247.247708907298
 21
1937.607401382037
 31
0.0
  0
LINE
  5
35D
330
1F
100
AcDbEntity
  8
2
  6
Continuous
 62
     4
370
    20
100
AcDbLine
 10
3247.247708907298
 20
2025.607401382037
 30
0.0
 11
3213.247708907298
 21
2025.607401382037
 31
0.0
  0
LINE
  5
35E
330
1F
100
AcDbEntity
  8
2
  6
Continuous
 62
     4
370
    20
100
AcDbLine
 10
3213.247708907298
 20
1937.607401382037
 30
0.0
 11
3247.247708907298
 21
1937.607401382037
 31
0.0
  0
LINE
  5
35F
330
1F
100
AcDbEntity
  8
2
  6
HIDDEN
 62
     4
370
    20
100
AcDbLine
 10
3253.247708907298
 20
1937.607401382037
 30
0.0
 11
3253.247708907298
 21
2025.607401382037
 31
0.0
  0
LINE
  5
360
330
1F
100
AcDbEntity
  8
2
  6
Continuous
 62
     4
370
    20
100
AcDbLine
 10
3774.247708907298
 20
2025.607401382037
 30
0.0
 11
3774.247708907298
 21
1937.607401382037
 31
0.0
  0
LINE
  5
361
330
1F
100
AcDbEntity
  8
2
  6
Continuous
 62
     4
370
    20
100
AcDbLine
 10
3774.247708907298
 20
2025.607401382037
 30
0.0
 11
3808.247708907298
 21
2025.607401382037
 31
0.0
  0
LINE
  5
362
330
1F
100
AcDbEntity
  8
2
  6
Continuous
 62
     4
370
    20
100
AcDbLine
 10
3808.247708907298
 20
1937.607401382037
 30
0.0
 11
3774.247708907298
 21
1937.607401382037
 31
0.0
  0
LINE
  5
363
330
1F
100
AcDbEntity
  8
2
  6
HIDDEN
 62
     4
370
    20
100
AcDbLine
 10
3768.247708907298
 20
1937.607401382037
 30
0.0
 11
3768.247708907298
 21
2025.607401382037
 31
0.0
  0
LINE
  5
364
330
1F
100
AcDbEntity
  8
2
  6
Continuous
 62
     4
370
    20
100
AcDbLine
 10
3774.247708907298
 20
2025.607401382037
 30
0.0
 11
3244.454695963552
 21
2025.607401382037
 31
0.0
  0
LINE
  5
365
330
1F
100
AcDbEntity
  8
2
  6
Continuous
 62
     4
370
    20
100
AcDbLine
 10
3246.09141277285
 20
1937.607401382037
 30
0.0
 11
3773.350454080886
 21
1937.607401382037
 31
0.0
  0
LINE
  5
366
330
1F
100
AcDbEntity
  8
2
  6
DOT
 62
     4
370
    20
100
AcDbLine
 10
3328.247708907298
 20
1919.607401382037
 30
0.0
 11
3328.247708907298
 21
1949.607401382037
 31
0.0
  0
LINE
  5
367
330
1F
100
AcDbEntity
  8
2
  6
DOT
 62
     4
370
    20
100
AcDbLine
 10
3268.247708907297
 20
1949.607401382037
 30
0.0
 11
3268.247708907298
 21
1919.607401382037
 31
0.0
  0
LINE
  5
368
330
1F
100
AcDbEntity
  8
2
  6
DOT
 62
     4
370
    20
100
AcDbLine
 10
3328.247708907298
 20
1949.607401382037
 30
0.0
 11
3268.247708907297
 21
1919.607401382037
 31
0.0
  0
LINE
  5
369
330
1F
100
AcDbEntity
  8
2
  6
DOT
 62
     4
370
    20
100
AcDbLine
 10
3328.247708907298
 20
1919.607401382037
 30
0.0
 11
3268.247708907297
 21
1949.607401382037
 31
0.0
  0
LINE
  5
36A
330
1F
100
AcDbEntity
  8
2
  6
Continuous
 62
     4
370
    20
100
AcDbLine
 10
3813.203625330716
 20
3421.607401382041
 30
0.0
 11
3163.203625330716
 21
3431.607401382041
 31
0.0
  0
LINE
  5
36B
330
1F
100
AcDbEntity
  8
2
  6
Continuous
 62
     4
370
    20
100
AcDbLine
 10
3768.203625330716
 20
3271.607401382043
 30
0.0
 11
3733.203625330718
 21
3306.607401382043
 31
0.0
  0
LINE
  5
36C
330
1F
100
AcDbEntity
  8
2
  6
Continuous
 62
     4
370
    20
100
AcDbLine
 10
3733.203625330718
 20
3306.607401382043
 30
0.0
 11
3163.203625330716
 21
3306.607401382041
 31
0.0
  0
LINE
  5
36D
330
1F
100
AcDbEntity
  8
2
  6
Continuous
 62
     4
370
    20
100
AcDbLine
 10
3163.203625330716
 20
3431.607401382041
 30
0.0
 11
3163.203625330716
 21
3306.607401382041
 31
0.0
  0
LINE
  5
36E
330
1F
100
AcDbEntity
  8
2
  6
Continuous
 62
     4
370
    20
100
AcDbLine
 10
3813.203625330716
 20
3271.607401382043
 30
0.0
 11
3768.203625330716
 21
3271.607401382043
 31
0.0
  0
LINE
  5
36F
330
1F
100
AcDbEntity
  8
2
  6
Continuous
 62
     4
370
    20
100
AcDbLine
 10
3813.203625330716
 20
3421.607401382041
 30
0.0
 11
3813.203625330716
 21
3271.607401382043
 31
0.0
  0
INSERT
  5
370
330
1F
100
AcDbEntity
  8
2
  6
Continuous
 62
     4
370
    20
100
AcDbBlockReference
  2
_OPEN
 10
3267.661413359087
 20
1926.82118724165
 30
0.0
 41
40.0
 42
40.0
 43
40.0
 50
48.06331012464372
  0
POLYLINE
  5
371
330
1F
100
AcDbEntity
  8
2
  6
Continuous
 62
     4
370
    20
100
AcDb2dPolyline
 66
     1
 10
0.0
 20
0.0
 30
0.0
  0
VERTEX
  5
372
330
371
100
AcDbEntity
  8
2
  6
Continuous
 62
     4
370
    20
100
AcDbVertex
100
AcDb2dVertex
 10
3267.661413359087
 20
1926.82118724165
 30
0.0
  0
VERTEX
  5
373
330
371
100
AcDbEntity
  8
2
  6
Continuous
 62
     4
370
    20
100
AcDbVertex
100
AcDb2dVertex
 10
3027.233107364358
 20
1659.204417747691
 30
0.0
  0
VERTEX
  5
374
330
371
100
AcDbEntity
  8
2
  6
Continuous
 62
     4
370
    20
100
AcDbVertex
100
AcDb2dVertex
 10
2847.233107364359
 20
1659.204417747691
 30
0.0
  0
SEQEND
  5
375
330
371
100
AcDbEntity
  8
2
  6
Continuous
 62
     4
370
    20
  0
MTEXT
  5
376
330
1F
100
AcDbEntity
  8
2
  6
Continuous
 62
     4
370
     9
100
AcDbMText
 10
3027.233107364358
 20
1659.204417747691
 30
0.0
 40
60.0
 41
279.9032999999999
 46
60.0
 71
     9
 72
     1
  1
{\fＭＳ ゴシック;\T0.750000;通線口}
 73
     1
 44
1.0
1001
ACAD
1000
ACAD_MTEXT_DEFINED_HEIGHT_BEGIN
1070
    46
1040
60.0
1000
ACAD_MTEXT_DEFINED_HEIGHT_END
  0
LINE
  5
377
330
1F
100
AcDbEntity
  8
2
  6
Continuous
 62
     4
370
    20
100
AcDbLine
 10
3716.447708907299
 20
3306.607401382043
 30
0.0
 11
3716.447708907299
 21
3260.907159353357
 31
0.0
  0
LINE
  5
378
330
1F
100
AcDbEntity
  8
2
  6
Continuous
 62
     4
370
    20
100
AcDbLine
 10
3243.2477089073
 20
3306.607401382043
 30
0.0
 11
3243.2477089073
 21
3260.907159353357
 31
0.0
  0
INSERT
  5
379
330
1F
100
AcDbEntity
  8
2
  6
Continuous
 62
     4
370
    20
100
AcDbBlockReference
  2
_OPEN
 10
1882.175954393489
 20
2657.113497002286
 30
0.0
 41
40.0
 42
40.0
 43
40.0
 50
309.3422200159252
  0
POLYLINE
  5
37A
330
1F
100
AcDbEntity
  8
2
  6
Continuous
 62
     4
370
    20
100
AcDb2dPolyline
 66
     1
 10
0.0
 20
0.0
 30
0.0
  0
VERTEX
  5
37B
330
37A
100
AcDbEntity
  8
2
  6
Continuous
 62
     4
370
    20
100
AcDbVertex
100
AcDb2dVertex
 10
1882.175954393489
 20
2657.113497002286
 30
0.0
  0
VERTEX
  5
37C
330
37A
100
AcDbEntity
  8
2
  6
Continuous
 62
     4
370
    20
100
AcDbVertex
100
AcDb2dVertex
 10
1558.326619824941
 20
3052.185749391509
 30
0.0
  0
VERTEX
  5
37D
330
37A
100
AcDbEntity
  8
2
  6
Continuous
 62
     4
370
    20
100
AcDbVertex
100
AcDb2dVertex
 10
1198.326619824941
 20
3052.185749391509
 30
0.0
  0
SEQEND
  5
37E
330
37A
100
AcDbEntity
  8
2
  6
Continuous
 62
     4
370
    20
  0
MTEXT
  5
37F
330
1F
100
AcDbEntity
  8
2
  6
Continuous
 62
     4
370
     9
100
AcDbMText
 10
1558.326619824941
 20
3052.185749391509
 30
0.0
 40
60.0
 41
549.4654499999999
 46
60.0
 71
     9
 72
     1
  1
{\fＭＳ ゴシック;\T0.750000;ドアハンドル}
 73
     1
 44
1.0
1001
ACAD
1000
ACAD_MTEXT_DEFINED_HEIGHT_BEGIN
1070
    46
1040
60.0
1000
ACAD_MTEXT_DEFINED_HEIGHT_END
  0
MTEXT
  5
380
330
1F
100
AcDbEntity
  8
1
  6
Continuous
 62
     7
370
     9
100
AcDbMText
 10
2552.536790544064
 20
644.657946166395
 30
0.0
 40
40.0
 41
283.4052590996001
 46
40.0
 71
     7
 72
     1
  1
{\fＭＳ ゴシック;\T0.765209;2020.04.23}
 73
     1
 44
1.0
1001
ACAD
1000
ACAD_MTEXT_DEFINED_HEIGHT_BEGIN
1070
    46
1040
40.0
1000
ACAD_MTEXT_DEFINED_HEIGHT_END
  0
INSERT
  5
381
330
1F
100
AcDbEntity
  8
2
  6
Continuous
 62
     4
370
    20
100
AcDbBlockReference
  2
_OPEN
 10
2431.132880155587
 20
3279.226262738961
 30
0.0
 41
40.0
 42
40.0
 43
40.0
 50
259.2080878838298
  0
POLYLINE
  5
382
330
1F
100
AcDbEntity
  8
2
  6
Continuous
 62
     4
370
    20
100
AcDb2dPolyline
 66
     1
 10
0.0
 20
0.0
 30
0.0
  0
VERTEX
  5
383
330
382
100
AcDbEntity
  8
2
  6
Continuous
 62
     4
370
    20
100
AcDbVertex
100
AcDb2dVertex
 10
2431.132880155587
 20
3279.226262738961
 30
0.0
  0
VERTEX
  5
384
330
382
100
AcDbEntity
  8
2
  6
Continuous
 62
     4
370
    20
100
AcDbVertex
100
AcDb2dVertex
 10
2543.63021015915
 20
3869.410528245877
 30
0.0
  0
VERTEX
  5
385
330
382
100
AcDbEntity
  8
2
  6
Continuous
 62
     4
370
    20
100
AcDbVertex
100
AcDb2dVertex
 10
3173.63021015915
 20
3869.410528245877
 30
0.0
  0
SEQEND
  5
386
330
382
100
AcDbEntity
  8
2
  6
Continuous
 62
     4
370
    20
  0
MTEXT
  5
387
330
1F
100
AcDbEntity
  8
2
  6
Continuous
 62
     4
370
     9
100
AcDbMText
 10
2543.63021015915
 20
3869.410528245877
 30
0.0
 40
60.0
 41
923.38695
 46
60.0
 71
     7
 72
     1
  1
{\fＭＳ ゴシック;\T0.750000;排風口(平均温度65℃)}
 73
     1
 44
1.0
1001
ACAD
1000
ACAD_MTEXT_DEFINED_HEIGHT_BEGIN
1070
    46
1040
60.0
1000
ACAD_MTEXT_DEFINED_HEIGHT_END
  0
MTEXT
  5
388
330
1F
100
AcDbEntity
  8
2
  6
Continuous
 62
     4
370
     9
100
AcDbMText
 10
2543.63021015915
 20
3869.410528245877
 30
0.0
 40
60.0
 41
900.0842697275997
 46
60.0
 71
     1
 72
     1
  1
{\fＭＳ ゴシック;\T0.816134;（左.右.後面　3方向）}
 73
     1
 44
1.0
1001
ACAD
1000
ACAD_MTEXT_DEFINED_HEIGHT_BEGIN
1070
    46
1040
60.0
1000
ACAD_MTEXT_DEFINED_HEIGHT_END
  0
MTEXT
  5
389
330
1F
100
AcDbEntity
  8
16
  6
Continuous
 62
     7
370
     9
100
AcDbMText
 10
3238.589784414335
 20
594.102734195545
 30
0.0
 40
60.0
 41
910.0113977570571
 46
60.0
 71
     7
 72
     1
  1
{\fＭＳ 明朝|b1;\W0.833333;\T0.750000;小型発電装置　外形図}
 73
     1
 44
1.0
1001
ACAD
1000
ACAD_MTEXT_DEFINED_HEIGHT_BEGIN
1070
    46
1040
60.0
1000
ACAD_MTEXT_DEFINED_HEIGHT_END
  0
MTEXT
  5
38A
330
1F
100
AcDbEntity
  8
3
  6
DASHDOT
 62
     3
370
     9
100
AcDbMText
 10
3312.764212697554
 20
711.1243954098716
 30
0.0
 40
60.0
 41
567.9786786786788
 46
60.0
 71
     7
 72
     1
  1
{\fＭＳ 明朝|b1;\T0.750000;ODG-130TR-24}
 73
     1
 44
1.0
1001
ACAD
1000
ACAD_MTEXT_DEFINED_HEIGHT_BEGIN
1070
    46
1040
60.0
1000
ACAD_MTEXT_DEFINED_HEIGHT_END
  0
VIEWPORT
  5
3F
330
1B
100
AcDbEntity
 67
     1
  8
0
100
AcDbViewport
 10
2100.0
 20
2970.0
 30
0.0
 40
4200.0
 41
5940.0
 68
     1
 69
     1
 12
2100.0
 22
2970.0
 13
0.0
 23
0.0
 14
0.5
 24
0.5
 15
0.5
 25
0.5
 16
0.0
 26
0.0
 36
1.0
 17
0.0
 27
0.0
 37
0.0
 42
50.0
 43
0.0
 44
0.0
 45
9.0
 50
0.0
 51
0.0
 72
   100
 90
   557152
  1

281
     0
 71
     1
 74
     0
110
0.0
120
0.0
130
0.0
111
1.0
121
0.0
131
0.0
112
0.0
122
1.0
132
0.0
 79
     0
146
0.0
170
     0
 61
     5
292
     1
282
     1
141
0.0
142
0.0
 63
   256
  0
ENDSEC
  0
SECTION
  2
OBJECTS
  0
DICTIONARY
  5
C
330
0
100
AcDbDictionary
281
     1
  3
ACAD_GROUP
350
D
  3
ACAD_LAYOUT
350
1A
  3
ACAD_MATERIAL
350
3B
  3
ACAD_MLEADERSTYLE
350
3AC
  3
ACAD_MLINESTYLE
350
17
  3
ACAD_PLOTSETTINGS
350
19
  3
ACAD_PLOTSTYLENAME
350
E
  3
ACAD_TABLESTYLE
350
3AB
  3
ACAD_VISUALSTYLE
350
2A
  0
DICTIONARY
  5
D
102
{ACAD_REACTORS
330
C
102
}
330
C
100
AcDbDictionary
281
     1
  0
DICTIONARY
  5
1A
102
{ACAD_REACTORS
330
C
102
}
330
C
100
AcDbDictionary
281
     1
  3
Layout1
350
1E
  3
Layout2
350
26
  3
Model
350
22
  0
DICTIONARY
  5
3B
102
{ACAD_REACTORS
330
C
102
}
330
C
100
AcDbDictionary
281
     1
  3
ByBlock
350
3D
  3
ByLayer
350
3C
  3
Global
350
3E
  0
DICTIONARY
  5
3AC
102
{ACAD_REACTORS
330
C
102
}
330
C
100
AcDbDictionary
281
     1
  0
DICTIONARY
  5
17
102
{ACAD_REACTORS
330
C
102
}
330
C
100
AcDbDictionary
281
     1
  3
Standard
350
18
  0
DICTIONARY
  5
19
102
{ACAD_REACTORS
330
C
102
}
330
C
100
AcDbDictionary
281
     1
  0
ACDBDICTIONARYWDFLT
  5
E
102
{ACAD_REACTORS
330
C
102
}
330
C
100
AcDbDictionary
281
     1
  3
Normal
350
F
100
AcDbDictionaryWithDefault
340
F
  0
DICTIONARY
  5
3AB
102
{ACAD_REACTORS
330
C
102
}
330
C
100
AcDbDictionary
281
     1
  0
DICTIONARY
  5
2A
102
{ACAD_REACTORS
330
C
102
}
330
C
100
AcDbDictionary
281
     1
  3
2dWireframe
350
2F
  3
3D Hidden
350
31
  3
3dWireframe
350
30
  3
Basic
350
32
  3
Brighten
350
36
  3
ColorChange
350
3A
  3
Conceptual
350
34
  3
Dim
350
35
  3
Facepattern
350
39
  3
Flat
350
2B
  3
FlatWithEdges
350
2C
  3
Gouraud
350
2D
  3
GouraudWithEdges
350
2E
  3
Linepattern
350
38
  3
Realistic
350
33
  3
Thicken
350
37
  0
LAYOUT
  5
1E
102
{ACAD_REACTORS
330
1A
102
}
330
1A
100
AcDbPlotSettings
  1

  2
none_device
  4

  6

 40
0.0
 41
0.0
 42
0.0
 43
0.0
 44
0.0
 45
0.0
 46
0.0
 47
0.0
 48
0.0
 49
0.0
140
0.0
141
0.0
142
1.0
143
1.0
 70
   688
 72
     0
 73
     0
 74
     5
  7

 75
    16
 76
     0
 77
     2
 78
   300
147
1.0
148
0.0
149
0.0
100
AcDbLayout
  1
Layout1
 70
     1
 71
     1
 10
0.0
 20
0.0
 11
210.0
 21
297.0
 12
0.0
 22
0.0
 32
0.0
 14
0.0
 24
0.0
 34
0.0
 15
210.0
 25
297.0
 35
0.0
146
0.0
 13
0.0
 23
0.0
 33
0.0
 16
1.0
 26
0.0
 36
0.0
 17
0.0
 27
1.0
 37
0.0
 76
     0
330
1B
331
3F
  0
LAYOUT
  5
26
102
{ACAD_REACTORS
330
1A
102
}
330
1A
100
AcDbPlotSettings
  1

  2
none_device
  4

  6

 40
0.0
 41
0.0
 42
0.0
 43
0.0
 44
0.0
 45
0.0
 46
0.0
 47
0.0
 48
0.0
 49
0.0
140
0.0
141
0.0
142
1.0
143
1.0
 70
   688
 72
     0
 73
     0
 74
     5
  7

 75
    16
 76
     0
 77
     2
 78
   300
147
1.0
148
0.0
149
0.0
100
AcDbLayout
  1
Layout2
 70
     1
 71
     2
 10
0.0
 20
0.0
 11
0.0
 21
0.0
 12
0.0
 22
0.0
 32
0.0
 14
0.0
 24
0.0
 34
0.0
 15
0.0
 25
0.0
 35
0.0
146
0.0
 13
0.0
 23
0.0
 33
0.0
 16
1.0
 26
0.0
 36
0.0
 17
0.0
 27
1.0
 37
0.0
 76
     0
330
23
  0
LAYOUT
  5
22
102
{ACAD_REACTORS
330
1A
102
}
330
1A
100
AcDbPlotSettings
  1

  2
none_device
  4

  6

 40
0.0
 41
0.0
 42
0.0
 43
0.0
 44
0.0
 45
0.0
 46
0.0
 47
0.0
 48
0.0
 49
0.0
140
0.0
141
0.0
142
1.0
143
1.0
 70
  1712
 72
     0
 73
     0
 74
     0
  7

 75
     0
 76
     0
 77
     2
 78
   300
147
1.0
148
0.0
149
0.0
100
AcDbLayout
  1
Model
 70
     1
 71
     0
 10
0.0
 20
0.0
 11
210.0
 21
297.0
 12
0.0
 22
0.0
 32
0.0
 14
292.5
 24
442.3722692591805
 34
0.0
 15
3992.183898781856
 25
5648.302574151556
 35
0.0
146
0.0
 13
0.0
 23
0.0
 33
0.0
 16
1.0
 26
0.0
 36
0.0
 17
0.0
 27
1.0
 37
0.0
 76
     0
330
1F
331
29
  0
MATERIAL
  5
3D
102
{ACAD_REACTORS
330
3B
102
}
330
3B
100
AcDbMaterial
  1
ByBlock
 72
     1
 94
      127
  0
MATERIAL
  5
3C
102
{ACAD_REACTORS
330
3B
102
}
330
3B
100
AcDbMaterial
  1
ByLayer
 72
     1
 94
      127
  0
MATERIAL
  5
3E
102
{ACAD_REACTORS
330
3B
102
}
330
3B
100
AcDbMaterial
  1
Global
 72
     1
 94
      127
  0
MLINESTYLE
  5
18
102
{ACAD_REACTORS
330
17
102
}
330
17
100
AcDbMlineStyle
  2
Standard
 70
     0
  3

 62
   256
 51
90.0
 52
90.0
 71
     2
 49
0.5
 62
   256
  6
BYLAYER
 49
-0.5
 62
   256
  6
BYLAYER
  0
ACDBPLACEHOLDER
  5
F
102
{ACAD_REACTORS
330
E
102
}
330
E
  0
VISUALSTYLE
  5
2F
102
{ACAD_REACTORS
330
2A
102
}
102
{ACAD_XDICTIONARY
360
393
102
}
330
2A
100
AcDbVisualStyle
  2
2dWireframe
 70
     4
 71
     0
 72
     2
 73
     0
 90
        0
 40
-0.6
 41
-30.0
 62
     5
 63
     7
421
 16777215
 74
     1
 91
        4
 64
     7
 65
   257
 75
     1
175
     1
 42
1.0
 92
        0
 66
   257
 43
1.0
 76
     1
 77
     6
 78
     2
 67
     7
 79
     5
170
     0
171
     0
290
     0
174
     0
 93
        1
 44
0.0
173
     0
291
     0
 45
0.0
  0
VISUALSTYLE
  5
31
102
{ACAD_REACTORS
330
2A
102
}
102
{ACAD_XDICTIONARY
360
397
102
}
330
2A
100
AcDbVisualStyle
  2
3D Hidden
 70
     6
 71
     1
 72
     2
 73
     2
 90
        0
 40
-0.6
 41
-30.0
 62
     5
 63
     7
421
 16777215
 74
     2
 91
        2
 64
     7
 65
   257
 75
     2
175
     1
 42
40.0
 92
        0
 66
   257
 43
1.0
 76
     1
 77
     6
 78
     2
 67
     7
 79
     3
170
     0
171
     0
290
     0
174
     0
 93
        1
 44
0.0
173
     0
291
     0
 45
0.0
  0
VISUALSTYLE
  5
30
102
{ACAD_REACTORS
330
2A
102
}
102
{ACAD_XDICTIONARY
360
395
102
}
330
2A
100
AcDbVisualStyle
  2
3dWireframe
 70
     5
 71
     0
 72
     2
 73
     0
 90
        0
 40
-0.6
 41
-30.0
 62
     5
 63
     7
421
 16777215
 74
     1
 91
        4
 64
     7
 65
   257
 75
     1
175
     1
 42
1.0
 92
        0
 66
   257
 43
1.0
 76
     1
 77
     6
 78
     2
 67
     7
 79
     5
170
     0
171
     0
290
     0
174
     0
 93
        1
 44
0.0
173
     0
291
     0
 45
0.0
  0
VISUALSTYLE
  5
32
102
{ACAD_REACTORS
330
2A
102
}
102
{ACAD_XDICTIONARY
360
399
102
}
330
2A
100
AcDbVisualStyle
  2
Basic
 70
     7
 71
     1
 72
     0
 73
     1
 90
        0
 40
-0.6
 41
-30.0
 62
     5
 63
     7
421
 16777215
 74
     0
 91
        4
 64
     7
 65
   257
 75
     1
175
     1
 42
1.0
 92
        8
 66
     7
 43
1.0
 76
     1
 77
     6
 78
     2
 67
     7
 79
     5
170
     0
171
     0
290
     0
174
     0
 93
        1
 44
0.0
173
     0
291
     1
 45
0.0
  0
VISUALSTYLE
  5
36
102
{ACAD_REACTORS
330
2A
102
}
102
{ACAD_XDICTIONARY
360
3A1
102
}
330
2A
100
AcDbVisualStyle
  2
Brighten
 70
    12
 71
     2
 72
     2
 73
     0
 90
        0
 40
-0.6
 41
-30.0
 62
     5
 63
     7
421
 16777215
 74
     1
 91
        4
 64
     7
 65
   257
 75
     1
175
     1
 42
1.0
 92
        8
 66
     7
 43
1.0
 76
     1
 77
     6
 78
     2
 67
     7
 79
     5
170
     0
171
     0
290
     0
174
     0
 93
        1
 44
50.0
173
     0
291
     1
 45
0.0
  0
VISUALSTYLE
  5
3A
102
{ACAD_REACTORS
330
2A
102
}
102
{ACAD_XDICTIONARY
360
3A9
102
}
330
2A
100
AcDbVisualStyle
  2
ColorChange
 70
    16
 71
     2
 72
     2
 73
     3
 90
        0
 40
-0.6
 41
-30.0
 62
     5
 63
     8
421
  8421504
 74
     1
 91
        4
 64
     7
 65
   257
 75
     1
175
     1
 42
1.0
 92
        8
 66
     8
424
  8421504
 43
1.0
 76
     1
 77
     6
 78
     2
 67
     7
 79
     5
170
     0
171
     0
290
     0
174
     0
 93
        1
 44
0.0
173
     0
291
     1
 45
0.0
  0
VISUALSTYLE
  5
34
102
{ACAD_REACTORS
330
2A
102
}
102
{ACAD_XDICTIONARY
360
39D
102
}
330
2A
100
AcDbVisualStyle
  2
Conceptual
 70
     9
 71
     3
 72
     2
 73
     0
 90
        0
 40
-0.6
 41
-30.0
 62
     5
 63
     7
421
 16777215
 74
     2
 91
        2
 64
     7
 65
   257
 75
     1
175
     1
 42
40.0
 92
        8
 66
     7
 43
1.0
 76
     1
 77
     6
 78
     2
 67
     7
 79
     3
170
     0
171
     0
290
     0
174
     0
 93
        1
 44
0.0
173
     0
291
     0
 45
0.0
  0
VISUALSTYLE
  5
35
102
{ACAD_REACTORS
330
2A
102
}
102
{ACAD_XDICTIONARY
360
39F
102
}
330
2A
100
AcDbVisualStyle
  2
Dim
 70
    11
 71
     2
 72
     2
 73
     0
 90
        0
 40
-0.6
 41
-30.0
 62
     5
 63
     7
421
 16777215
 74
     1
 91
        4
 64
     7
 65
   257
 75
     1
175
     1
 42
1.0
 92
        8
 66
     7
 43
1.0
 76
     1
 77
     6
 78
     2
 67
     7
 79
     5
170
     0
171
     0
290
     0
174
     0
 93
        1
 44
-50.0
173
     0
291
     1
 45
0.0
  0
VISUALSTYLE
  5
39
102
{ACAD_REACTORS
330
2A
102
}
102
{ACAD_XDICTIONARY
360
3A7
102
}
330
2A
100
AcDbVisualStyle
  2
Facepattern
 70
    15
 71
     2
 72
     2
 73
     0
 90
        0
 40
-0.6
 41
-30.0
 62
     5
 63
     7
421
 16777215
 74
     1
 91
        4
 64
     7
 65
   257
 75
     1
175
     1
 42
1.0
 92
        8
 66
     7
 43
1.0
 76
     1
 77
     6
 78
     2
 67
     7
 79
     5
170
     0
171
     0
290
     0
174
     0
 93
        1
 44
0.0
173
     0
291
     1
 45
0.0
  0
VISUALSTYLE
  5
2B
102
{ACAD_REACTORS
330
2A
102
}
102
{ACAD_XDICTIONARY
360
38B
102
}
330
2A
100
AcDbVisualStyle
  2
Flat
 70
     0
 71
     2
 72
     1
 73
     1
 90
        2
 40
-0.6
 41
30.0
 62
     5
 63
     7
421
 16777215
 74
     0
 91
        4
 64
     7
 65
   257
 75
     1
175
     1
 42
1.0
 92
        8
 66
     7
 43
1.0
 76
     1
 77
     6
 78
     2
 67
     7
 79
     5
170
     0
171
     0
290
     0
174
     0
 93
       13
 44
0.0
173
     0
291
     1
 45
0.0
  0
VISUALSTYLE
  5
2C
102
{ACAD_REACTORS
330
2A
102
}
102
{ACAD_XDICTIONARY
360
38D
102
}
330
2A
100
AcDbVisualStyle
  2
FlatWithEdges
 70
     1
 71
     2
 72
     1
 73
     1
 90
        2
 40
-0.6
 41
30.0
 62
     5
 63
     7
421
 16777215
 74
     1
 91
        4
 64
     7
 65
   257
 75
     1
175
     1
 42
1.0
 92
        0
 66
   257
 43
1.0
 76
     1
 77
     6
 78
     2
 67
     7
 79
     5
170
     0
171
     0
290
     0
174
     0
 93
       13
 44
0.0
173
     0
291
     1
 45
0.0
  0
VISUALSTYLE
  5
2D
102
{ACAD_REACTORS
330
2A
102
}
102
{ACAD_XDICTIONARY
360
38F
102
}
330
2A
100
AcDbVisualStyle
  2
Gouraud
 70
     2
 71
     2
 72
     2
 73
     1
 90
        2
 40
-0.6
 41
30.0
 62
     5
 63
     7
421
 16777215
 74
     0
 91
        4
 64
     7
 65
   257
 75
     1
175
     1
 42
1.0
 92
        0
 66
     7
 43
1.0
 76
     1
 77
     6
 78
     2
 67
     7
 79
     5
170
     0
171
     0
290
     0
174
     0
 93
       13
 44
0.0
173
     0
291
     1
 45
0.0
  0
VISUALSTYLE
  5
2E
102
{ACAD_REACTORS
330
2A
102
}
102
{ACAD_XDICTIONARY
360
391
102
}
330
2A
100
AcDbVisualStyle
  2
GouraudWithEdges
 70
     3
 71
     2
 72
     2
 73
     1
 90
        2
 40
-0.6
 41
30.0
 62
     5
 63
     7
421
 16777215
 74
     1
 91
        4
 64
     7
 65
   257
 75
     1
175
     1
 42
1.0
 92
        0
 66
   257
 43
1.0
 76
     1
 77
     6
 78
     2
 67
     7
 79
     5
170
     0
171
     0
290
     0
174
     0
 93
       13
 44
0.0
173
     0
291
     1
 45
0.0
  0
VISUALSTYLE
  5
38
102
{ACAD_REACTORS
330
2A
102
}
102
{ACAD_XDICTIONARY
360
3A5
102
}
330
2A
100
AcDbVisualStyle
  2
Linepattern
 70
    14
 71
     2
 72
     2
 73
     0
 90
        0
 40
-0.6
 41
-30.0
 62
     5
 63
     7
421
 16777215
 74
     1
 91
        4
 64
     7
 65
   257
 75
     7
175
     7
 42
1.0
 92
        8
 66
     7
 43
1.0
 76
     1
 77
     6
 78
     2
 67
     7
 79
     5
170
     0
171
     0
290
     0
174
     0
 93
        1
 44
0.0
173
     0
291
     1
 45
0.0
  0
VISUALSTYLE
  5
33
102
{ACAD_REACTORS
330
2A
102
}
102
{ACAD_XDICTIONARY
360
39B
102
}
330
2A
100
AcDbVisualStyle
  2
Realistic
 70
     8
 71
     2
 72
     2
 73
     0
 90
        0
 40
-0.6
 41
-30.0
 62
     5
 63
     7
421
 16777215
 74
     1
 91
        0
 64
     7
 65
   257
 75
     1
175
     1
 42
1.0
 92
        8
 66
     8
424
  7895160
 43
1.0
 76
     1
 77
     6
 78
     2
 67
     7
 79
     5
170
     0
171
     0
290
     0
174
     0
 93
       13
 44
0.0
173
     0
291
     0
 45
0.0
  0
VISUALSTYLE
  5
37
102
{ACAD_REACTORS
330
2A
102
}
102
{ACAD_XDICTIONARY
360
3A3
102
}
330
2A
100
AcDbVisualStyle
  2
Thicken
 70
    13
 71
     2
 72
     2
 73
     0
 90
        0
 40
-0.6
 41
-30.0
 62
     5
 63
     7
421
 16777215
 74
     1
 91
        4
 64
     7
 65
   257
 75
     1
175
     1
 42
1.0
 92
       12
 66
     7
 43
1.0
 76
     1
 77
     6
 78
     2
 67
     7
 79
     5
170
     0
171
     0
290
     0
174
     0
 93
        1
 44
0.0
173
     0
291
     1
 45
0.0
  0
DICTIONARY
  5
393
330
2F
100
AcDbDictionary
280
     1
281
     1
  3
ACAD_XREC_ROUNDTRIP
360
394
  0
DICTIONARY
  5
397
330
31
100
AcDbDictionary
280
     1
281
     1
  3
ACAD_XREC_ROUNDTRIP
360
398
  0
DICTIONARY
  5
395
330
30
100
AcDbDictionary
280
     1
281
     1
  3
ACAD_XREC_ROUNDTRIP
360
396
  0
DICTIONARY
  5
399
330
32
100
AcDbDictionary
280
     1
281
     1
  3
ACAD_XREC_ROUNDTRIP
360
39A
  0
DICTIONARY
  5
3A1
330
36
100
AcDbDictionary
280
     1
281
     1
  3
ACAD_XREC_ROUNDTRIP
360
3A2
  0
DICTIONARY
  5
3A9
330
3A
100
AcDbDictionary
280
     1
281
     1
  3
ACAD_XREC_ROUNDTRIP
360
3AA
  0
DICTIONARY
  5
39D
330
34
100
AcDbDictionary
280
     1
281
     1
  3
ACAD_XREC_ROUNDTRIP
360
39E
  0
DICTIONARY
  5
39F
330
35
100
AcDbDictionary
280
     1
281
     1
  3
ACAD_XREC_ROUNDTRIP
360
3A0
  0
DICTIONARY
  5
3A7
330
39
100
AcDbDictionary
280
     1
281
     1
  3
ACAD_XREC_ROUNDTRIP
360
3A8
  0
DICTIONARY
  5
38B
330
2B
100
AcDbDictionary
280
     1
281
     1
  3
ACAD_XREC_ROUNDTRIP
360
38C
  0
DICTIONARY
  5
38D
330
2C
100
AcDbDictionary
280
     1
281
     1
  3
ACAD_XREC_ROUNDTRIP
360
38E
  0
DICTIONARY
  5
38F
330
2D
100
AcDbDictionary
280
     1
281
     1
  3
ACAD_XREC_ROUNDTRIP
360
390
  0
DICTIONARY
  5
391
330
2E
100
AcDbDictionary
280
     1
281
     1
  3
ACAD_XREC_ROUNDTRIP
360
392
  0
DICTIONARY
  5
3A5
330
38
100
AcDbDictionary
280
     1
281
     1
  3
ACAD_XREC_ROUNDTRIP
360
3A6
  0
DICTIONARY
  5
39B
330
33
100
AcDbDictionary
280
     1
281
     1
  3
ACAD_XREC_ROUNDTRIP
360
39C
  0
DICTIONARY
  5
3A3
330
37
100
AcDbDictionary
280
     1
281
     1
  3
ACAD_XREC_ROUNDTRIP
360
3A4
  0
XRECORD
  5
394
102
{ACAD_REACTORS
330
393
102
}
330
393
100
AcDbXrecord
280
     1
102
RTVSPropertyOp0
 70
     1
102
RTVSPropertyOp1
 70
     1
102
RTVSPropertyOp2
 70
     1
102
RTVSPropertyOp3
 70
     1
102
RTVSPropertyOp4
 70
     1
102
RTVSPropertyOp5
 70
     1
102
RTVSPropertyOp6
 70
     1
102
RTVSPropertyOp7
 70
     1
102
RTVSPropertyOp8
 70
     1
102
RTVSPropertyOp9
 70
     1
102
RTVSPropertyOp10
 70
     1
102
RTVSPropertyOp11
 70
     1
102
RTVSPropertyOp12
 70
     1
102
RTVSPropertyOp13
 70
     1
102
RTVSPropertyOp14
 70
     1
102
RTVSPropertyOp15
 70
     1
102
RTVSPropertyOp16
 70
     1
102
RTVSPropertyOp17
 70
     1
102
RTVSPropertyOp18
 70
     1
102
RTVSPropertyOp19
 70
     1
102
RTVSPropertyOp20
 70
     1
102
RTVSPropertyOp21
 70
     1
102
RTVSPropertyOp22
 70
     1
102
RTVSPropertyOp23
 70
     1
102
RTVSPropertyOp24
 70
     1
102
RTVSPropertyOp25
 70
     1
102
RTVSPropertyOp26
 70
     1
102
RTVSPropertyOp27
 70
     1
102
RTVSPropertyOp28
 70
     1
102
RTVSPropertyOp29
 70
     1
102
RTVSPropertyOp30
 70
     1
102
RTVSPropertyOp31
 70
     1
102
RTVSPropertyOp32
 70
     1
  0
XRECORD
  5
398
102
{ACAD_REACTORS
330
397
102
}
330
397
100
AcDbXrecord
280
     1
102
RTVSPropertyOp0
 70
     1
102
RTVSPropertyOp1
 70
     1
102
RTVSPropertyOp2
 70
     1
102
RTVSPropertyOp3
 70
     1
102
RTVSPropertyOp4
 70
     1
102
RTVSPropertyOp5
 70
     1
102
RTVSPropertyOp6
 70
     1
102
RTVSPropertyOp7
 70
     1
102
RTVSPropertyOp8
 70
     1
102
RTVSPropertyOp9
 70
     1
102
RTVSPropertyOp10
 70
     1
102
RTVSPropertyOp11
 70
     1
102
RTVSPropertyOp12
 70
     1
102
RTVSPropertyOp13
 70
     1
102
RTVSPropertyOp14
 70
     1
102
RTVSPropertyOp15
 70
     1
102
RTVSPropertyOp16
 70
     1
102
RTVSPropertyOp17
 70
     1
102
RTVSPropertyOp18
 70
     1
102
RTVSPropertyOp19
 70
     1
102
RTVSPropertyOp20
 70
     1
102
RTVSPropertyOp21
 70
     1
102
RTVSPropertyOp22
 70
     1
102
RTVSPropertyOp23
 70
     1
102
RTVSPropertyOp24
 70
     1
102
RTVSPropertyOp25
 70
     1
102
RTVSPropertyOp26
 70
     1
102
RTVSPropertyOp27
 70
     1
102
RTVSPropertyOp28
 70
     1
102
RTVSPropertyOp29
 70
     1
102
RTVSPropertyOp30
 70
     1
102
RTVSPropertyOp31
 70
     1
102
RTVSPropertyOp32
 70
     1
  0
XRECORD
  5
396
102
{ACAD_REACTORS
330
395
102
}
330
395
100
AcDbXrecord
280
     1
102
RTVSPropertyOp0
 70
     1
102
RTVSPropertyOp1
 70
     1
102
RTVSPropertyOp2
 70
     1
102
RTVSPropertyOp3
 70
     1
102
RTVSPropertyOp4
 70
     1
102
RTVSPropertyOp5
 70
     1
102
RTVSPropertyOp6
 70
     1
102
RTVSPropertyOp7
 70
     1
102
RTVSPropertyOp8
 70
     1
102
RTVSPropertyOp9
 70
     1
102
RTVSPropertyOp10
 70
     1
102
RTVSPropertyOp11
 70
     1
102
RTVSPropertyOp12
 70
     1
102
RTVSPropertyOp13
 70
     1
102
RTVSPropertyOp14
 70
     1
102
RTVSPropertyOp15
 70
     1
102
RTVSPropertyOp16
 70
     1
102
RTVSPropertyOp17
 70
     1
102
RTVSPropertyOp18
 70
     1
102
RTVSPropertyOp19
 70
     1
102
RTVSPropertyOp20
 70
     1
102
RTVSPropertyOp21
 70
     1
102
RTVSPropertyOp22
 70
     1
102
RTVSPropertyOp23
 70
     1
102
RTVSPropertyOp24
 70
     1
102
RTVSPropertyOp25
 70
     1
102
RTVSPropertyOp26
 70
     1
102
RTVSPropertyOp27
 70
     1
102
RTVSPropertyOp28
 70
     1
102
RTVSPropertyOp29
 70
     1
102
RTVSPropertyOp30
 70
     1
102
RTVSPropertyOp31
 70
     1
102
RTVSPropertyOp32
 70
     1
  0
XRECORD
  5
39A
102
{ACAD_REACTORS
330
399
102
}
330
399
100
AcDbXrecord
280
     1
102
RTVSPropertyOp0
 70
     1
102
RTVSPropertyOp1
 70
     1
102
RTVSPropertyOp2
 70
     1
102
RTVSPropertyOp3
 70
     1
102
RTVSPropertyOp4
 70
     1
102
RTVSPropertyOp5
 70
     1
102
RTVSPropertyOp6
 70
     1
102
RTVSPropertyOp7
 70
     1
102
RTVSPropertyOp8
 70
     1
102
RTVSPropertyOp9
 70
     1
102
RTVSPropertyOp10
 70
     1
102
RTVSPropertyOp11
 70
     1
102
RTVSPropertyOp12
 70
     1
102
RTVSPropertyOp13
 70
     1
102
RTVSPropertyOp14
 70
     1
102
RTVSPropertyOp15
 70
     1
102
RTVSPropertyOp16
 70
     1
102
RTVSPropertyOp17
 70
     1
102
RTVSPropertyOp18
 70
     1
102
RTVSPropertyOp19
 70
     1
102
RTVSPropertyOp20
 70
     1
102
RTVSPropertyOp21
 70
     1
102
RTVSPropertyOp22
 70
     1
102
RTVSPropertyOp23
 70
     1
102
RTVSPropertyOp24
 70
     1
102
RTVSPropertyOp25
 70
     1
102
RTVSPropertyOp26
 70
     1
102
RTVSPropertyOp27
 70
     1
102
RTVSPropertyOp28
 70
     1
102
RTVSPropertyOp29
 70
     1
102
RTVSPropertyOp30
 70
     1
102
RTVSPropertyOp31
 70
     1
102
RTVSPropertyOp32
 70
     1
  0
XRECORD
  5
3A2
102
{ACAD_REACTORS
330
3A1
102
}
330
3A1
100
AcDbXrecord
280
     1
102
RTVSPropertyOp0
 70
     1
102
RTVSPropertyOp1
 70
     1
102
RTVSPropertyOp2
 70
     1
102
RTVSPropertyOp3
 70
     1
102
RTVSPropertyOp4
 70
     1
102
RTVSPropertyOp5
 70
     1
102
RTVSPropertyOp6
 70
     1
102
RTVSPropertyOp7
 70
     1
102
RTVSPropertyOp8
 70
     1
102
RTVSPropertyOp9
 70
     1
102
RTVSPropertyOp10
 70
     1
102
RTVSPropertyOp11
 70
     1
102
RTVSPropertyOp12
 70
     1
102
RTVSPropertyOp13
 70
     1
102
RTVSPropertyOp14
 70
     1
102
RTVSPropertyOp15
 70
     1
102
RTVSPropertyOp16
 70
     1
102
RTVSPropertyOp17
 70
     1
102
RTVSPropertyOp18
 70
     1
102
RTVSPropertyOp19
 70
     1
102
RTVSPropertyOp20
 70
     1
102
RTVSPropertyOp21
 70
     1
102
RTVSPropertyOp22
 70
     1
102
RTVSPropertyOp23
 70
     1
102
RTVSPropertyOp24
 70
     1
102
RTVSPropertyOp25
 70
     1
102
RTVSPropertyOp26
 70
     1
102
RTVSPropertyOp27
 70
     1
102
RTVSPropertyOp28
 70
     1
102
RTVSPropertyOp29
 70
     1
102
RTVSPropertyOp30
 70
     1
102
RTVSPropertyOp31
 70
     1
102
RTVSPropertyOp32
 70
     1
  0
XRECORD
  5
3AA
102
{ACAD_REACTORS
330
3A9
102
}
330
3A9
100
AcDbXrecord
280
     1
102
RTVSPropertyOp0
 70
     1
102
RTVSPropertyOp1
 70
     1
102
RTVSPropertyOp2
 70
     1
102
RTVSPropertyOp3
 70
     1
102
RTVSPropertyOp4
 70
     1
102
RTVSPropertyOp5
 70
     1
102
RTVSPropertyOp6
 70
     1
102
RTVSPropertyOp7
 70
     1
102
RTVSPropertyOp8
 70
     1
102
RTVSPropertyOp9
 70
     1
102
RTVSPropertyOp10
 70
     1
102
RTVSPropertyOp11
 70
     1
102
RTVSPropertyOp12
 70
     1
102
RTVSPropertyOp13
 70
     1
102
RTVSPropertyOp14
 70
     1
102
RTVSPropertyOp15
 70
     1
102
RTVSPropertyOp16
 70
     1
102
RTVSPropertyOp17
 70
     1
102
RTVSPropertyOp18
 70
     1
102
RTVSPropertyOp19
 70
     1
102
RTVSPropertyOp20
 70
     1
102
RTVSPropertyOp21
 70
     1
102
RTVSPropertyOp22
 70
     1
102
RTVSPropertyOp23
 70
     1
102
RTVSPropertyOp24
 70
     1
102
RTVSPropertyOp25
 70
     1
102
RTVSPropertyOp26
 70
     1
102
RTVSPropertyOp27
 70
     1
102
RTVSPropertyOp28
 70
     1
102
RTVSPropertyOp29
 70
     1
102
RTVSPropertyOp30
 70
     1
102
RTVSPropertyOp31
 70
     1
102
RTVSPropertyOp32
 70
     1
  0
XRECORD
  5
39E
102
{ACAD_REACTORS
330
39D
102
}
330
39D
100
AcDbXrecord
280
     1
102
RTVSPropertyOp0
 70
     1
102
RTVSPropertyOp1
 70
     1
102
RTVSPropertyOp2
 70
     1
102
RTVSPropertyOp3
 70
     1
102
RTVSPropertyOp4
 70
     1
102
RTVSPropertyOp5
 70
     1
102
RTVSPropertyOp6
 70
     1
102
RTVSPropertyOp7
 70
     1
102
RTVSPropertyOp8
 70
     1
102
RTVSPropertyOp9
 70
     1
102
RTVSPropertyOp10
 70
     1
102
RTVSPropertyOp11
 70
     1
102
RTVSPropertyOp12
 70
     1
102
RTVSPropertyOp13
 70
     1
102
RTVSPropertyOp14
 70
     1
102
RTVSPropertyOp15
 70
     1
102
RTVSPropertyOp16
 70
     1
102
RTVSPropertyOp17
 70
     1
102
RTVSPropertyOp18
 70
     1
102
RTVSPropertyOp19
 70
     1
102
RTVSPropertyOp20
 70
     1
102
RTVSPropertyOp21
 70
     1
102
RTVSPropertyOp22
 70
     1
102
RTVSPropertyOp23
 70
     1
102
RTVSPropertyOp24
 70
     1
102
RTVSPropertyOp25
 70
     1
102
RTVSPropertyOp26
 70
     1
102
RTVSPropertyOp27
 70
     1
102
RTVSPropertyOp28
 70
     1
102
RTVSPropertyOp29
 70
     1
102
RTVSPropertyOp30
 70
     1
102
RTVSPropertyOp31
 70
     1
102
RTVSPropertyOp32
 70
     1
  0
XRECORD
  5
3A0
102
{ACAD_REACTORS
330
39F
102
}
330
39F
100
AcDbXrecord
280
     1
102
RTVSPropertyOp0
 70
     1
102
RTVSPropertyOp1
 70
     1
102
RTVSPropertyOp2
 70
     1
102
RTVSPropertyOp3
 70
     1
102
RTVSPropertyOp4
 70
     1
102
RTVSPropertyOp5
 70
     1
102
RTVSPropertyOp6
 70
     1
102
RTVSPropertyOp7
 70
     1
102
RTVSPropertyOp8
 70
     1
102
RTVSPropertyOp9
 70
     1
102
RTVSPropertyOp10
 70
     1
102
RTVSPropertyOp11
 70
     1
102
RTVSPropertyOp12
 70
     1
102
RTVSPropertyOp13
 70
     1
102
RTVSPropertyOp14
 70
     1
102
RTVSPropertyOp15
 70
     1
102
RTVSPropertyOp16
 70
     1
102
RTVSPropertyOp17
 70
     1
102
RTVSPropertyOp18
 70
     1
102
RTVSPropertyOp19
 70
     1
102
RTVSPropertyOp20
 70
     1
102
RTVSPropertyOp21
 70
     1
102
RTVSPropertyOp22
 70
     1
102
RTVSPropertyOp23
 70
     1
102
RTVSPropertyOp24
 70
     1
102
RTVSPropertyOp25
 70
     1
102
RTVSPropertyOp26
 70
     1
102
RTVSPropertyOp27
 70
     1
102
RTVSPropertyOp28
 70
     1
102
RTVSPropertyOp29
 70
     1
102
RTVSPropertyOp30
 70
     1
102
RTVSPropertyOp31
 70
     1
102
RTVSPropertyOp32
 70
     1
  0
XRECORD
  5
3A8
102
{ACAD_REACTORS
330
3A7
102
}
330
3A7
100
AcDbXrecord
280
     1
102
RTVSPropertyOp0
 70
     1
102
RTVSPropertyOp1
 70
     1
102
RTVSPropertyOp2
 70
     1
102
RTVSPropertyOp3
 70
     1
102
RTVSPropertyOp4
 70
     1
102
RTVSPropertyOp5
 70
     1
102
RTVSPropertyOp6
 70
     1
102
RTVSPropertyOp7
 70
     1
102
RTVSPropertyOp8
 70
     1
102
RTVSPropertyOp9
 70
     1
102
RTVSPropertyOp10
 70
     1
102
RTVSPropertyOp11
 70
     1
102
RTVSPropertyOp12
 70
     1
102
RTVSPropertyOp13
 70
     1
102
RTVSPropertyOp14
 70
     1
102
RTVSPropertyOp15
 70
     1
102
RTVSPropertyOp16
 70
     1
102
RTVSPropertyOp17
 70
     1
102
RTVSPropertyOp18
 70
     1
102
RTVSPropertyOp19
 70
     1
102
RTVSPropertyOp20
 70
     1
102
RTVSPropertyOp21
 70
     1
102
RTVSPropertyOp22
 70
     1
102
RTVSPropertyOp23
 70
     1
102
RTVSPropertyOp24
 70
     1
102
RTVSPropertyOp25
 70
     1
102
RTVSPropertyOp26
 70
     1
102
RTVSPropertyOp27
 70
     1
102
RTVSPropertyOp28
 70
     1
102
RTVSPropertyOp29
 70
     1
102
RTVSPropertyOp30
 70
     1
102
RTVSPropertyOp31
 70
     1
102
RTVSPropertyOp32
 70
     1
  0
XRECORD
  5
38C
102
{ACAD_REACTORS
330
38B
102
}
330
38B
100
AcDbXrecord
280
     1
102
RTVSPropertyOp0
 70
     1
102
RTVSPropertyOp1
 70
     1
102
RTVSPropertyOp2
 70
     1
102
RTVSPropertyOp3
 70
     1
102
RTVSPropertyOp4
 70
     1
102
RTVSPropertyOp5
 70
     1
102
RTVSPropertyOp6
 70
     1
102
RTVSPropertyOp7
 70
     1
102
RTVSPropertyOp8
 70
     1
102
RTVSPropertyOp9
 70
     1
102
RTVSPropertyOp10
 70
     1
102
RTVSPropertyOp11
 70
     1
102
RTVSPropertyOp12
 70
     1
102
RTVSPropertyOp13
 70
     1
102
RTVSPropertyOp14
 70
     1
102
RTVSPropertyOp15
 70
     1
102
RTVSPropertyOp16
 70
     1
102
RTVSPropertyOp17
 70
     1
102
RTVSPropertyOp18
 70
     1
102
RTVSPropertyOp19
 70
     1
102
RTVSPropertyOp20
 70
     1
102
RTVSPropertyOp21
 70
     1
102
RTVSPropertyOp22
 70
     1
102
RTVSPropertyOp23
 70
     1
102
RTVSPropertyOp24
 70
     1
102
RTVSPropertyOp25
 70
     1
102
RTVSPropertyOp26
 70
     1
102
RTVSPropertyOp27
 70
     1
102
RTVSPropertyOp28
 70
     1
102
RTVSPropertyOp29
 70
     1
102
RTVSPropertyOp30
 70
     1
102
RTVSPropertyOp31
 70
     1
102
RTVSPropertyOp32
 70
     1
  0
XRECORD
  5
38E
102
{ACAD_REACTORS
330
38D
102
}
330
38D
100
AcDbXrecord
280
     1
102
RTVSPropertyOp0
 70
     1
102
RTVSPropertyOp1
 70
     1
102
RTVSPropertyOp2
 70
     1
102
RTVSPropertyOp3
 70
     1
102
RTVSPropertyOp4
 70
     1
102
RTVSPropertyOp5
 70
     1
102
RTVSPropertyOp6
 70
     1
102
RTVSPropertyOp7
 70
     1
102
RTVSPropertyOp8
 70
     1
102
RTVSPropertyOp9
 70
     1
102
RTVSPropertyOp10
 70
     1
102
RTVSPropertyOp11
 70
     1
102
RTVSPropertyOp12
 70
     1
102
RTVSPropertyOp13
 70
     1
102
RTVSPropertyOp14
 70
     1
102
RTVSPropertyOp15
 70
     1
102
RTVSPropertyOp16
 70
     1
102
RTVSPropertyOp17
 70
     1
102
RTVSPropertyOp18
 70
     1
102
RTVSPropertyOp19
 70
     1
102
RTVSPropertyOp20
 70
     1
102
RTVSPropertyOp21
 70
     1
102
RTVSPropertyOp22
 70
     1
102
RTVSPropertyOp23
 70
     1
102
RTVSPropertyOp24
 70
     1
102
RTVSPropertyOp25
 70
     1
102
RTVSPropertyOp26
 70
     1
102
RTVSPropertyOp27
 70
     1
102
RTVSPropertyOp28
 70
     1
102
RTVSPropertyOp29
 70
     1
102
RTVSPropertyOp30
 70
     1
102
RTVSPropertyOp31
 70
     1
102
RTVSPropertyOp32
 70
     1
  0
XRECORD
  5
390
102
{ACAD_REACTORS
330
38F
102
}
330
38F
100
AcDbXrecord
280
     1
102
RTVSPropertyOp0
 70
     1
102
RTVSPropertyOp1
 70
     1
102
RTVSPropertyOp2
 70
     1
102
RTVSPropertyOp3
 70
     1
102
RTVSPropertyOp4
 70
     1
102
RTVSPropertyOp5
 70
     1
102
RTVSPropertyOp6
 70
     1
102
RTVSPropertyOp7
 70
     1
102
RTVSPropertyOp8
 70
     1
102
RTVSPropertyOp9
 70
     1
102
RTVSPropertyOp10
 70
     1
102
RTVSPropertyOp11
 70
     1
102
RTVSPropertyOp12
 70
     1
102
RTVSPropertyOp13
 70
     1
102
RTVSPropertyOp14
 70
     1
102
RTVSPropertyOp15
 70
     1
102
RTVSPropertyOp16
 70
     1
102
RTVSPropertyOp17
 70
     1
102
RTVSPropertyOp18
 70
     1
102
RTVSPropertyOp19
 70
     1
102
RTVSPropertyOp20
 70
     1
102
RTVSPropertyOp21
 70
     1
102
RTVSPropertyOp22
 70
     1
102
RTVSPropertyOp23
 70
     1
102
RTVSPropertyOp24
 70
     1
102
RTVSPropertyOp25
 70
     1
102
RTVSPropertyOp26
 70
     1
102
RTVSPropertyOp27
 70
     1
102
RTVSPropertyOp28
 70
     1
102
RTVSPropertyOp29
 70
     1
102
RTVSPropertyOp30
 70
     1
102
RTVSPropertyOp31
 70
     1
102
RTVSPropertyOp32
 70
     1
  0
XRECORD
  5
392
102
{ACAD_REACTORS
330
391
102
}
330
391
100
AcDbXrecord
280
     1
102
RTVSPropertyOp0
 70
     1
102
RTVSPropertyOp1
 70
     1
102
RTVSPropertyOp2
 70
     1
102
RTVSPropertyOp3
 70
     1
102
RTVSPropertyOp4
 70
     1
102
RTVSPropertyOp5
 70
     1
102
RTVSPropertyOp6
 70
     1
102
RTVSPropertyOp7
 70
     1
102
RTVSPropertyOp8
 70
     1
102
RTVSPropertyOp9
 70
     1
102
RTVSPropertyOp10
 70
     1
102
RTVSPropertyOp11
 70
     1
102
RTVSPropertyOp12
 70
     1
102
RTVSPropertyOp13
 70
     1
102
RTVSPropertyOp14
 70
     1
102
RTVSPropertyOp15
 70
     1
102
RTVSPropertyOp16
 70
     1
102
RTVSPropertyOp17
 70
     1
102
RTVSPropertyOp18
 70
     1
102
RTVSPropertyOp19
 70
     1
102
RTVSPropertyOp20
 70
     1
102
RTVSPropertyOp21
 70
     1
102
RTVSPropertyOp22
 70
     1
102
RTVSPropertyOp23
 70
     1
102
RTVSPropertyOp24
 70
     1
102
RTVSPropertyOp25
 70
     1
102
RTVSPropertyOp26
 70
     1
102
RTVSPropertyOp27
 70
     1
102
RTVSPropertyOp28
 70
     1
102
RTVSPropertyOp29
 70
     1
102
RTVSPropertyOp30
 70
     1
102
RTVSPropertyOp31
 70
     1
102
RTVSPropertyOp32
 70
     1
  0
XRECORD
  5
3A6
102
{ACAD_REACTORS
330
3A5
102
}
330
3A5
100
AcDbXrecord
280
     1
102
RTVSPropertyOp0
 70
     1
102
RTVSPropertyOp1
 70
     1
102
RTVSPropertyOp2
 70
     1
102
RTVSPropertyOp3
 70
     1
102
RTVSPropertyOp4
 70
     1
102
RTVSPropertyOp5
 70
     1
102
RTVSPropertyOp6
 70
     1
102
RTVSPropertyOp7
 70
     1
102
RTVSPropertyOp8
 70
     1
102
RTVSPropertyOp9
 70
     1
102
RTVSPropertyOp10
 70
     1
102
RTVSPropertyOp11
 70
     1
102
RTVSPropertyOp12
 70
     1
102
RTVSPropertyOp13
 70
     1
102
RTVSPropertyOp14
 70
     1
102
RTVSPropertyOp15
 70
     1
102
RTVSPropertyOp16
 70
     1
102
RTVSPropertyOp17
 70
     1
102
RTVSPropertyOp18
 70
     1
102
RTVSPropertyOp19
 70
     1
102
RTVSPropertyOp20
 70
     1
102
RTVSPropertyOp21
 70
     1
102
RTVSPropertyOp22
 70
     1
102
RTVSPropertyOp23
 70
     1
102
RTVSPropertyOp24
 70
     1
102
RTVSPropertyOp25
 70
     1
102
RTVSPropertyOp26
 70
     1
102
RTVSPropertyOp27
 70
     1
102
RTVSPropertyOp28
 70
     1
102
RTVSPropertyOp29
 70
     1
102
RTVSPropertyOp30
 70
     1
102
RTVSPropertyOp31
 70
     1
102
RTVSPropertyOp32
 70
     1
  0
XRECORD
  5
39C
102
{ACAD_REACTORS
330
39B
102
}
330
39B
100
AcDbXrecord
280
     1
102
RTVSPropertyOp0
 70
     1
102
RTVSPropertyOp1
 70
     1
102
RTVSPropertyOp2
 70
     1
102
RTVSPropertyOp3
 70
     1
102
RTVSPropertyOp4
 70
     1
102
RTVSPropertyOp5
 70
     1
102
RTVSPropertyOp6
 70
     1
102
RTVSPropertyOp7
 70
     1
102
RTVSPropertyOp8
 70
     1
102
RTVSPropertyOp9
 70
     1
102
RTVSPropertyOp10
 70
     1
102
RTVSPropertyOp11
 70
     1
102
RTVSPropertyOp12
 70
     1
102
RTVSPropertyOp13
 70
     1
102
RTVSPropertyOp14
 70
     1
102
RTVSPropertyOp15
 70
     1
102
RTVSPropertyOp16
 70
     1
102
RTVSPropertyOp17
 70
     1
102
RTVSPropertyOp18
 70
     1
102
RTVSPropertyOp19
 70
     1
102
RTVSPropertyOp20
 70
     1
102
RTVSPropertyOp21
 70
     1
102
RTVSPropertyOp22
 70
     1
102
RTVSPropertyOp23
 70
     1
102
RTVSPropertyOp24
 70
     1
102
RTVSPropertyOp25
 70
     1
102
RTVSPropertyOp26
 70
     1
102
RTVSPropertyOp27
 70
     1
102
RTVSPropertyOp28
 70
     1
102
RTVSPropertyOp29
 70
     1
102
RTVSPropertyOp30
 70
     1
102
RTVSPropertyOp31
 70
     1
102
RTVSPropertyOp32
 70
     1
  0
XRECORD
  5
3A4
102
{ACAD_REACTORS
330
3A3
102
}
330
3A3
100
AcDbXrecord
280
     1
102
RTVSPropertyOp0
 70
     1
102
RTVSPropertyOp1
 70
     1
102
RTVSPropertyOp2
 70
     1
102
RTVSPropertyOp3
 70
     1
102
RTVSPropertyOp4
 70
     1
102
RTVSPropertyOp5
 70
     1
102
RTVSPropertyOp6
 70
     1
102
RTVSPropertyOp7
 70
     1
102
RTVSPropertyOp8
 70
     1
102
RTVSPropertyOp9
 70
     1
102
RTVSPropertyOp10
 70
     1
102
RTVSPropertyOp11
 70
     1
102
RTVSPropertyOp12
 70
     1
102
RTVSPropertyOp13
 70
     1
102
RTVSPropertyOp14
 70
     1
102
RTVSPropertyOp15
 70
     1
102
RTVSPropertyOp16
 70
     1
102
RTVSPropertyOp17
 70
     1
102
RTVSPropertyOp18
 70
     1
102
RTVSPropertyOp19
 70
     1
102
RTVSPropertyOp20
 70
     1
102
RTVSPropertyOp21
 70
     1
102
RTVSPropertyOp22
 70
     1
102
RTVSPropertyOp23
 70
     1
102
RTVSPropertyOp24
 70
     1
102
RTVSPropertyOp25
 70
     1
102
RTVSPropertyOp26
 70
     1
102
RTVSPropertyOp27
 70
     1
102
RTVSPropertyOp28
 70
     1
102
RTVSPropertyOp29
 70
     1
102
RTVSPropertyOp30
 70
     1
102
RTVSPropertyOp31
 70
     1
102
RTVSPropertyOp32
 70
     1
  0
ENDSEC
  0
EOF
