  0
SECTION
  2
HEADER
  9
$ACADVER
  1
AC1021
  9
$ACADMAINTVER
 70
    25
  9
$DWGCODEPAGE
  3
ANSI_932
  9
$INSBASE
 10
0.0
 20
0.0
 30
0.0
  9
$EXTMIN
 10
260.5218070489829
 20
188.9929908976904
 30
0.0
  9
$EXTMAX
 10
5753.410839307056
 20
3972.379483752952
 30
0.0
  9
$LIMMIN
 10
0.0
 20
0.0
  9
$LIMMAX
 10
297.0
 20
210.0
  9
$ORTHOMODE
 70
     0
  9
$REGENMODE
 70
     1
  9
$FILLMODE
 70
     1
  9
$QTEXTMODE
 70
     0
  9
$MIRRTEXT
 70
     1
  9
$LTSCALE
 40
5.0
  9
$ATTMODE
 70
     1
  9
$TEXTSIZE
 40
80.0
  9
$TRACEWID
 40
0.05
  9
$TEXTSTYLE
  7
Standard
  9
$CLAYER
  8
0
  9
$CELTYPE
  6
ByLayer
  9
$CECOLOR
 62
   256
  9
$CELTSCALE
 40
1.0
  9
$DISPSILH
 70
     0
  9
$DIMSCALE
 40
1.0
  9
$DIMASZ
 40
1.5
  9
$DIMEXO
 40
2.0
  9
$DIMDLI
 40
10.0
  9
$DIMRND
 40
0.0
  9
$DIMDLE
 40
0.0
  9
$DIMEXE
 40
1.0
  9
$DIMTP
 40
0.0
  9
$DIMTM
 40
0.0
  9
$DIMTXT
 40
4.0
  9
$DIMCEN
 40
0.09
  9
$DIMTSZ
 40
0.0
  9
$DIMTOL
 70
     0
  9
$DIMLIM
 70
     0
  9
$DIMTIH
 70
     0
  9
$DIMTOH
 70
     0
  9
$DIMSE1
 70
     0
  9
$DIMSE2
 70
     0
  9
$DIMTAD
 70
     3
  9
$DIMZIN
 70
     8
  9
$DIMBLK
  1

  9
$DIMASO
 70
     1
  9
$DIMSHO
 70
     1
  9
$DIMPOST
  1

  9
$DIMAPOST
  1

  9
$DIMALT
 70
     0
  9
$DIMALTD
 70
     2
  9
$DIMALTF
 40
25.4
  9
$DIMLFAC
 40
1.0
  9
$DIMTOFL
 70
     1
  9
$DIMTVP
 40
0.7
  9
$DIMTIX
 70
     0
  9
$DIMSOXD
 70
     0
  9
$DIMSAH
 70
     0
  9
$DIMBLK1
  1

  9
$DIMBLK2
  1

  9
$DIMSTYLE
  2
Standard
  9
$DIMCLRD
 70
     0
  9
$DIMCLRE
 70
     0
  9
$DIMCLRT
 70
     0
  9
$DIMTFAC
 40
0.5
  9
$DIMGAP
 40
0.09
  9
$DIMJUST
 70
     0
  9
$DIMSD1
 70
     0
  9
$DIMSD2
 70
     0
  9
$DIMTOLJ
 70
     1
  9
$DIMTZIN
 70
     8
  9
$DIMALTZ
 70
     0
  9
$DIMALTTZ
 70
     0
  9
$DIMUPT
 70
     1
  9
$DIMDEC
 70
     2
  9
$DIMTDEC
 70
     4
  9
$DIMALTU
 70
     2
  9
$DIMALTTD
 70
     2
  9
$DIMTXSTY
  7
Standard
  9
$DIMAUNIT
 70
     0
  9
$DIMADEC
 70
     0
  9
$DIMALTRND
 40
0.0
  9
$DIMAZIN
 70
     0
  9
$DIMDSEP
 70
    46
  9
$DIMATFIT
 70
     2
  9
$DIMFRAC
 70
     0
  9
$DIMLDRBLK
  1

  9
$DIMLUNIT
 70
     2
  9
$DIMLWD
 70
    -2
  9
$DIMLWE
 70
    -2
  9
$DIMTMOVE
 70
     2
  9
$DIMFXL
 40
1.0
  9
$DIMFXLON
 70
     0
  9
$DIMJOGANG
 40
0.7853981633974483
  9
$DIMTFILL
 70
     0
  9
$DIMTFILLCLR
 70
     0
  9
$DIMARCSYM
 70
     0
  9
$DIMLTYPE
  6

  9
$DIMLTEX1
  6

  9
$DIMLTEX2
  6

  9
$LUNITS
 70
     2
  9
$LUPREC
 70
     4
  9
$SKETCHINC
 40
0.1
  9
$FILLETRAD
 40
0.5
  9
$AUNITS
 70
     0
  9
$AUPREC
 70
     0
  9
$MENU
  1
.
  9
$ELEVATION
 40
0.0
  9
$PELEVATION
 40
0.0
  9
$THICKNESS
 40
0.0
  9
$LIMCHECK
 70
     0
  9
$CHAMFERA
 40
0.5
  9
$CHAMFERB
 40
0.5
  9
$CHAMFERC
 40
1.0
  9
$CHAMFERD
 40
0.0
  9
$SKPOLY
 70
     0
  9
$TDCREATE
 40
2459392.014768519
  9
$TDUCREATE
 40
2459391.639768519
  9
$TDUPDATE
 40
2459391.63977412
  9
$TDUUPDATE
 40
2459391.26477412
  9
$TDINDWG
 40
0.0000000116
  9
$TDUSRTIMER
 40
0.0000000116
  9
$USRTIMER
 70
     1
  9
$ANGBASE
 50
0.0
  9
$ANGDIR
 70
     0
  9
$PDMODE
 70
     0
  9
$PDSIZE
 40
0.0
  9
$PLINEWID
 40
0.0
  9
$SPLFRAME
 70
     0
  9
$SPLINETYPE
 70
     6
  9
$SPLINESEGS
 70
     8
  9
$HANDSEED
  5
3CE
  9
$SURFTAB1
 70
     6
  9
$SURFTAB2
 70
     6
  9
$SURFTYPE
 70
     6
  9
$SURFU
 70
     6
  9
$SURFV
 70
     6
  9
$UCSBASE
  2

  9
$UCSNAME
  2

  9
$UCSORG
 10
0.0
 20
0.0
 30
0.0
  9
$UCSXDIR
 10
1.0
 20
0.0
 30
0.0
  9
$UCSYDIR
 10
0.0
 20
1.0
 30
0.0
  9
$UCSORTHOREF
  2

  9
$UCSORTHOVIEW
 70
     0
  9
$UCSORGTOP
 10
0.0
 20
0.0
 30
0.0
  9
$UCSORGBOTTOM
 10
0.0
 20
0.0
 30
0.0
  9
$UCSORGLEFT
 10
0.0
 20
0.0
 30
0.0
  9
$UCSORGRIGHT
 10
0.0
 20
0.0
 30
0.0
  9
$UCSORGFRONT
 10
0.0
 20
0.0
 30
0.0
  9
$UCSORGBACK
 10
0.0
 20
0.0
 30
0.0
  9
$PUCSBASE
  2

  9
$PUCSNAME
  2

  9
$PUCSORG
 10
0.0
 20
0.0
 30
0.0
  9
$PUCSXDIR
 10
1.0
 20
0.0
 30
0.0
  9
$PUCSYDIR
 10
0.0
 20
1.0
 30
0.0
  9
$PUCSORTHOREF
  2

  9
$PUCSORTHOVIEW
 70
     0
  9
$PUCSORGTOP
 10
0.0
 20
0.0
 30
0.0
  9
$PUCSORGBOTTOM
 10
0.0
 20
0.0
 30
0.0
  9
$PUCSORGLEFT
 10
0.0
 20
0.0
 30
0.0
  9
$PUCSORGRIGHT
 10
0.0
 20
0.0
 30
0.0
  9
$PUCSORGFRONT
 10
0.0
 20
0.0
 30
0.0
  9
$PUCSORGBACK
 10
0.0
 20
0.0
 30
0.0
  9
$USERI1
 70
     0
  9
$USERI2
 70
     0
  9
$USERI3
 70
     0
  9
$USERI4
 70
     0
  9
$USERI5
 70
     0
  9
$USERR1
 40
0.0
  9
$USERR2
 40
0.0
  9
$USERR3
 40
0.0
  9
$USERR4
 40
0.0
  9
$USERR5
 40
0.0
  9
$WORLDVIEW
 70
     1
  9
$SHADEDGE
 70
     3
  9
$SHADEDIF
 70
    70
  9
$TILEMODE
 70
     1
  9
$MAXACTVP
 70
    64
  9
$PINSBASE
 10
0.0
 20
0.0
 30
0.0
  9
$PLIMCHECK
 70
     0
  9
$PEXTMIN
 10
0.0
 20
0.0
 30
0.0
  9
$PEXTMAX
 10
297.0
 20
210.0
 30
0.0
  9
$PLIMMIN
 10
0.0
 20
0.0
  9
$PLIMMAX
 10
297.0
 20
210.0
  9
$UNITMODE
 70
     0
  9
$VISRETAIN
 70
     1
  9
$PLINEGEN
 70
     0
  9
$PSLTSCALE
 70
     1
  9
$TREEDEPTH
 70
  3020
  9
$CMLSTYLE
  2
Standard
  9
$CMLJUST
 70
     0
  9
$CMLSCALE
 40
1.0
  9
$PROXYGRAPHICS
 70
     1
  9
$MEASUREMENT
 70
     1
  9
$CELWEIGHT
370
    -1
  9
$ENDCAPS
280
     0
  9
$JOINSTYLE
280
     0
  9
$LWDISPLAY
290
     0
  9
$INSUNITS
 70
     4
  9
$HYPERLINKBASE
  1

  9
$STYLESHEET
  1

  9
$XEDIT
290
     1
  9
$CEPSNTYPE
380
     0
  9
$PSTYLEMODE
290
     1
  9
$FINGERPRINTGUID
  2
{A4B490C6-E820-473F-9D79-C712E2DFE006}
  9
$VERSIONGUID
  2
{FAEB1C32-E019-11D5-929B-00C0DF256EC4}
  9
$EXTNAMES
290
     1
  9
$PSVPSCALE
 40
0.0
  9
$OLESTARTUP
290
     0
  9
$SORTENTS
280
   127
  9
$INDEXCTL
280
     0
  9
$HIDETEXT
280
     1
  9
$XCLIPFRAME
290
     0
  9
$HALOGAP
280
     0
  9
$OBSCOLOR
 70
   257
  9
$OBSLTYPE
280
     0
  9
$INTERSECTIONDISPLAY
280
     0
  9
$INTERSECTIONCOLOR
 70
   257
  9
$DIMASSOC
280
     1
  9
$PROJECTNAME
  1

  9
$CAMERADISPLAY
290
     0
  9
$LENSLENGTH
 40
50.0
  9
$CAMERAHEIGHT
 40
0.0
  9
$STEPSPERSEC
 40
2.0
  9
$STEPSIZE
 40
6.0
  9
$3DDWFPREC
 40
2.0
  9
$PSOLWIDTH
 40
0.25
  9
$PSOLHEIGHT
 40
4.0
  9
$LOFTANG1
 40
1.570796326794897
  9
$LOFTANG2
 40
1.570796326794897
  9
$LOFTMAG1
 40
0.0
  9
$LOFTMAG2
 40
0.0
  9
$LOFTPARAM
 70
     7
  9
$LOFTNORMALS
280
     1
  9
$LATITUDE
 40
37.795
  9
$LONGITUDE
 40
-122.394
  9
$NORTHDIRECTION
 40
0.0
  9
$TIMEZONE
 70
 -8000
  9
$LIGHTGLYPHDISPLAY
280
     1
  9
$TILEMODELIGHTSYNCH
280
     1
  9
$SOLIDHIST
280
     1
  9
$SHOWHIST
280
     1
  9
$DWFFRAME
280
     2
  9
$DGNFRAME
280
     2
  9
$REALWORLDSCALE
290
     1
  9
$INTERFERECOLOR
 62
   256
  9
$CSHADOW
280
     0
  9
$SHADOWPLANELOCATION
 40
0.0
  0
ENDSEC
  0
SECTION
  2
CLASSES
  0
CLASS
  1
ACDBDICTIONARYWDFLT
  2
AcDbDictionaryWithDefault
  3
ObjectDBX Classes
 90
        0
 91
        4
280
     0
281
     0
  0
CLASS
  1
VISUALSTYLE
  2
AcDbVisualStyle
  3
ObjectDBX Classes
 90
     4095
 91
        4
280
     0
281
     0
  0
CLASS
  1
MATERIAL
  2
AcDbMaterial
  3
ObjectDBX Classes
 90
     1153
 91
        4
280
     0
281
     0
  0
ENDSEC
  0
SECTION
  2
TABLES
  0
TABLE
  2
VPORT
  5
8
330
0
100
AcDbSymbolTable
 70
     1
  0
VPORT
  5
29
330
8
100
AcDbSymbolTableRecord
100
AcDbViewportTableRecord
  2
*Active
 70
     0
 10
0.0
 20
0.0
 11
1.0
 21
1.0
 12
10.42990654205607
 22
4.5
 13
0.0
 23
0.0
 14
0.5
 24
0.5
 15
0.5
 25
0.5
 16
0.0
 26
0.0
 36
1.0
 17
0.0
 27
0.0
 37
0.0
 40
9.0
 41
1.972972972850329
 42
50.0
 43
0.0
 44
0.0
 50
0.0
 51
0.0
 71
     0
 72
   100
 73
     1
 74
     3
 75
     0
 76
     0
 77
     0
 78
     0
281
     0
 65
     1
110
0.0
120
0.0
130
0.0
111
1.0
121
0.0
131
0.0
112
0.0
122
1.0
132
0.0
 79
     0
146
0.0
 60
     3
 61
     5
292
     1
282
     1
141
0.0
142
0.0
 63
   250
  0
ENDTAB
  0
TABLE
  2
LTYPE
  5
5
330
0
100
AcDbSymbolTable
 70
     9
  0
LTYPE
  5
14
330
5
100
AcDbSymbolTableRecord
100
AcDbLinetypeTableRecord
  2
ByBlock
 70
     0
  3

 72
    65
 73
     0
 40
0.0
  0
LTYPE
  5
15
330
5
100
AcDbSymbolTableRecord
100
AcDbLinetypeTableRecord
  2
ByLayer
 70
     0
  3

 72
    65
 73
     0
 40
0.0
  0
LTYPE
  5
16
330
5
100
AcDbSymbolTableRecord
100
AcDbLinetypeTableRecord
  2
Continuous
 70
     0
  3
Solid line
 72
    65
 73
     0
 40
0.0
  0
LTYPE
  5
8E
330
5
100
AcDbSymbolTableRecord
100
AcDbLinetypeTableRecord
  2
DOT
 70
     0
  3
DOT
 72
    65
 73
     2
 40
4.0
 49
6.0
 74
     0
 49
-2.0
 74
     0
  0
LTYPE
  5
8F
330
5
100
AcDbSymbolTableRecord
100
AcDbLinetypeTableRecord
  2
HIDDEN
 70
     0
  3
HIDDEN
 72
    65
 73
     2
 40
4.2
 49
8.4
 74
     0
 49
-4.2
 74
     0
  0
LTYPE
  5
90
330
5
100
AcDbSymbolTableRecord
100
AcDbLinetypeTableRecord
  2
DASHDOT
 70
     0
  3
DASHDOT
 72
    65
 73
     4
 40
14.5
 49
30.0
 74
     0
 49
-9.0
 74
     0
 49
2.5
 74
     0
 49
-9.0
 74
     0
  0
LTYPE
  5
91
330
5
100
AcDbSymbolTableRecord
100
AcDbLinetypeTableRecord
  2
PHANTOM
 70
     0
  3
PHANTOM
 72
    65
 73
     6
 40
12.0
 49
30.0
 74
     0
 49
-9.0
 74
     0
 49
2.5
 74
     0
 49
-5.0
 74
     0
 49
2.5
 74
     0
 49
-9.0
 74
     0
  0
LTYPE
  5
92
330
5
100
AcDbSymbolTableRecord
100
AcDbLinetypeTableRecord
  2
ACAD_ISO14W100
 70
     0
  3
ACAD_ISO14W100
 72
    65
 73
     8
 40
1.5
 49
12.0
 74
     0
 49
-3.0
 74
     0
 49
0.5
 74
     0
 49
-3.0
 74
     0
 49
0.5
 74
     0
 49
-3.0
 74
     0
 49
0.5
 74
     0
 49
-3.0
 74
     0
  0
LTYPE
  5
93
330
5
100
AcDbSymbolTableRecord
100
AcDbLinetypeTableRecord
  2
ACAD_ISO06W100
 70
     0
  3
ACAD_ISO06W100
 72
    65
 73
     8
 40
13.5
 49
24.0
 74
     0
 49
-3.0
 74
     0
 49
0.5
 74
     0
 49
-3.0
 74
     0
 49
0.5
 74
     0
 49
-3.0
 74
     0
 49
0.5
 74
     0
 49
-3.0
 74
     0
  0
LTYPE
  5
94
330
5
100
AcDbSymbolTableRecord
100
AcDbLinetypeTableRecord
  2
ACAD_ISO11W100
 70
     0
  3
ACAD_ISO11W100
 72
    65
 73
     6
 40
15.5
 49
12.0
 74
     0
 49
-3.0
 74
     0
 49
12.0
 74
     0
 49
-3.0
 74
     0
 49
0.5
 74
     0
 49
-3.0
 74
     0
  0
LTYPE
  5
95
330
5
100
AcDbSymbolTableRecord
100
AcDbLinetypeTableRecord
  2
ACAD_ISO13W100
 70
     0
  3
ACAD_ISO13W100
 72
    65
 73
     8
 40
13.0
 49
12.0
 74
     0
 49
-3.0
 74
     0
 49
12.0
 74
     0
 49
-3.0
 74
     0
 49
0.5
 74
     0
 49
-3.0
 74
     0
 49
0.5
 74
     0
 49
-3.0
 74
     0
  0
ENDTAB
  0
TABLE
  2
LAYER
  5
2
330
0
100
AcDbSymbolTable
 70
    26
  0
LAYER
  5
10
330
2
100
AcDbSymbolTableRecord
100
AcDbLayerTableRecord
  2
0
 70
     0
 62
     7
  6
Continuous
370
    -3
390
F
347
3E
  0
LAYER
  5
96
330
2
100
AcDbSymbolTableRecord
100
AcDbLayerTableRecord
  2
1
 70
     0
 62
     7
  6
Continuous
370
     9
390
F
347
3E
  0
LAYER
  5
97
330
2
100
AcDbSymbolTableRecord
100
AcDbLayerTableRecord
  2
2
 70
     0
 62
     4
  6
Continuous
370
     9
390
F
347
3E
  0
LAYER
  5
98
330
2
100
AcDbSymbolTableRecord
100
AcDbLayerTableRecord
  2
3
 70
     0
 62
     3
  6
Continuous
370
     9
390
F
347
3E
  0
LAYER
  5
99
330
2
100
AcDbSymbolTableRecord
100
AcDbLayerTableRecord
  2
4
 70
     0
 62
     6
  6
Continuous
370
     9
390
F
347
3E
  0
LAYER
  5
9A
330
2
100
AcDbSymbolTableRecord
100
AcDbLayerTableRecord
  2
5
 70
     0
 62
    94
  6
Continuous
370
     9
390
F
347
3E
  0
LAYER
  5
9B
330
2
100
AcDbSymbolTableRecord
100
AcDbLayerTableRecord
  2
6
 70
     0
 62
   142
  6
Continuous
370
     9
390
F
347
3E
  0
LAYER
  5
9C
330
2
100
AcDbSymbolTableRecord
100
AcDbLayerTableRecord
  2
7
 70
     0
 62
    11
  6
Continuous
370
     9
390
F
347
3E
  0
LAYER
  5
9D
330
2
100
AcDbSymbolTableRecord
100
AcDbLayerTableRecord
  2
8
 70
     0
 62
    30
  6
Continuous
370
     9
390
F
347
3E
  0
LAYER
  5
9E
330
2
100
AcDbSymbolTableRecord
100
AcDbLayerTableRecord
  2
9
 70
     0
 62
   190
  6
Continuous
370
     9
390
F
347
3E
  0
LAYER
  5
9F
330
2
100
AcDbSymbolTableRecord
100
AcDbLayerTableRecord
  2
10
 70
     0
 62
   251
  6
Continuous
370
     9
390
F
347
3E
  0
LAYER
  5
A0
330
2
100
AcDbSymbolTableRecord
100
AcDbLayerTableRecord
  2
11
 70
     0
 62
   131
  6
Continuous
370
     9
390
F
347
3E
  0
LAYER
  5
A1
330
2
100
AcDbSymbolTableRecord
100
AcDbLayerTableRecord
  2
12
 70
     0
 62
    13
  6
Continuous
370
     9
390
F
347
3E
  0
LAYER
  5
A2
330
2
100
AcDbSymbolTableRecord
100
AcDbLayerTableRecord
  2
13
 70
     0
 62
    91
  6
Continuous
370
     9
390
F
347
3E
  0
LAYER
  5
A3
330
2
100
AcDbSymbolTableRecord
100
AcDbLayerTableRecord
  2
14
 70
     0
 62
   211
  6
Continuous
370
     9
390
F
347
3E
  0
LAYER
  5
A4
330
2
100
AcDbSymbolTableRecord
100
AcDbLayerTableRecord
  2
15
 70
     0
 62
   174
  6
Continuous
370
     9
390
F
347
3E
  0
LAYER
  5
A5
330
2
100
AcDbSymbolTableRecord
100
AcDbLayerTableRecord
  2
16
 70
     0
 62
     7
  6
Continuous
370
     9
390
F
347
3E
  0
LAYER
  5
A6
330
2
100
AcDbSymbolTableRecord
100
AcDbLayerTableRecord
  2
17
 70
     0
 62
   150
  6
Continuous
370
     9
390
F
347
3E
  0
LAYER
  5
A7
330
2
100
AcDbSymbolTableRecord
100
AcDbLayerTableRecord
  2
18
 70
     0
 62
    72
  6
Continuous
370
     9
390
F
347
3E
  0
LAYER
  5
A8
330
2
100
AcDbSymbolTableRecord
100
AcDbLayerTableRecord
  2
19
 70
     0
 62
   212
  6
Continuous
370
     9
390
F
347
3E
  0
LAYER
  5
A9
330
2
100
AcDbSymbolTableRecord
100
AcDbLayerTableRecord
  2
20
 70
     0
 62
    52
  6
Continuous
370
     9
390
F
347
3E
  0
LAYER
  5
AA
330
2
100
AcDbSymbolTableRecord
100
AcDbLayerTableRecord
  2
21
 70
     0
 62
   171
  6
Continuous
370
     9
390
F
347
3E
  0
LAYER
  5
AB
330
2
100
AcDbSymbolTableRecord
100
AcDbLayerTableRecord
  2
22
 70
     0
 62
    21
  6
Continuous
370
     9
390
F
347
3E
  0
LAYER
  5
AC
330
2
100
AcDbSymbolTableRecord
100
AcDbLayerTableRecord
  2
23
 70
     0
 62
   136
  6
Continuous
370
     9
390
F
347
3E
  0
LAYER
  5
AD
330
2
100
AcDbSymbolTableRecord
100
AcDbLayerTableRecord
  2
24
 70
     0
 62
   132
  6
Continuous
370
     9
390
F
347
3E
  0
LAYER
  5
AE
330
2
100
AcDbSymbolTableRecord
100
AcDbLayerTableRecord
  2
25
 70
     0
 62
   193
  6
Continuous
370
     9
390
F
347
3E
  0
ENDTAB
  0
TABLE
  2
STYLE
  5
3
330
0
100
AcDbSymbolTable
 70
     3
  0
STYLE
  5
11
330
3
100
AcDbSymbolTableRecord
100
AcDbTextStyleTableRecord
  2
Standard
 70
     0
 40
0.0
 41
1.0
 50
0.0
 71
     0
 42
80.0
  3
txt
  4
bigfont
  0
STYLE
  5
41
330
3
100
AcDbSymbolTableRecord
100
AcDbTextStyleTableRecord
  2
T_STANDARD
 70
     4
 40
10.0
 41
1.0
 50
0.0
 71
     0
 42
10.0
  3
txt
  4
bigfont
  0
STYLE
  5
153
330
3
100
AcDbSymbolTableRecord
100
AcDbTextStyleTableRecord
  2
ＭＳ ゴシック
 70
     0
 40
0.0
 41
1.0
 50
0.0
 71
     0
 42
0.0
  3

  4

1001
ACAD
1000
ＭＳ ゴシック
1071
      256
  0
ENDTAB
  0
TABLE
  2
VIEW
  5
6
330
0
100
AcDbSymbolTable
 70
     0
  0
ENDTAB
  0
TABLE
  2
UCS
  5
7
330
0
100
AcDbSymbolTable
 70
     0
  0
ENDTAB
  0
TABLE
  2
APPID
  5
9
330
0
100
AcDbSymbolTable
 70
     2
  0
APPID
  5
12
330
9
100
AcDbSymbolTableRecord
100
AcDbRegAppTableRecord
  2
ACAD
 70
     0
  0
APPID
  5
40
330
9
100
AcDbSymbolTableRecord
100
AcDbRegAppTableRecord
  2
ODA
 70
     0
  0
ENDTAB
  0
TABLE
  2
DIMSTYLE
  5
A
330
0
100
AcDbSymbolTable
 70
     1
100
AcDbDimStyleTable
  0
DIMSTYLE
105
27
102
{ACAD_REACTORS
330
15D
330
167
330
170
330
179
330
183
330
18D
330
197
330
247
330
251
330
29F
330
2A9
330
2B2
330
2BB
330
301
330
317
330
320
330
328
330
332
330
382
330
38B
102
}
330
A
100
AcDbSymbolTableRecord
100
AcDbDimStyleTableRecord
  2
Standard
 70
     0
178
     0
340
11
  0
ENDTAB
  0
TABLE
  2
BLOCK_RECORD
  5
1
330
0
100
AcDbSymbolTable
 70
    49
  0
BLOCK_RECORD
  5
1F
330
1
100
AcDbSymbolTableRecord
100
AcDbBlockTableRecord
  2
*Model_Space
340
22
 70
     0
280
     1
281
     0
  0
BLOCK_RECORD
  5
1B
330
1
100
AcDbSymbolTableRecord
100
AcDbBlockTableRecord
  2
*Paper_Space
340
1E
 70
     0
280
     1
281
     0
  0
BLOCK_RECORD
  5
23
330
1
100
AcDbSymbolTableRecord
100
AcDbBlockTableRecord
  2
*Paper_Space0
340
26
 70
     0
280
     1
281
     0
  0
BLOCK_RECORD
  5
42
330
1
100
AcDbSymbolTableRecord
100
AcDbBlockTableRecord
  2
_ORIGIN
340
0
 70
     0
280
     1
281
     0
  0
BLOCK_RECORD
  5
47
330
1
100
AcDbSymbolTableRecord
100
AcDbBlockTableRecord
  2
_DOTBLANK
340
0
 70
     0
280
     1
281
     0
  0
BLOCK_RECORD
  5
4C
330
1
100
AcDbSymbolTableRecord
100
AcDbBlockTableRecord
  2
_DOT
340
0
 70
     0
280
     1
281
     0
  0
BLOCK_RECORD
  5
51
330
1
100
AcDbSymbolTableRecord
100
AcDbBlockTableRecord
  2
_OPEN
340
0
102
{BLKREFS
331
15B
331
15C
331
165
331
166
331
16E
331
16F
331
177
331
178
331
181
331
182
331
18B
331
18C
331
195
331
196
331
198
331
19F
331
1B1
331
207
331
245
331
246
331
24F
331
250
331
28D
331
29D
331
29E
331
2A7
331
2A8
331
2B0
331
2B1
331
2B9
331
2BA
331
2FF
331
300
331
316
331
31E
331
31F
331
327
331
330
331
331
331
339
331
353
331
35B
331
36A
331
380
331
381
331
389
331
38A
102
}
 70
     0
280
     1
281
     0
  0
BLOCK_RECORD
  5
57
330
1
100
AcDbSymbolTableRecord
100
AcDbBlockTableRecord
  2
_CLOSED
340
0
 70
     0
280
     1
281
     0
  0
BLOCK_RECORD
  5
5E
330
1
100
AcDbSymbolTableRecord
100
AcDbBlockTableRecord
  2
_CLOSEDBLANK
340
0
 70
     0
280
     1
281
     0
  0
BLOCK_RECORD
  5
64
330
1
100
AcDbSymbolTableRecord
100
AcDbBlockTableRecord
  2
_ARROWFILLED
340
0
 70
     0
280
     1
281
     0
  0
BLOCK_RECORD
  5
68
330
1
100
AcDbSymbolTableRecord
100
AcDbBlockTableRecord
  2
_BOXBLANK
340
0
 70
     0
280
     1
281
     0
  0
BLOCK_RECORD
  5
70
330
1
100
AcDbSymbolTableRecord
100
AcDbBlockTableRecord
  2
_BOXFILLED
340
0
 70
     0
280
     1
281
     0
  0
BLOCK_RECORD
  5
75
330
1
100
AcDbSymbolTableRecord
100
AcDbBlockTableRecord
  2
_INTEGRAL
340
0
 70
     0
280
     1
281
     0
  0
BLOCK_RECORD
  5
7A
330
1
100
AcDbSymbolTableRecord
100
AcDbBlockTableRecord
  2
_OBLIQUE
340
0
 70
     0
280
     1
281
     0
  0
BLOCK_RECORD
  5
7E
330
1
100
AcDbSymbolTableRecord
100
AcDbBlockTableRecord
  2
_NONE
340
0
 70
     0
280
     1
281
     0
  0
BLOCK_RECORD
  5
81
330
1
100
AcDbSymbolTableRecord
100
AcDbBlockTableRecord
  2
MARK_OPEN
340
0
 70
     0
280
     1
281
     0
  0
BLOCK_RECORD
  5
86
330
1
100
AcDbSymbolTableRecord
100
AcDbBlockTableRecord
  2
MARK_ORIGIN
340
0
 70
     0
280
     1
281
     0
  0
BLOCK_RECORD
  5
8A
330
1
100
AcDbSymbolTableRecord
100
AcDbBlockTableRecord
  2
MARK_DOT
340
0
 70
     0
280
     1
281
     0
  0
BLOCK_RECORD
  5
B0
330
1
100
AcDbSymbolTableRecord
100
AcDbBlockTableRecord
  2
*G16
340
0
102
{BLKREFS
331
B7
102
}
 70
     0
280
     1
281
     0
  0
BLOCK_RECORD
  5
F2
330
1
100
AcDbSymbolTableRecord
100
AcDbBlockTableRecord
  2
*G17
340
0
102
{BLKREFS
331
145
102
}
 70
     0
280
     1
281
     0
  0
BLOCK_RECORD
  5
F5
330
1
100
AcDbSymbolTableRecord
100
AcDbBlockTableRecord
  2
*G18
340
0
102
{BLKREFS
331
144
102
}
 70
     0
280
     1
281
     0
  0
BLOCK_RECORD
  5
14C
330
1
100
AcDbSymbolTableRecord
100
AcDbBlockTableRecord
  2
*G19
340
0
102
{BLKREFS
331
152
102
}
 70
     0
280
     1
281
     0
  0
BLOCK_RECORD
  5
154
330
1
100
AcDbSymbolTableRecord
100
AcDbBlockTableRecord
  2
Dim1
340
0
 70
     0
280
     1
281
     0
  0
BLOCK_RECORD
  5
15E
330
1
100
AcDbSymbolTableRecord
100
AcDbBlockTableRecord
  2
Dim2
340
0
 70
     0
280
     1
281
     0
  0
BLOCK_RECORD
  5
168
330
1
100
AcDbSymbolTableRecord
100
AcDbBlockTableRecord
  2
Dim3
340
0
 70
     0
280
     1
281
     0
  0
BLOCK_RECORD
  5
171
330
1
100
AcDbSymbolTableRecord
100
AcDbBlockTableRecord
  2
Dim4
340
0
 70
     0
280
     1
281
     0
  0
BLOCK_RECORD
  5
17A
330
1
100
AcDbSymbolTableRecord
100
AcDbBlockTableRecord
  2
Dim5
340
0
 70
     0
280
     1
281
     0
  0
BLOCK_RECORD
  5
184
330
1
100
AcDbSymbolTableRecord
100
AcDbBlockTableRecord
  2
Dim6
340
0
 70
     0
280
     1
281
     0
  0
BLOCK_RECORD
  5
18E
330
1
100
AcDbSymbolTableRecord
100
AcDbBlockTableRecord
  2
Dim7
340
0
 70
     0
280
     1
281
     0
  0
BLOCK_RECORD
  5
1C0
330
1
100
AcDbSymbolTableRecord
100
AcDbBlockTableRecord
  2
*G27
340
0
102
{BLKREFS
331
1C9
102
}
 70
     0
280
     1
281
     0
  0
BLOCK_RECORD
  5
1CF
330
1
100
AcDbSymbolTableRecord
100
AcDbBlockTableRecord
  2
*G28
340
0
102
{BLKREFS
331
1D8
102
}
 70
     0
280
     1
281
     0
  0
BLOCK_RECORD
  5
200
330
1
100
AcDbSymbolTableRecord
100
AcDbBlockTableRecord
  2
*G29
340
0
102
{BLKREFS
331
206
102
}
 70
     0
280
     1
281
     0
  0
BLOCK_RECORD
  5
20F
330
1
100
AcDbSymbolTableRecord
100
AcDbBlockTableRecord
  2
*G30
340
0
102
{BLKREFS
331
218
102
}
 70
     0
280
     1
281
     0
  0
BLOCK_RECORD
  5
219
330
1
100
AcDbSymbolTableRecord
100
AcDbBlockTableRecord
  2
*G31
340
0
102
{BLKREFS
331
222
102
}
 70
     0
280
     1
281
     0
  0
BLOCK_RECORD
  5
225
330
1
100
AcDbSymbolTableRecord
100
AcDbBlockTableRecord
  2
*G32
340
0
102
{BLKREFS
331
22C
102
}
 70
     0
280
     1
281
     0
  0
BLOCK_RECORD
  5
23E
330
1
100
AcDbSymbolTableRecord
100
AcDbBlockTableRecord
  2
Dim8
340
0
 70
     0
280
     1
281
     0
  0
BLOCK_RECORD
  5
248
330
1
100
AcDbSymbolTableRecord
100
AcDbBlockTableRecord
  2
Dim9
340
0
 70
     0
280
     1
281
     0
  0
BLOCK_RECORD
  5
257
330
1
100
AcDbSymbolTableRecord
100
AcDbBlockTableRecord
  2
*G35
340
0
102
{BLKREFS
331
271
102
}
 70
     0
280
     1
281
     0
  0
BLOCK_RECORD
  5
272
330
1
100
AcDbSymbolTableRecord
100
AcDbBlockTableRecord
  2
*G36
340
0
102
{BLKREFS
331
28C
102
}
 70
     0
280
     1
281
     0
  0
BLOCK_RECORD
  5
296
330
1
100
AcDbSymbolTableRecord
100
AcDbBlockTableRecord
  2
Dim10
340
0
 70
     0
280
     1
281
     0
  0
BLOCK_RECORD
  5
2A0
330
1
100
AcDbSymbolTableRecord
100
AcDbBlockTableRecord
  2
Dim11
340
0
 70
     0
280
     1
281
     0
  0
BLOCK_RECORD
  5
2AA
330
1
100
AcDbSymbolTableRecord
100
AcDbBlockTableRecord
  2
Dim12
340
0
 70
     0
280
     1
281
     0
  0
BLOCK_RECORD
  5
2B3
330
1
100
AcDbSymbolTableRecord
100
AcDbBlockTableRecord
  2
Dim13
340
0
 70
     0
280
     1
281
     0
  0
BLOCK_RECORD
  5
2F8
330
1
100
AcDbSymbolTableRecord
100
AcDbBlockTableRecord
  2
Dim14
340
0
 70
     0
280
     1
281
     0
  0
BLOCK_RECORD
  5
303
330
1
100
AcDbSymbolTableRecord
100
AcDbBlockTableRecord
  2
*G42
340
0
102
{BLKREFS
331
30C
102
}
 70
     0
280
     1
281
     0
  0
BLOCK_RECORD
  5
30F
330
1
100
AcDbSymbolTableRecord
100
AcDbBlockTableRecord
  2
Dim15
340
0
 70
     0
280
     1
281
     0
  0
BLOCK_RECORD
  5
318
330
1
100
AcDbSymbolTableRecord
100
AcDbBlockTableRecord
  2
Dim16
340
0
 70
     0
280
     1
281
     0
  0
BLOCK_RECORD
  5
321
330
1
100
AcDbSymbolTableRecord
100
AcDbBlockTableRecord
  2
Dim17
340
0
 70
     0
280
     1
281
     0
  0
BLOCK_RECORD
  5
329
330
1
100
AcDbSymbolTableRecord
100
AcDbBlockTableRecord
  2
Dim18
340
0
 70
     0
280
     1
281
     0
  0
BLOCK_RECORD
  5
379
330
1
100
AcDbSymbolTableRecord
100
AcDbBlockTableRecord
  2
Dim19
340
0
 70
     0
280
     1
281
     0
  0
BLOCK_RECORD
  5
383
330
1
100
AcDbSymbolTableRecord
100
AcDbBlockTableRecord
  2
Dim20
340
0
 70
     0
280
     1
281
     0
  0
ENDTAB
  0
ENDSEC
  0
SECTION
  2
BLOCKS
  0
BLOCK
  5
20
330
1F
100
AcDbEntity
  8
0
100
AcDbBlockBegin
  2
*Model_Space
 70
     0
 10
0.0
 20
0.0
 30
0.0
  3
*Model_Space
  1

  0
ENDBLK
  5
21
330
1F
100
AcDbEntity
  8
0
100
AcDbBlockEnd
  0
BLOCK
  5
1C
330
1B
100
AcDbEntity
 67
     1
  8
0
100
AcDbBlockBegin
  2
*Paper_Space
 70
     0
 10
0.0
 20
0.0
 30
0.0
  3
*Paper_Space
  1

  0
ENDBLK
  5
1D
330
1B
100
AcDbEntity
 67
     1
  8
0
100
AcDbBlockEnd
  0
BLOCK
  5
24
330
23
100
AcDbEntity
  8
0
100
AcDbBlockBegin
  2
*Paper_Space0
 70
     0
 10
0.0
 20
0.0
 30
0.0
  3
*Paper_Space0
  1

  0
ENDBLK
  5
25
330
23
100
AcDbEntity
  8
0
100
AcDbBlockEnd
  0
BLOCK
  5
45
330
42
100
AcDbEntity
  8
0
100
AcDbBlockBegin
  2
_ORIGIN
 70
     0
 10
0.0
 20
0.0
 30
0.0
  3
_ORIGIN
  1

  0
CIRCLE
  5
43
330
42
100
AcDbEntity
  8
0
 62
     0
100
AcDbCircle
 10
0.0
 20
0.0
 30
0.0
 40
0.5
  0
LINE
  5
44
330
42
100
AcDbEntity
  8
0
 62
     0
100
AcDbLine
 10
0.0
 20
0.0
 30
0.0
 11
-1.0
 21
0.0
 31
0.0
  0
ENDBLK
  5
46
330
42
100
AcDbEntity
  8
0
100
AcDbBlockEnd
  0
BLOCK
  5
4A
330
47
100
AcDbEntity
  8
0
100
AcDbBlockBegin
  2
_DOTBLANK
 70
     0
 10
0.0
 20
0.0
 30
0.0
  3
_DOTBLANK
  1

  0
CIRCLE
  5
48
330
47
100
AcDbEntity
  8
0
 62
     0
100
AcDbCircle
 10
0.0
 20
0.0
 30
0.0
 40
0.5
  0
LINE
  5
49
330
47
100
AcDbEntity
  8
0
 62
     0
100
AcDbLine
 10
-0.5
 20
0.0
 30
0.0
 11
-1.0
 21
0.0
 31
0.0
  0
ENDBLK
  5
4B
330
47
100
AcDbEntity
  8
0
100
AcDbBlockEnd
  0
BLOCK
  5
4F
330
4C
100
AcDbEntity
  8
0
100
AcDbBlockBegin
  2
_DOT
 70
     0
 10
0.0
 20
0.0
 30
0.0
  3
_DOT
  1

  0
LWPOLYLINE
  5
4D
330
4C
100
AcDbEntity
  8
0
 62
     0
100
AcDbPolyline
 90
        2
 70
     1
 43
0.5
 10
-0.25
 20
0.0
 42
1.0
 10
0.25
 20
0.0
 42
1.0
  0
LINE
  5
4E
330
4C
100
AcDbEntity
  8
0
 62
     0
100
AcDbLine
 10
-0.5
 20
0.0
 30
0.0
 11
-1.0
 21
0.0
 31
0.0
  0
ENDBLK
  5
50
330
4C
100
AcDbEntity
  8
0
100
AcDbBlockEnd
  0
BLOCK
  5
55
330
51
100
AcDbEntity
  8
0
100
AcDbBlockBegin
  2
_OPEN
 70
     0
 10
0.0
 20
0.0
 30
0.0
  3
_OPEN
  1

  0
LINE
  5
52
330
51
100
AcDbEntity
  8
0
 62
     0
100
AcDbLine
 10
0.0
 20
0.0
 30
0.0
 11
-1.0
 21
0.1666666666666667
 31
0.0
  0
LINE
  5
53
330
51
100
AcDbEntity
  8
0
 62
     0
100
AcDbLine
 10
0.0
 20
0.0
 30
0.0
 11
-1.0
 21
-0.1666666666666667
 31
0.0
  0
LINE
  5
54
330
51
100
AcDbEntity
  8
0
 62
     0
100
AcDbLine
 10
0.0
 20
0.0
 30
0.0
 11
-1.0
 21
0.0
 31
0.0
  0
ENDBLK
  5
56
330
51
100
AcDbEntity
  8
0
100
AcDbBlockEnd
  0
BLOCK
  5
5C
330
57
100
AcDbEntity
  8
0
100
AcDbBlockBegin
  2
_CLOSED
 70
     0
 10
0.0
 20
0.0
 30
0.0
  3
_CLOSED
  1

  0
LINE
  5
58
330
57
100
AcDbEntity
  8
0
 62
     0
100
AcDbLine
 10
0.0
 20
0.0
 30
0.0
 11
-1.0
 21
0.1666666666666667
 31
0.0
  0
LINE
  5
59
330
57
100
AcDbEntity
  8
0
 62
     0
100
AcDbLine
 10
0.0
 20
0.0
 30
0.0
 11
-1.0
 21
-0.1666666666666667
 31
0.0
  0
LINE
  5
5A
330
57
100
AcDbEntity
  8
0
 62
     0
100
AcDbLine
 10
-1.0
 20
0.1666666666666667
 30
0.0
 11
-1.0
 21
-0.1666666666666667
 31
0.0
  0
LINE
  5
5B
330
57
100
AcDbEntity
  8
0
 62
     0
100
AcDbLine
 10
0.0
 20
0.0
 30
0.0
 11
-1.0
 21
0.0
 31
0.0
  0
ENDBLK
  5
5D
330
57
100
AcDbEntity
  8
0
100
AcDbBlockEnd
  0
BLOCK
  5
62
330
5E
100
AcDbEntity
  8
0
100
AcDbBlockBegin
  2
_CLOSEDBLANK
 70
     0
 10
0.0
 20
0.0
 30
0.0
  3
_CLOSEDBLANK
  1

  0
LINE
  5
5F
330
5E
100
AcDbEntity
  8
0
 62
     0
100
AcDbLine
 10
0.0
 20
0.0
 30
0.0
 11
-1.0
 21
0.1666666666666667
 31
0.0
  0
LINE
  5
60
330
5E
100
AcDbEntity
  8
0
 62
     0
100
AcDbLine
 10
0.0
 20
0.0
 30
0.0
 11
-1.0
 21
-0.1666666666666667
 31
0.0
  0
LINE
  5
61
330
5E
100
AcDbEntity
  8
0
 62
     0
100
AcDbLine
 10
-1.0
 20
0.1666666666666667
 30
0.0
 11
-1.0
 21
-0.1666666666666667
 31
0.0
  0
ENDBLK
  5
63
330
5E
100
AcDbEntity
  8
0
100
AcDbBlockEnd
  0
BLOCK
  5
66
330
64
100
AcDbEntity
  8
0
100
AcDbBlockBegin
  2
_ARROWFILLED
 70
     0
 10
0.0
 20
0.0
 30
0.0
  3
_ARROWFILLED
  1

  0
SOLID
  5
65
330
64
100
AcDbEntity
  8
0
 62
     0
100
AcDbTrace
 10
0.0
 20
0.0
 30
0.0
 11
-1.0
 21
-0.1666666666666667
 31
0.0
 12
-1.0
 22
0.1666666666666667
 32
0.0
 13
0.0
 23
0.0
 33
0.0
  0
ENDBLK
  5
67
330
64
100
AcDbEntity
  8
0
100
AcDbBlockEnd
  0
BLOCK
  5
6E
330
68
100
AcDbEntity
  8
0
100
AcDbBlockBegin
  2
_BOXBLANK
 70
     0
 10
0.0
 20
0.0
 30
0.0
  3
_BOXBLANK
  1

  0
LINE
  5
69
330
68
100
AcDbEntity
  8
0
 62
     0
100
AcDbLine
 10
-0.5
 20
-0.5
 30
0.0
 11
0.5
 21
-0.5
 31
0.0
  0
LINE
  5
6A
330
68
100
AcDbEntity
  8
0
 62
     0
100
AcDbLine
 10
0.5
 20
-0.5
 30
0.0
 11
0.5
 21
0.5
 31
0.0
  0
LINE
  5
6B
330
68
100
AcDbEntity
  8
0
 62
     0
100
AcDbLine
 10
0.5
 20
0.5
 30
0.0
 11
-0.5
 21
0.5
 31
0.0
  0
LINE
  5
6C
330
68
100
AcDbEntity
  8
0
 62
     0
100
AcDbLine
 10
-0.5
 20
0.5
 30
0.0
 11
-0.5
 21
-0.5
 31
0.0
  0
LINE
  5
6D
330
68
100
AcDbEntity
  8
0
 62
     0
100
AcDbLine
 10
-0.5
 20
0.0
 30
0.0
 11
-1.0
 21
0.0
 31
0.0
  0
ENDBLK
  5
6F
330
68
100
AcDbEntity
  8
0
100
AcDbBlockEnd
  0
BLOCK
  5
73
330
70
100
AcDbEntity
  8
0
100
AcDbBlockBegin
  2
_BOXFILLED
 70
     0
 10
0.0
 20
0.0
 30
0.0
  3
_BOXFILLED
  1

  0
SOLID
  5
71
330
70
100
AcDbEntity
  8
0
 62
     0
100
AcDbTrace
 10
-0.5
 20
0.5
 30
0.0
 11
0.5
 21
0.5
 31
0.0
 12
-0.5
 22
-0.5
 32
0.0
 13
0.5
 23
-0.5
 33
0.0
  0
LINE
  5
72
330
70
100
AcDbEntity
  8
0
 62
     0
100
AcDbLine
 10
-0.5
 20
0.0
 30
0.0
 11
-1.0
 21
0.0
 31
0.0
  0
ENDBLK
  5
74
330
70
100
AcDbEntity
  8
0
100
AcDbBlockEnd
  0
BLOCK
  5
78
330
75
100
AcDbEntity
  8
0
100
AcDbBlockBegin
  2
_INTEGRAL
 70
     0
 10
0.0
 20
0.0
 30
0.0
  3
_INTEGRAL
  1

  0
ARC
  5
76
330
75
100
AcDbEntity
  8
0
 62
     0
100
AcDbCircle
 10
0.444888
 20
-0.0913346
 30
0.0
 40
0.4541666
100
AcDbArc
 50
101.9999999999999
 51
167.9999999999998
  0
ARC
  5
77
330
75
100
AcDbEntity
  8
0
 62
     0
100
AcDbCircle
 10
-0.444888
 20
0.0913346
 30
0.0
 40
0.4541666
100
AcDbArc
 50
281.9999999999997
 51
347.9999999999997
  0
ENDBLK
  5
79
330
75
100
AcDbEntity
  8
0
100
AcDbBlockEnd
  0
BLOCK
  5
7C
330
7A
100
AcDbEntity
  8
0
100
AcDbBlockBegin
  2
_OBLIQUE
 70
     0
 10
0.0
 20
0.0
 30
0.0
  3
_OBLIQUE
  1

  0
LINE
  5
7B
330
7A
100
AcDbEntity
  8
0
 62
     0
100
AcDbLine
 10
-0.5
 20
-0.5
 30
0.0
 11
0.5
 21
0.5
 31
0.0
  0
ENDBLK
  5
7D
330
7A
100
AcDbEntity
  8
0
100
AcDbBlockEnd
  0
BLOCK
  5
7F
330
7E
100
AcDbEntity
  8
0
100
AcDbBlockBegin
  2
_NONE
 70
     0
 10
0.0
 20
0.0
 30
0.0
  3
_NONE
  1

  0
ENDBLK
  5
80
330
7E
100
AcDbEntity
  8
0
100
AcDbBlockEnd
  0
BLOCK
  5
84
330
81
100
AcDbEntity
  8
0
100
AcDbBlockBegin
  2
MARK_OPEN
 70
     0
 10
0.0
 20
0.0
 30
0.0
  3
MARK_OPEN
  1

  0
LINE
  5
82
330
81
100
AcDbEntity
  8
0
 62
     0
100
AcDbLine
 10
0.0
 20
0.0
 30
0.0
 11
-1.0
 21
0.1666666666666667
 31
0.0
  0
LINE
  5
83
330
81
100
AcDbEntity
  8
0
 62
     0
100
AcDbLine
 10
0.0
 20
0.0
 30
0.0
 11
-1.0
 21
-0.1666666666666667
 31
0.0
  0
ENDBLK
  5
85
330
81
100
AcDbEntity
  8
0
100
AcDbBlockEnd
  0
BLOCK
  5
88
330
86
100
AcDbEntity
  8
0
100
AcDbBlockBegin
  2
MARK_ORIGIN
 70
     0
 10
0.0
 20
0.0
 30
0.0
  3
MARK_ORIGIN
  1

  0
CIRCLE
  5
87
330
86
100
AcDbEntity
  8
0
 62
     0
100
AcDbCircle
 10
0.0
 20
0.0
 30
0.0
 40
0.5
  0
ENDBLK
  5
89
330
86
100
AcDbEntity
  8
0
100
AcDbBlockEnd
  0
BLOCK
  5
8C
330
8A
100
AcDbEntity
  8
0
100
AcDbBlockBegin
  2
MARK_DOT
 70
     0
 10
0.0
 20
0.0
 30
0.0
  3
MARK_DOT
  1

  0
LWPOLYLINE
  5
8B
330
8A
100
AcDbEntity
  8
0
 62
     0
100
AcDbPolyline
 90
        2
 70
     1
 43
0.5
 10
-0.25
 20
0.0
 42
1.0
 10
0.25
 20
0.0
 42
1.0
  0
ENDBLK
  5
8D
330
8A
100
AcDbEntity
  8
0
100
AcDbBlockEnd
  0
BLOCK
  5
B1
330
B0
100
AcDbEntity
  8
0
100
AcDbBlockBegin
  2
*G16
 70
     1
 10
0.0
 20
0.0
 30
0.0
  3
*G16
  1

  0
LINE
  5
B3
330
B0
100
AcDbEntity
  8
2
  6
Continuous
 62
     4
370
    20
100
AcDbLine
 10
2570.112173105012
 20
1055.623858965847
 30
0.0
 11
2570.112173105012
 21
1155.623858965847
 31
0.0
  0
LINE
  5
B4
330
B0
100
AcDbEntity
  8
2
  6
Continuous
 62
     4
370
    20
100
AcDbLine
 10
2570.112173105012
 20
1155.623858965847
 30
0.0
 11
3210.112173105013
 21
1155.623858965847
 31
0.0
  0
LINE
  5
B5
330
B0
100
AcDbEntity
  8
2
  6
Continuous
 62
     4
370
    20
100
AcDbLine
 10
3210.112173105013
 20
1155.623858965847
 30
0.0
 11
3210.112173105013
 21
1055.623858965847
 31
0.0
  0
LINE
  5
B6
330
B0
100
AcDbEntity
  8
2
  6
Continuous
 62
     4
370
    20
100
AcDbLine
 10
3210.112173105013
 20
1055.623858965847
 30
0.0
 11
2570.112173105012
 21
1055.623858965847
 31
0.0
  0
ENDBLK
  5
B2
330
B0
100
AcDbEntity
  8
0
100
AcDbBlockEnd
  0
BLOCK
  5
F3
330
F2
100
AcDbEntity
  8
0
100
AcDbBlockBegin
  2
*G17
 70
     1
 10
0.0
 20
0.0
 30
0.0
  3
*G17
  1

  0
INSERT
  5
144
330
F2
100
AcDbEntity
  8
1
100
AcDbBlockReference
  2
*G18
 10
0.0
 20
0.0
 30
0.0
  0
ENDBLK
  5
F4
330
F2
100
AcDbEntity
  8
0
100
AcDbBlockEnd
  0
BLOCK
  5
F6
330
F5
100
AcDbEntity
  8
0
100
AcDbBlockBegin
  2
*G18
 70
     1
 10
0.0
 20
0.0
 30
0.0
  3
*G18
  1

  0
LINE
  5
F8
330
F5
100
AcDbEntity
  8
2
  6
Continuous
 62
     4
370
    20
100
AcDbLine
 10
2677.703687161111
 20
1663.273737951509
 30
0.0
 11
2677.10368716111
 21
1663.273737951509
 31
0.0
  0
LINE
  5
F9
330
F5
100
AcDbEntity
  8
2
  6
Continuous
 62
     4
370
    20
100
AcDbLine
 10
2677.703687161111
 20
1665.273737951509
 30
0.0
 11
2677.203687161111
 21
1665.273737951509
 31
0.0
  0
LINE
  5
FA
330
F5
100
AcDbEntity
  8
2
  6
Continuous
 62
     4
370
    20
100
AcDbLine
 10
2677.203687161111
 20
1665.273737951509
 30
0.0
 11
2677.203687161111
 21
1663.973737951509
 31
0.0
  0
LINE
  5
FB
330
F5
100
AcDbEntity
  8
2
  6
Continuous
 62
     4
370
    20
100
AcDbLine
 10
2676.303687161109
 20
1665.273737951509
 30
0.0
 11
2677.203687161111
 21
1663.973737951509
 31
0.0
  0
LINE
  5
FC
330
F5
100
AcDbEntity
  8
2
  6
Continuous
 62
     4
370
    20
100
AcDbLine
 10
2676.303687161109
 20
1665.273737951509
 30
0.0
 11
2675.703687161111
 21
1665.273737951509
 31
0.0
  0
LINE
  5
FD
330
F5
100
AcDbEntity
  8
2
  6
Continuous
 62
     4
370
    20
100
AcDbLine
 10
2675.703687161111
 20
1665.273737951509
 30
0.0
 11
2675.703687161111
 21
1663.273737951509
 31
0.0
  0
LINE
  5
FE
330
F5
100
AcDbEntity
  8
2
  6
Continuous
 62
     4
370
    20
100
AcDbLine
 10
2675.703687161111
 20
1663.273737951509
 30
0.0
 11
2676.203687161111
 21
1663.273737951509
 31
0.0
  0
LINE
  5
FF
330
F5
100
AcDbEntity
  8
2
  6
Continuous
 62
     4
370
    20
100
AcDbLine
 10
2676.203687161111
 20
1663.273737951509
 30
0.0
 11
2676.203687161111
 21
1664.573737951509
 31
0.0
  0
LINE
  5
100
330
F5
100
AcDbEntity
  8
2
  6
Continuous
 62
     4
370
    20
100
AcDbLine
 10
2675.60368716111
 20
1663.273737951509
 30
0.0
 11
2675.60368716111
 21
1663.773737951509
 31
0.0
  0
LINE
  5
101
330
F5
100
AcDbEntity
  8
2
  6
Continuous
 62
     4
370
    20
100
AcDbLine
 10
2673.803687161109
 20
1664.473737951509
 30
0.0
 11
2673.803687161109
 21
1664.673737951509
 31
0.0
  0
LINE
  5
102
330
F5
100
AcDbEntity
  8
2
  6
Continuous
 62
     4
370
    20
100
AcDbLine
 10
2673.303687161109
 20
1664.473737951509
 30
0.0
 11
2673.803687161109
 21
1664.473737951509
 31
0.0
  0
LINE
  5
103
330
F5
100
AcDbEntity
  8
2
  6
Continuous
 62
     4
370
    20
100
AcDbLine
 10
2673.303687161109
 20
1664.573737951509
 30
0.0
 11
2673.303687161109
 21
1664.473737951509
 31
0.0
  0
LINE
  5
104
330
F5
100
AcDbEntity
  8
2
  6
Continuous
 62
     4
370
    20
100
AcDbLine
 10
2672.50368716111
 20
1664.773737951509
 30
0.0
 11
2673.10368716111
 21
1664.773737951509
 31
0.0
  0
LINE
  5
105
330
F5
100
AcDbEntity
  8
2
  6
Continuous
 62
     4
370
    20
100
AcDbLine
 10
2672.303687161109
 20
1663.973737951509
 30
0.0
 11
2672.303687161109
 21
1664.573737951509
 31
0.0
  0
LINE
  5
106
330
F5
100
AcDbEntity
  8
2
  6
Continuous
 62
     4
370
    20
100
AcDbLine
 10
2673.10368716111
 20
1663.773737951509
 30
0.0
 11
2672.50368716111
 21
1663.773737951509
 31
0.0
  0
LINE
  5
107
330
F5
100
AcDbEntity
  8
2
  6
Continuous
 62
     4
370
    20
100
AcDbLine
 10
2672.803687161109
 20
1663.973737951509
 30
0.0
 11
2673.303687161109
 21
1663.973737951509
 31
0.0
  0
LINE
  5
108
330
F5
100
AcDbEntity
  8
2
  6
Continuous
 62
     4
370
    20
100
AcDbLine
 10
2672.803687161109
 20
1664.373737951508
 30
0.0
 11
2672.803687161109
 21
1663.973737951509
 31
0.0
  0
LINE
  5
109
330
F5
100
AcDbEntity
  8
2
  6
Continuous
 62
     4
370
    20
100
AcDbLine
 10
2673.90368716111
 20
1663.273737951509
 30
0.0
 11
2675.60368716111
 21
1663.273737951509
 31
0.0
  0
ARC
  5
10A
330
F5
100
AcDbEntity
  8
2
  6
Continuous
 62
     4
370
    20
100
AcDbCircle
 10
2673.203687161111
 20
1663.873737951508
 30
0.0
 40
0.5999999999999943
100
AcDbArc
 50
269.9999999999998
 51
0.0
  0
ARC
  5
10B
330
F5
100
AcDbEntity
  8
2
  6
Continuous
 62
     4
370
    20
100
AcDbCircle
 10
2672.40368716111
 20
1663.873737951508
 30
0.0
 40
0.5999999999999943
100
AcDbArc
 50
179.9999999999998
 51
269.9999999999998
  0
ARC
  5
10C
330
F5
100
AcDbEntity
  8
2
  6
Continuous
 62
     4
370
    20
100
AcDbCircle
 10
2673.10368716111
 20
1664.573737951509
 30
0.0
 40
0.2000000000000028
100
AcDbArc
 50
0.0
 51
89.99999999999991
  0
ARC
  5
10D
330
F5
100
AcDbEntity
  8
2
  6
Continuous
 62
     4
370
    20
100
AcDbCircle
 10
2673.203687161111
 20
1664.673737951509
 30
0.0
 40
0.5999999999999943
100
AcDbArc
 50
0.0
 51
89.99999999999991
  0
LINE
  5
10E
330
F5
100
AcDbEntity
  8
2
  6
Continuous
 62
     4
370
    20
100
AcDbLine
 10
2673.90368716111
 20
1665.273737951509
 30
0.0
 11
2673.90368716111
 21
1663.273737951509
 31
0.0
  0
LINE
  5
10F
330
F5
100
AcDbEntity
  8
2
  6
Continuous
 62
     4
370
    20
100
AcDbLine
 10
2675.60368716111
 20
1665.273737951509
 30
0.0
 11
2673.90368716111
 21
1665.273737951509
 31
0.0
  0
LINE
  5
110
330
F5
100
AcDbEntity
  8
2
  6
Continuous
 62
     4
370
    20
100
AcDbLine
 10
2677.703687161111
 20
1665.273737951509
 30
0.0
 11
2677.703687161111
 21
1663.273737951509
 31
0.0
  0
LINE
  5
111
330
F5
100
AcDbEntity
  8
2
  6
Continuous
 62
     4
370
    20
100
AcDbLine
 10
2670.303687161109
 20
1664.373737951508
 30
0.0
 11
2671.00368716111
 21
1665.273737951509
 31
0.0
  0
LINE
  5
112
330
F5
100
AcDbEntity
  8
2
  6
Continuous
 62
     4
370
    20
100
AcDbLine
 10
2671.203687161111
 20
1663.273737951509
 30
0.0
 11
2671.703687161111
 21
1663.273737951509
 31
0.0
  0
LINE
  5
113
330
F5
100
AcDbEntity
  8
2
  6
Continuous
 62
     4
370
    20
100
AcDbLine
 10
2671.00368716111
 20
1665.273737951509
 30
0.0
 11
2670.40368716111
 21
1665.273737951509
 31
0.0
  0
LINE
  5
114
330
F5
100
AcDbEntity
  8
2
  6
Continuous
 62
     4
370
    20
100
AcDbLine
 10
2670.40368716111
 20
1665.273737951509
 30
0.0
 11
2669.703687161111
 21
1664.373737951508
 31
0.0
  0
ARC
  5
115
330
F5
100
AcDbEntity
  8
2
  6
Continuous
 62
     4
370
    20
100
AcDbCircle
 10
2672.50368716111
 20
1663.973737951509
 30
0.0
 40
0.2000000000000028
100
AcDbArc
 50
179.9999999999998
 51
269.9999999999998
  0
LINE
  5
116
330
F5
100
AcDbEntity
  8
2
  6
Continuous
 62
     4
370
    20
100
AcDbLine
 10
2671.703687161111
 20
1665.273737951509
 30
0.0
 11
2671.203687161111
 21
1665.273737951509
 31
0.0
  0
LINE
  5
117
330
F5
100
AcDbEntity
  8
2
  6
Continuous
 62
     4
370
    20
100
AcDbLine
 10
2670.50368716111
 20
1663.273737951509
 30
0.0
 11
2671.10368716111
 21
1663.273737951509
 31
0.0
  0
ARC
  5
118
330
F5
100
AcDbEntity
  8
2
  6
Continuous
 62
     4
370
    20
100
AcDbCircle
 10
2672.40368716111
 20
1664.673737951509
 30
0.0
 40
0.5999999999999943
100
AcDbArc
 50
89.99999999999991
 51
179.9999999999998
  0
LINE
  5
119
330
F5
100
AcDbEntity
  8
2
  6
Continuous
 62
     4
370
    20
100
AcDbLine
 10
2671.10368716111
 20
1663.273737951509
 30
0.0
 11
2670.303687161109
 21
1664.373737951508
 31
0.0
  0
LINE
  5
11A
330
F5
100
AcDbEntity
  8
2
  6
Continuous
 62
     4
370
    20
100
AcDbLine
 10
2671.703687161111
 20
1663.273737951509
 30
0.0
 11
2671.703687161111
 21
1665.273737951509
 31
0.0
  0
LINE
  5
11B
330
F5
100
AcDbEntity
  8
2
  6
Continuous
 62
     4
370
    20
100
AcDbLine
 10
2669.703687161111
 20
1665.273737951509
 30
0.0
 11
2669.203687161111
 21
1665.273737951509
 31
0.0
  0
LINE
  5
11C
330
F5
100
AcDbEntity
  8
2
  6
Continuous
 62
     4
370
    20
100
AcDbLine
 10
2669.703687161111
 20
1664.373737951508
 30
0.0
 11
2670.50368716111
 21
1663.273737951509
 31
0.0
  0
LINE
  5
11D
330
F5
100
AcDbEntity
  8
2
  6
Continuous
 62
     4
370
    20
100
AcDbLine
 10
2668.515687161111
 20
1663.573737951509
 30
0.0
 11
2668.623687161111
 21
1663.273737951509
 31
0.0
  0
LINE
  5
11E
330
F5
100
AcDbEntity
  8
2
  6
Continuous
 62
     4
370
    20
100
AcDbLine
 10
2674.40368716111
 20
1663.773737951509
 30
0.0
 11
2674.40368716111
 21
1664.073737951509
 31
0.0
  0
LINE
  5
11F
330
F5
100
AcDbEntity
  8
2
  6
Continuous
 62
     4
370
    20
100
AcDbLine
 10
2675.60368716111
 20
1663.773737951509
 30
0.0
 11
2674.40368716111
 21
1663.773737951509
 31
0.0
  0
LINE
  5
120
330
F5
100
AcDbEntity
  8
2
  6
Continuous
 62
     4
370
    20
100
AcDbLine
 10
2668.10368716111
 20
1664.718182951509
 30
0.0
 11
2668.34288716111
 21
1664.053737951509
 31
0.0
  0
LINE
  5
121
330
F5
100
AcDbEntity
  8
2
  6
Continuous
 62
     4
370
    20
100
AcDbLine
 10
2669.123687161111
 20
1663.273737951509
 30
0.0
 11
2668.623687161111
 21
1663.273737951509
 31
0.0
  0
LINE
  5
122
330
F5
100
AcDbEntity
  8
2
  6
Continuous
 62
     4
370
    20
100
AcDbLine
 10
2668.10368716111
 20
1664.718182951509
 30
0.0
 11
2667.86448716111
 21
1664.053737951509
 31
0.0
  0
ARC
  5
123
330
F5
100
AcDbEntity
  8
2
  6
Continuous
 62
     4
370
    20
100
AcDbCircle
 10
2673.10368716111
 20
1663.973737951509
 30
0.0
 40
0.2000000000000028
100
AcDbArc
 50
269.9999999999998
 51
0.0
  0
LINE
  5
124
330
F5
100
AcDbEntity
  8
2
  6
Continuous
 62
     4
370
    20
100
AcDbLine
 10
2669.703687161111
 20
1663.273737951509
 30
0.0
 11
2669.703687161111
 21
1665.273737951509
 31
0.0
  0
LINE
  5
125
330
F5
100
AcDbEntity
  8
2
  6
Continuous
 62
     4
370
    20
100
AcDbLine
 10
2667.08368716111
 20
1663.273737951509
 30
0.0
 11
2667.58368716111
 21
1663.273737951509
 31
0.0
  0
LINE
  5
126
330
F5
100
AcDbEntity
  8
2
  6
Continuous
 62
     4
370
    20
100
AcDbLine
 10
2667.803687161109
 20
1665.273737951509
 30
0.0
 11
2668.40368716111
 21
1665.273737951509
 31
0.0
  0
LINE
  5
127
330
F5
100
AcDbEntity
  8
2
  6
Continuous
 62
     4
370
    20
100
AcDbLine
 10
2668.40368716111
 20
1665.273737951509
 30
0.0
 11
2669.123687161111
 21
1663.273737951509
 31
0.0
  0
LINE
  5
128
330
F5
100
AcDbEntity
  8
2
  6
Continuous
 62
     4
370
    20
100
AcDbLine
 10
2667.803687161109
 20
1665.273737951509
 30
0.0
 11
2667.08368716111
 21
1663.273737951509
 31
0.0
  0
LINE
  5
129
330
F5
100
AcDbEntity
  8
2
  6
Continuous
 62
     4
370
    20
100
AcDbLine
 10
2671.203687161111
 20
1665.273737951509
 30
0.0
 11
2671.203687161111
 21
1663.273737951509
 31
0.0
  0
LINE
  5
12A
330
F5
100
AcDbEntity
  8
2
  6
Continuous
 62
     4
370
    20
100
AcDbLine
 10
2676.203687161111
 20
1664.573737951509
 30
0.0
 11
2677.10368716111
 21
1663.273737951509
 31
0.0
  0
LINE
  5
12B
330
F5
100
AcDbEntity
  8
2
  6
Continuous
 62
     4
370
    20
100
AcDbLine
 10
2667.86448716111
 20
1664.053737951509
 30
0.0
 11
2668.34288716111
 21
1664.053737951509
 31
0.0
  0
LINE
  5
12C
330
F5
100
AcDbEntity
  8
2
  6
Continuous
 62
     4
370
    20
100
AcDbLine
 10
2667.69168716111
 20
1663.573737951509
 30
0.0
 11
2667.58368716111
 21
1663.273737951509
 31
0.0
  0
LINE
  5
12D
330
F5
100
AcDbEntity
  8
2
  6
Continuous
 62
     4
370
    20
100
AcDbLine
 10
2668.515687161111
 20
1663.573737951509
 30
0.0
 11
2667.69168716111
 21
1663.573737951509
 31
0.0
  0
LINE
  5
12E
330
F5
100
AcDbEntity
  8
2
  6
Continuous
 62
     4
370
    20
100
AcDbLine
 10
2673.203687161111
 20
1665.273737951509
 30
0.0
 11
2672.40368716111
 21
1665.273737951509
 31
0.0
  0
LINE
  5
12F
330
F5
100
AcDbEntity
  8
2
  6
Continuous
 62
     4
370
    20
100
AcDbLine
 10
2667.60368716111
 20
1664.833737951509
 30
0.0
 11
2667.60368716111
 21
1665.273737951509
 31
0.0
  0
LINE
  5
130
330
F5
100
AcDbEntity
  8
2
  6
Continuous
 62
     4
370
    20
100
AcDbLine
 10
2666.90368716111
 20
1664.833737951509
 30
0.0
 11
2667.60368716111
 21
1664.833737951509
 31
0.0
  0
LINE
  5
131
330
F5
100
AcDbEntity
  8
2
  6
Continuous
 62
     4
370
    20
100
AcDbLine
 10
2666.90368716111
 20
1663.273737951509
 30
0.0
 11
2666.90368716111
 21
1664.833737951509
 31
0.0
  0
LINE
  5
132
330
F5
100
AcDbEntity
  8
2
  6
Continuous
 62
     4
370
    20
100
AcDbLine
 10
2666.40368716111
 20
1663.273737951509
 30
0.0
 11
2666.90368716111
 21
1663.273737951509
 31
0.0
  0
LINE
  5
133
330
F5
100
AcDbEntity
  8
2
  6
Continuous
 62
     4
370
    20
100
AcDbLine
 10
2666.40368716111
 20
1664.833737951509
 30
0.0
 11
2666.40368716111
 21
1663.273737951509
 31
0.0
  0
LINE
  5
134
330
F5
100
AcDbEntity
  8
2
  6
Continuous
 62
     4
370
    20
100
AcDbLine
 10
2665.703687161111
 20
1664.833737951509
 30
0.0
 11
2666.40368716111
 21
1664.833737951509
 31
0.0
  0
LINE
  5
135
330
F5
100
AcDbEntity
  8
2
  6
Continuous
 62
     4
370
    20
100
AcDbLine
 10
2665.703687161111
 20
1665.273737951509
 30
0.0
 11
2665.703687161111
 21
1664.833737951509
 31
0.0
  0
LINE
  5
136
330
F5
100
AcDbEntity
  8
2
  6
Continuous
 62
     4
370
    20
100
AcDbLine
 10
2667.60368716111
 20
1665.273737951509
 30
0.0
 11
2665.703687161111
 21
1665.273737951509
 31
0.0
  0
LINE
  5
137
330
F5
100
AcDbEntity
  8
2
  6
Continuous
 62
     4
370
    20
100
AcDbLine
 10
2669.203687161111
 20
1663.273737951509
 30
0.0
 11
2669.703687161111
 21
1663.273737951509
 31
0.0
  0
LINE
  5
138
330
F5
100
AcDbEntity
  8
2
  6
Continuous
 62
     4
370
    20
100
AcDbLine
 10
2669.203687161111
 20
1665.273737951509
 30
0.0
 11
2669.203687161111
 21
1663.273737951509
 31
0.0
  0
LINE
  5
139
330
F5
100
AcDbEntity
  8
2
  6
Continuous
 62
     4
370
    20
100
AcDbLine
 10
2671.803687161109
 20
1664.673737951509
 30
0.0
 11
2671.803687161109
 21
1663.873737951508
 31
0.0
  0
ARC
  5
13A
330
F5
100
AcDbEntity
  8
2
  6
Continuous
 62
     4
370
    20
100
AcDbCircle
 10
2672.50368716111
 20
1664.573737951509
 30
0.0
 40
0.2000000000000028
100
AcDbArc
 50
89.99999999999991
 51
179.9999999999998
  0
LINE
  5
13B
330
F5
100
AcDbEntity
  8
2
  6
Continuous
 62
     4
370
    20
100
AcDbLine
 10
2672.40368716111
 20
1663.273737951509
 30
0.0
 11
2673.203687161111
 21
1663.273737951509
 31
0.0
  0
LINE
  5
13C
330
F5
100
AcDbEntity
  8
2
  6
Continuous
 62
     4
370
    20
100
AcDbLine
 10
2674.40368716111
 20
1664.073737951509
 30
0.0
 11
2675.50368716111
 21
1664.073737951509
 31
0.0
  0
LINE
  5
13D
330
F5
100
AcDbEntity
  8
2
  6
Continuous
 62
     4
370
    20
100
AcDbLine
 10
2675.50368716111
 20
1664.073737951509
 30
0.0
 11
2675.50368716111
 21
1664.523737951509
 31
0.0
  0
LINE
  5
13E
330
F5
100
AcDbEntity
  8
2
  6
Continuous
 62
     4
370
    20
100
AcDbLine
 10
2675.50368716111
 20
1664.523737951509
 30
0.0
 11
2674.40368716111
 21
1664.523737951509
 31
0.0
  0
LINE
  5
13F
330
F5
100
AcDbEntity
  8
2
  6
Continuous
 62
     4
370
    20
100
AcDbLine
 10
2674.40368716111
 20
1664.523737951509
 30
0.0
 11
2674.40368716111
 21
1664.833737951509
 31
0.0
  0
LINE
  5
140
330
F5
100
AcDbEntity
  8
2
  6
Continuous
 62
     4
370
    20
100
AcDbLine
 10
2674.40368716111
 20
1664.833737951509
 30
0.0
 11
2675.60368716111
 21
1664.833737951509
 31
0.0
  0
LINE
  5
141
330
F5
100
AcDbEntity
  8
2
  6
Continuous
 62
     4
370
    20
100
AcDbLine
 10
2675.60368716111
 20
1664.833737951509
 30
0.0
 11
2675.60368716111
 21
1665.273737951509
 31
0.0
  0
LINE
  5
142
330
F5
100
AcDbEntity
  8
2
  6
Continuous
 62
     4
370
    20
100
AcDbLine
 10
2673.803687161109
 20
1663.873737951508
 30
0.0
 11
2673.803687161109
 21
1664.373737951508
 31
0.0
  0
LINE
  5
143
330
F5
100
AcDbEntity
  8
2
  6
Continuous
 62
     4
370
    20
100
AcDbLine
 10
2673.803687161109
 20
1664.373737951508
 30
0.0
 11
2672.803687161109
 21
1664.373737951508
 31
0.0
  0
ENDBLK
  5
F7
330
F5
100
AcDbEntity
  8
0
100
AcDbBlockEnd
  0
BLOCK
  5
14D
330
14C
100
AcDbEntity
  8
0
100
AcDbBlockBegin
  2
*G19
 70
     1
 10
0.0
 20
0.0
 30
0.0
  3
*G19
  1

  0
ARC
  5
14F
330
14C
100
AcDbEntity
  8
2
  6
Continuous
 62
     4
370
    20
100
AcDbCircle
 10
2421.349065902114
 20
2404.646767390409
 30
0.0
 40
114.8468443292827
100
AcDbArc
 50
263.3522709877911
 51
355.8445966718891
  0
LINE
  5
150
330
14C
100
AcDbEntity
  8
2
  6
Continuous
 62
     4
370
    20
100
AcDbLine
 10
2408.053864810562
 20
2290.572075717235
 30
0.0
 11
2438.385336513737
 21
2276.428278178932
 31
0.0
  0
LINE
  5
151
330
14C
100
AcDbEntity
  8
2
  6
Continuous
 62
     4
370
    20
100
AcDbLine
 10
2408.053864810562
 20
2290.572075717235
 30
0.0
 11
2438.897974992396
 21
2301.79841372585
 31
0.0
  0
ENDBLK
  5
14E
330
14C
100
AcDbEntity
  8
0
100
AcDbBlockEnd
  0
BLOCK
  5
155
330
154
100
AcDbEntity
  8
0
100
AcDbBlockBegin
  2
Dim1
 70
     0
 10
0.0
 20
0.0
 30
0.0
  3
Dim1
  1

  0
LINE
  5
157
330
154
100
AcDbEntity
  8
2
  6
Continuous
 62
     4
370
    20
100
AcDbLine
 10
2570.112173105012
 20
1015.623858965847
 30
0.0
 11
2570.112173105012
 21
662.6347921935308
 31
0.0
  0
LINE
  5
158
330
154
100
AcDbEntity
  8
2
  6
Continuous
 62
     4
370
    20
100
AcDbLine
 10
3210.112173105013
 20
1015.623858965847
 30
0.0
 11
3210.112173105011
 21
662.6347921935308
 31
0.0
  0
LINE
  5
159
330
154
100
AcDbEntity
  8
2
  6
Continuous
 62
     4
370
    20
100
AcDbLine
 10
2570.112173105012
 20
682.6347921935308
 30
0.0
 11
3210.112173105011
 21
682.6347921935308
 31
0.0
  0
MTEXT
  5
15A
330
154
100
AcDbEntity
  8
2
  6
Continuous
 62
     4
370
     9
100
AcDbMText
 10
2890.112173105011
 20
682.6347921935308
 30
0.0
 40
60.0
 41
756.5999999999999
 46
60.0
 71
     8
 72
     1
  1
640
  7
ＭＳ ゴシック
 73
     1
 44
1.0
1001
ACAD
1000
ACAD_MTEXT_DEFINED_HEIGHT_BEGIN
1070
    46
1040
60.0
1000
ACAD_MTEXT_DEFINED_HEIGHT_END
  0
INSERT
  5
15B
330
154
100
AcDbEntity
  8
2
  6
Continuous
 62
     4
370
    20
100
AcDbBlockReference
  2
_OPEN
 10
2570.112173105012
 20
682.6347921935308
 30
0.0
 41
20.0
 42
20.0
 43
20.0
 50
179.9999999999998
  0
INSERT
  5
15C
330
154
100
AcDbEntity
  8
2
  6
Continuous
 62
     4
370
    20
100
AcDbBlockReference
  2
_OPEN
 10
3210.112173105011
 20
682.6347921935308
 30
0.0
 41
20.0
 42
20.0
 43
20.0
 50
359.9999999999997
  0
ENDBLK
  5
156
330
154
100
AcDbEntity
  8
0
100
AcDbBlockEnd
  0
BLOCK
  5
15F
330
15E
100
AcDbEntity
  8
0
100
AcDbBlockBegin
  2
Dim2
 70
     0
 10
0.0
 20
0.0
 30
0.0
  3
Dim2
  1

  0
LINE
  5
161
330
15E
100
AcDbEntity
  8
2
  6
Continuous
 62
     4
370
    20
100
AcDbLine
 10
2570.112173105012
 20
1015.623858965847
 30
0.0
 11
2570.112173105012
 21
774.4112392993197
 31
0.0
  0
LINE
  5
162
330
15E
100
AcDbEntity
  8
2
  6
Continuous
 62
     4
370
    20
100
AcDbLine
 10
2640.112173105012
 20
1005.931873651455
 30
0.0
 11
2640.112173105012
 21
774.4112392993197
 31
0.0
  0
LINE
  5
163
330
15E
100
AcDbEntity
  8
2
  6
Continuous
 62
     4
370
    20
100
AcDbLine
 10
2570.112173105012
 20
794.4112392993197
 30
0.0
 11
2640.112173105012
 21
794.4112392993197
 31
0.0
  0
MTEXT
  5
164
330
15E
100
AcDbEntity
  8
2
  6
Continuous
 62
     4
370
     9
100
AcDbMText
 10
2605.112173105012
 20
794.4112392993197
 30
0.0
 40
60.0
 41
453.3000000000001
 46
60.0
 71
     8
 72
     1
  1
70
  7
ＭＳ ゴシック
 73
     1
 44
1.0
1001
ACAD
1000
ACAD_MTEXT_DEFINED_HEIGHT_BEGIN
1070
    46
1040
60.0
1000
ACAD_MTEXT_DEFINED_HEIGHT_END
  0
INSERT
  5
165
330
15E
100
AcDbEntity
  8
2
  6
Continuous
 62
     4
370
    20
100
AcDbBlockReference
  2
_OPEN
 10
2570.112173105012
 20
794.4112392993197
 30
0.0
 41
20.0
 42
20.0
 43
20.0
 50
179.9999999999998
  0
INSERT
  5
166
330
15E
100
AcDbEntity
  8
2
  6
Continuous
 62
     4
370
    20
100
AcDbBlockReference
  2
_OPEN
 10
2640.112173105012
 20
794.4112392993197
 30
0.0
 41
20.0
 42
20.0
 43
20.0
 50
359.9999999999997
  0
ENDBLK
  5
160
330
15E
100
AcDbEntity
  8
0
100
AcDbBlockEnd
  0
BLOCK
  5
169
330
168
100
AcDbEntity
  8
0
100
AcDbBlockBegin
  2
Dim3
 70
     0
 10
0.0
 20
0.0
 30
0.0
  3
Dim3
  1

  0
LINE
  5
16B
330
168
100
AcDbEntity
  8
2
  6
Continuous
 62
     4
370
    20
100
AcDbLine
 10
3140.112173105013
 20
1008.220955600344
 30
0.0
 11
3140.112173105013
 21
774.4112392993197
 31
0.0
  0
LINE
  5
16C
330
168
100
AcDbEntity
  8
2
  6
Continuous
 62
     4
370
    20
100
AcDbLine
 10
2640.112173105012
 20
794.4112392993197
 30
0.0
 11
3140.112173105013
 21
794.4112392993197
 31
0.0
  0
MTEXT
  5
16D
330
168
100
AcDbEntity
  8
2
  6
Continuous
 62
     4
370
     9
100
AcDbMText
 10
2890.112173105011
 20
794.4112392993197
 30
0.0
 40
60.0
 41
706.8000000000001
 46
60.0
 71
     8
 72
     1
  1
500
  7
ＭＳ ゴシック
 73
     1
 44
1.0
1001
ACAD
1000
ACAD_MTEXT_DEFINED_HEIGHT_BEGIN
1070
    46
1040
60.0
1000
ACAD_MTEXT_DEFINED_HEIGHT_END
  0
INSERT
  5
16E
330
168
100
AcDbEntity
  8
2
  6
Continuous
 62
     4
370
    20
100
AcDbBlockReference
  2
_OPEN
 10
2640.112173105012
 20
794.4112392993197
 30
0.0
 41
20.0
 42
20.0
 43
20.0
 50
179.9999999999998
  0
INSERT
  5
16F
330
168
100
AcDbEntity
  8
2
  6
Continuous
 62
     4
370
    20
100
AcDbBlockReference
  2
_OPEN
 10
3140.112173105013
 20
794.4112392993197
 30
0.0
 41
20.0
 42
20.0
 43
20.0
 50
359.9999999999997
  0
ENDBLK
  5
16A
330
168
100
AcDbEntity
  8
0
100
AcDbBlockEnd
  0
BLOCK
  5
172
330
171
100
AcDbEntity
  8
0
100
AcDbBlockBegin
  2
Dim4
 70
     0
 10
0.0
 20
0.0
 30
0.0
  3
Dim4
  1

  0
LINE
  5
174
330
171
100
AcDbEntity
  8
2
  6
Continuous
 62
     4
370
    20
100
AcDbLine
 10
3210.112173105013
 20
1015.623858965847
 30
0.0
 11
3210.112173105013
 21
774.4112392993197
 31
0.0
  0
LINE
  5
175
330
171
100
AcDbEntity
  8
2
  6
Continuous
 62
     4
370
    20
100
AcDbLine
 10
3140.112173105013
 20
794.4112392993197
 30
0.0
 11
3210.112173105013
 21
794.4112392993197
 31
0.0
  0
MTEXT
  5
176
330
171
100
AcDbEntity
  8
2
  6
Continuous
 62
     4
370
     9
100
AcDbMText
 10
3175.112173105014
 20
794.4112392993197
 30
0.0
 40
60.0
 41
453.3000000000001
 46
60.0
 71
     8
 72
     1
  1
70
  7
ＭＳ ゴシック
 73
     1
 44
1.0
1001
ACAD
1000
ACAD_MTEXT_DEFINED_HEIGHT_BEGIN
1070
    46
1040
60.0
1000
ACAD_MTEXT_DEFINED_HEIGHT_END
  0
INSERT
  5
177
330
171
100
AcDbEntity
  8
2
  6
Continuous
 62
     4
370
    20
100
AcDbBlockReference
  2
_OPEN
 10
3140.112173105013
 20
794.4112392993197
 30
0.0
 41
20.0
 42
20.0
 43
20.0
 50
179.9999999999998
  0
INSERT
  5
178
330
171
100
AcDbEntity
  8
2
  6
Continuous
 62
     4
370
    20
100
AcDbBlockReference
  2
_OPEN
 10
3210.112173105013
 20
794.4112392993197
 30
0.0
 41
20.0
 42
20.0
 43
20.0
 50
359.9999999999997
  0
ENDBLK
  5
173
330
171
100
AcDbEntity
  8
0
100
AcDbBlockEnd
  0
BLOCK
  5
17B
330
17A
100
AcDbEntity
  8
0
100
AcDbBlockBegin
  2
Dim5
 70
     0
 10
0.0
 20
0.0
 30
0.0
  3
Dim5
  1

  0
LINE
  5
17D
330
17A
100
AcDbEntity
  8
2
  6
Continuous
 62
     4
370
    20
100
AcDbLine
 10
2565.112173105012
 20
2595.623858965848
 30
0.0
 11
2565.112173105013
 21
2849.750306300868
 31
0.0
  0
LINE
  5
17E
330
17A
100
AcDbEntity
  8
2
  6
Continuous
 62
     4
370
    20
100
AcDbLine
 10
3215.112173105013
 20
2595.623858965848
 30
0.0
 11
3215.112173105013
 21
2849.750306300868
 31
0.0
  0
LINE
  5
17F
330
17A
100
AcDbEntity
  8
2
  6
Continuous
 62
     4
370
    20
100
AcDbLine
 10
2565.112173105013
 20
2829.750306300868
 30
0.0
 11
3215.112173105013
 21
2829.750306300868
 31
0.0
  0
MTEXT
  5
180
330
17A
100
AcDbEntity
  8
2
  6
Continuous
 62
     4
370
     9
100
AcDbMText
 10
2890.112173105013
 20
2829.750306300868
 30
0.0
 40
60.0
 41
756.5999999999999
 46
60.0
 71
     8
 72
     1
  1
650
  7
ＭＳ ゴシック
 73
     1
 44
1.0
1001
ACAD
1000
ACAD_MTEXT_DEFINED_HEIGHT_BEGIN
1070
    46
1040
60.0
1000
ACAD_MTEXT_DEFINED_HEIGHT_END
  0
INSERT
  5
181
330
17A
100
AcDbEntity
  8
2
  6
Continuous
 62
     4
370
    20
100
AcDbBlockReference
  2
_OPEN
 10
2565.112173105013
 20
2829.750306300868
 30
0.0
 41
20.0
 42
20.0
 43
20.0
 50
179.9999999999998
  0
INSERT
  5
182
330
17A
100
AcDbEntity
  8
2
  6
Continuous
 62
     4
370
    20
100
AcDbBlockReference
  2
_OPEN
 10
3215.112173105013
 20
2829.750306300868
 30
0.0
 41
20.0
 42
20.0
 43
20.0
 50
359.9999999999997
  0
ENDBLK
  5
17C
330
17A
100
AcDbEntity
  8
0
100
AcDbBlockEnd
  0
BLOCK
  5
185
330
184
100
AcDbEntity
  8
0
100
AcDbBlockBegin
  2
Dim6
 70
     0
 10
0.0
 20
0.0
 30
0.0
  3
Dim6
  1

  0
LINE
  5
187
330
184
100
AcDbEntity
  8
2
  6
Continuous
 62
     4
370
    20
100
AcDbLine
 10
2530.112173105012
 20
1055.623858965848
 30
0.0
 11
2403.521269972292
 21
1055.623858965848
 31
0.0
  0
LINE
  5
188
330
184
100
AcDbEntity
  8
2
  6
Continuous
 62
     4
370
    20
100
AcDbLine
 10
2530.112173105012
 20
1155.623858965848
 30
0.0
 11
2403.521269972292
 21
1155.623858965848
 31
0.0
  0
LINE
  5
189
330
184
100
AcDbEntity
  8
2
  6
Continuous
 62
     4
370
    20
100
AcDbLine
 10
2423.521269972292
 20
975.6238589658478
 30
0.0
 11
2423.521269972292
 21
1215.623858965848
 31
0.0
  0
MTEXT
  5
18A
330
184
100
AcDbEntity
  8
2
  6
Continuous
 62
     4
370
     9
100
AcDbMText
 10
2423.521269972292
 20
1105.623858965848
 30
0.0
 40
60.0
 41
606.0000000000001
 46
60.0
 71
     8
 72
     1
  1
100
  7
ＭＳ ゴシック
 11
1.615544574432587E-15
 21
1.0
 31
0.0
 73
     1
 44
1.0
1001
ACAD
1000
ACAD_MTEXT_DEFINED_HEIGHT_BEGIN
1070
    46
1040
60.0
1000
ACAD_MTEXT_DEFINED_HEIGHT_END
  0
INSERT
  5
18B
330
184
100
AcDbEntity
  8
2
  6
Continuous
 62
     4
370
    20
100
AcDbBlockReference
  2
_OPEN
 10
2423.521269972292
 20
1055.623858965848
 30
0.0
 41
20.0
 42
20.0
 43
20.0
 50
89.99999999999959
  0
INSERT
  5
18C
330
184
100
AcDbEntity
  8
2
  6
Continuous
 62
     4
370
    20
100
AcDbBlockReference
  2
_OPEN
 10
2423.521269972292
 20
1155.623858965848
 30
0.0
 41
20.0
 42
20.0
 43
20.0
 50
269.9999999999998
  0
ENDBLK
  5
186
330
184
100
AcDbEntity
  8
0
100
AcDbBlockEnd
  0
BLOCK
  5
18F
330
18E
100
AcDbEntity
  8
0
100
AcDbBlockBegin
  2
Dim7
 70
     0
 10
0.0
 20
0.0
 30
0.0
  3
Dim7
  1

  0
LINE
  5
191
330
18E
100
AcDbEntity
  8
2
  6
Continuous
 62
     4
370
    20
100
AcDbLine
 10
2525.112173105012
 20
2555.623858965848
 30
0.0
 11
2303.946205195577
 21
2555.623858965849
 31
0.0
  0
LINE
  5
192
330
18E
100
AcDbEntity
  8
2
  6
Continuous
 62
     4
370
    20
100
AcDbLine
 10
2530.112173105012
 20
1055.623858965848
 30
0.0
 11
2303.946205195577
 21
1055.623858965848
 31
0.0
  0
LINE
  5
193
330
18E
100
AcDbEntity
  8
2
  6
Continuous
 62
     4
370
    20
100
AcDbLine
 10
2323.946205195577
 20
2555.623858965849
 30
0.0
 11
2323.946205195577
 21
1055.623858965848
 31
0.0
  0
MTEXT
  5
194
330
18E
100
AcDbEntity
  8
2
  6
Continuous
 62
     4
370
     9
100
AcDbMText
 10
2323.946205195577
 20
1805.623858965849
 30
0.0
 40
60.0
 41
906.0000000000001
 46
60.0
 71
     8
 72
     1
  1
1500
  7
ＭＳ ゴシック
 11
1.615544574432587E-15
 21
1.0
 31
0.0
 73
     1
 44
1.0
1001
ACAD
1000
ACAD_MTEXT_DEFINED_HEIGHT_BEGIN
1070
    46
1040
60.0
1000
ACAD_MTEXT_DEFINED_HEIGHT_END
  0
INSERT
  5
195
330
18E
100
AcDbEntity
  8
2
  6
Continuous
 62
     4
370
    20
100
AcDbBlockReference
  2
_OPEN
 10
2323.946205195577
 20
2555.623858965849
 30
0.0
 41
20.0
 42
20.0
 43
20.0
 50
89.99999999999959
  0
INSERT
  5
196
330
18E
100
AcDbEntity
  8
2
  6
Continuous
 62
     4
370
    20
100
AcDbBlockReference
  2
_OPEN
 10
2323.946205195577
 20
1055.623858965848
 30
0.0
 41
20.0
 42
20.0
 43
20.0
 50
269.9999999999998
  0
ENDBLK
  5
190
330
18E
100
AcDbEntity
  8
0
100
AcDbBlockEnd
  0
BLOCK
  5
1C1
330
1C0
100
AcDbEntity
  8
0
100
AcDbBlockBegin
  2
*G27
 70
     1
 10
0.0
 20
0.0
 30
0.0
  3
*G27
  1

  0
LINE
  5
1C3
330
1C0
100
AcDbEntity
  8
2
  6
Continuous
 62
     4
370
    20
100
AcDbLine
 10
3175.112173105003
 20
3333.963648863061
 30
0.0
 11
3187.112173105009
 21
3340.89185209333
 31
0.0
  0
LINE
  5
1C4
330
1C0
100
AcDbEntity
  8
2
  6
Continuous
 62
     4
370
    20
100
AcDbLine
 10
3187.112173105009
 20
3340.89185209333
 30
0.0
 11
3187.112173105016
 21
3354.748258553883
 31
0.0
  0
LINE
  5
1C5
330
1C0
100
AcDbEntity
  8
2
  6
Continuous
 62
     4
370
    20
100
AcDbLine
 10
3187.112173105016
 20
3354.748258553883
 30
0.0
 11
3175.112173105022
 21
3361.676461784166
 31
0.0
  0
LINE
  5
1C6
330
1C0
100
AcDbEntity
  8
2
  6
Continuous
 62
     4
370
    20
100
AcDbLine
 10
3175.112173105022
 20
3361.676461784166
 30
0.0
 11
3163.112173105018
 21
3354.748258553897
 31
0.0
  0
LINE
  5
1C7
330
1C0
100
AcDbEntity
  8
2
  6
Continuous
 62
     4
370
    20
100
AcDbLine
 10
3163.112173105018
 20
3354.748258553897
 30
0.0
 11
3163.112173105009
 21
3340.891852093345
 31
0.0
  0
LINE
  5
1C8
330
1C0
100
AcDbEntity
  8
2
  6
Continuous
 62
     4
370
    20
100
AcDbLine
 10
3163.112173105009
 20
3340.891852093345
 30
0.0
 11
3175.112173105003
 21
3333.963648863061
 31
0.0
  0
ENDBLK
  5
1C2
330
1C0
100
AcDbEntity
  8
0
100
AcDbBlockEnd
  0
BLOCK
  5
1D0
330
1CF
100
AcDbEntity
  8
0
100
AcDbBlockBegin
  2
*G28
 70
     1
 10
0.0
 20
0.0
 30
0.0
  3
*G28
  1

  0
LINE
  5
1D2
330
1CF
100
AcDbEntity
  8
2
  6
Continuous
 62
     4
370
    20
100
AcDbLine
 10
2605.112173105021
 20
3333.963648863061
 30
0.0
 11
2593.112173105015
 21
3340.89185209333
 31
0.0
  0
LINE
  5
1D3
330
1CF
100
AcDbEntity
  8
2
  6
Continuous
 62
     4
370
    20
100
AcDbLine
 10
2593.112173105015
 20
3340.89185209333
 30
0.0
 11
2593.112173105008
 21
3354.748258553883
 31
0.0
  0
LINE
  5
1D4
330
1CF
100
AcDbEntity
  8
2
  6
Continuous
 62
     4
370
    20
100
AcDbLine
 10
2593.112173105008
 20
3354.748258553883
 30
0.0
 11
2605.112173105003
 21
3361.676461784166
 31
0.0
  0
LINE
  5
1D5
330
1CF
100
AcDbEntity
  8
2
  6
Continuous
 62
     4
370
    20
100
AcDbLine
 10
2605.112173105003
 20
3361.676461784166
 30
0.0
 11
2617.112173105006
 21
3354.748258553897
 31
0.0
  0
LINE
  5
1D6
330
1CF
100
AcDbEntity
  8
2
  6
Continuous
 62
     4
370
    20
100
AcDbLine
 10
2617.112173105006
 20
3354.748258553897
 30
0.0
 11
2617.112173105015
 21
3340.891852093345
 31
0.0
  0
LINE
  5
1D7
330
1CF
100
AcDbEntity
  8
2
  6
Continuous
 62
     4
370
    20
100
AcDbLine
 10
2617.112173105015
 20
3340.891852093345
 30
0.0
 11
2605.112173105021
 21
3333.963648863061
 31
0.0
  0
ENDBLK
  5
1D1
330
1CF
100
AcDbEntity
  8
0
100
AcDbBlockEnd
  0
BLOCK
  5
201
330
200
100
AcDbEntity
  8
0
100
AcDbBlockBegin
  2
*G29
 70
     1
 10
0.0
 20
0.0
 30
0.0
  3
*G29
  1

  0
ARC
  5
203
330
200
100
AcDbEntity
  8
2
  6
Continuous
 62
     4
370
    20
100
AcDbCircle
 10
3358.875280307911
 20
2404.646767390409
 30
0.0
 40
114.8468443292827
100
AcDbArc
 50
184.1554033281102
 51
276.6477290122077
  0
LINE
  5
204
330
200
100
AcDbEntity
  8
2
  6
Continuous
 62
     4
370
    20
100
AcDbLine
 10
3372.170481399463
 20
2290.572075717236
 30
0.0
 11
3341.839009696288
 21
2276.428278178933
 31
0.0
  0
LINE
  5
205
330
200
100
AcDbEntity
  8
2
  6
Continuous
 62
     4
370
    20
100
AcDbLine
 10
3372.170481399463
 20
2290.572075717236
 30
0.0
 11
3341.326371217629
 21
2301.798413725851
 31
0.0
  0
ENDBLK
  5
202
330
200
100
AcDbEntity
  8
0
100
AcDbBlockEnd
  0
BLOCK
  5
210
330
20F
100
AcDbEntity
  8
0
100
AcDbBlockBegin
  2
*G30
 70
     1
 10
0.0
 20
0.0
 30
0.0
  3
*G30
  1

  0
LINE
  5
212
330
20F
100
AcDbEntity
  8
2
  6
Continuous
 62
     4
370
    20
100
AcDbLine
 10
3175.112173105003
 20
3886.676461784164
 30
0.0
 11
3187.112173105009
 21
3879.748258553895
 31
0.0
  0
LINE
  5
213
330
20F
100
AcDbEntity
  8
2
  6
Continuous
 62
     4
370
    20
100
AcDbLine
 10
3187.112173105009
 20
3879.748258553897
 30
0.0
 11
3187.112173105016
 21
3865.891852093345
 31
0.0
  0
LINE
  5
214
330
20F
100
AcDbEntity
  8
2
  6
Continuous
 62
     4
370
    20
100
AcDbLine
 10
3187.112173105016
 20
3865.891852093345
 30
0.0
 11
3175.112173105022
 21
3858.963648863061
 31
0.0
  0
LINE
  5
215
330
20F
100
AcDbEntity
  8
2
  6
Continuous
 62
     4
370
    20
100
AcDbLine
 10
3175.112173105022
 20
3858.963648863061
 30
0.0
 11
3163.112173105018
 21
3865.89185209333
 31
0.0
  0
LINE
  5
216
330
20F
100
AcDbEntity
  8
2
  6
Continuous
 62
     4
370
    20
100
AcDbLine
 10
3163.112173105018
 20
3865.89185209333
 30
0.0
 11
3163.112173105009
 21
3879.748258553883
 31
0.0
  0
LINE
  5
217
330
20F
100
AcDbEntity
  8
2
  6
Continuous
 62
     4
370
    20
100
AcDbLine
 10
3163.112173105009
 20
3879.748258553881
 30
0.0
 11
3175.112173105003
 21
3886.676461784164
 31
0.0
  0
ENDBLK
  5
211
330
20F
100
AcDbEntity
  8
0
100
AcDbBlockEnd
  0
BLOCK
  5
21A
330
219
100
AcDbEntity
  8
0
100
AcDbBlockBegin
  2
*G31
 70
     1
 10
0.0
 20
0.0
 30
0.0
  3
*G31
  1

  0
LINE
  5
21C
330
219
100
AcDbEntity
  8
2
  6
Continuous
 62
     4
370
    20
100
AcDbLine
 10
2605.112173105021
 20
3886.676461784164
 30
0.0
 11
2593.112173105015
 21
3879.748258553895
 31
0.0
  0
LINE
  5
21D
330
219
100
AcDbEntity
  8
2
  6
Continuous
 62
     4
370
    20
100
AcDbLine
 10
2593.112173105015
 20
3879.748258553897
 30
0.0
 11
2593.112173105008
 21
3865.891852093345
 31
0.0
  0
LINE
  5
21E
330
219
100
AcDbEntity
  8
2
  6
Continuous
 62
     4
370
    20
100
AcDbLine
 10
2593.112173105008
 20
3865.891852093345
 30
0.0
 11
2605.112173105003
 21
3858.963648863061
 31
0.0
  0
LINE
  5
21F
330
219
100
AcDbEntity
  8
2
  6
Continuous
 62
     4
370
    20
100
AcDbLine
 10
2605.112173105003
 20
3858.963648863061
 30
0.0
 11
2617.112173105006
 21
3865.89185209333
 31
0.0
  0
LINE
  5
220
330
219
100
AcDbEntity
  8
2
  6
Continuous
 62
     4
370
    20
100
AcDbLine
 10
2617.112173105006
 20
3865.89185209333
 30
0.0
 11
2617.112173105015
 21
3879.748258553883
 31
0.0
  0
LINE
  5
221
330
219
100
AcDbEntity
  8
2
  6
Continuous
 62
     4
370
    20
100
AcDbLine
 10
2617.112173105015
 20
3879.748258553881
 30
0.0
 11
2605.112173105021
 21
3886.676461784164
 31
0.0
  0
ENDBLK
  5
21B
330
219
100
AcDbEntity
  8
0
100
AcDbBlockEnd
  0
BLOCK
  5
226
330
225
100
AcDbEntity
  8
0
100
AcDbBlockBegin
  2
*G32
 70
     1
 10
0.0
 20
0.0
 30
0.0
  3
*G32
  1

  0
LINE
  5
228
330
225
100
AcDbEntity
  8
2
  6
Continuous
 62
     4
370
    20
100
AcDbLine
 10
4427.005414517691
 20
1055.623858965847
 30
0.0
 11
4427.005414517691
 21
1155.623858965847
 31
0.0
  0
LINE
  5
229
330
225
100
AcDbEntity
  8
2
  6
Continuous
 62
     4
370
    20
100
AcDbLine
 10
4427.005414517691
 20
1155.623858965847
 30
0.0
 11
5067.005414517692
 21
1155.623858965847
 31
0.0
  0
LINE
  5
22A
330
225
100
AcDbEntity
  8
2
  6
Continuous
 62
     4
370
    20
100
AcDbLine
 10
5067.005414517692
 20
1155.623858965847
 30
0.0
 11
5067.005414517692
 21
1055.623858965847
 31
0.0
  0
LINE
  5
22B
330
225
100
AcDbEntity
  8
2
  6
Continuous
 62
     4
370
    20
100
AcDbLine
 10
5067.005414517692
 20
1055.623858965847
 30
0.0
 11
4427.005414517691
 21
1055.623858965847
 31
0.0
  0
ENDBLK
  5
227
330
225
100
AcDbEntity
  8
0
100
AcDbBlockEnd
  0
BLOCK
  5
23F
330
23E
100
AcDbEntity
  8
0
100
AcDbBlockBegin
  2
Dim8
 70
     0
 10
0.0
 20
0.0
 30
0.0
  3
Dim8
  1

  0
LINE
  5
241
330
23E
100
AcDbEntity
  8
2
  6
Continuous
 62
     4
370
    20
100
AcDbLine
 10
4422.005414517691
 20
2585.623858965847
 30
0.0
 11
4422.005414517692
 21
2849.750306300868
 31
0.0
  0
LINE
  5
242
330
23E
100
AcDbEntity
  8
2
  6
Continuous
 62
     4
370
    20
100
AcDbLine
 10
5072.005414517692
 20
2585.623858965847
 30
0.0
 11
5072.005414517692
 21
2849.750306300868
 31
0.0
  0
LINE
  5
243
330
23E
100
AcDbEntity
  8
2
  6
Continuous
 62
     4
370
    20
100
AcDbLine
 10
4422.005414517692
 20
2829.750306300868
 30
0.0
 11
5072.005414517692
 21
2829.750306300868
 31
0.0
  0
MTEXT
  5
244
330
23E
100
AcDbEntity
  8
2
  6
Continuous
 62
     4
370
     9
100
AcDbMText
 10
4747.005414517693
 20
2829.750306300868
 30
0.0
 40
60.0
 41
756.5999999999999
 46
60.0
 71
     8
 72
     1
  1
650
  7
ＭＳ ゴシック
 73
     1
 44
1.0
1001
ACAD
1000
ACAD_MTEXT_DEFINED_HEIGHT_BEGIN
1070
    46
1040
60.0
1000
ACAD_MTEXT_DEFINED_HEIGHT_END
  0
INSERT
  5
245
330
23E
100
AcDbEntity
  8
2
  6
Continuous
 62
     4
370
    20
100
AcDbBlockReference
  2
_OPEN
 10
4422.005414517692
 20
2829.750306300868
 30
0.0
 41
20.0
 42
20.0
 43
20.0
 50
179.9999999999998
  0
INSERT
  5
246
330
23E
100
AcDbEntity
  8
2
  6
Continuous
 62
     4
370
    20
100
AcDbBlockReference
  2
_OPEN
 10
5072.005414517692
 20
2829.750306300868
 30
0.0
 41
20.0
 42
20.0
 43
20.0
 50
359.9999999999997
  0
ENDBLK
  5
240
330
23E
100
AcDbEntity
  8
0
100
AcDbBlockEnd
  0
BLOCK
  5
249
330
248
100
AcDbEntity
  8
0
100
AcDbBlockBegin
  2
Dim9
 70
     0
 10
0.0
 20
0.0
 30
0.0
  3
Dim9
  1

  0
LINE
  5
24B
330
248
100
AcDbEntity
  8
2
  6
Continuous
 62
     4
370
    20
100
AcDbLine
 10
4382.005414517691
 20
2545.623858965847
 30
0.0
 11
4160.839446608256
 21
2545.623858965848
 31
0.0
  0
LINE
  5
24C
330
248
100
AcDbEntity
  8
2
  6
Continuous
 62
     4
370
    20
100
AcDbLine
 10
4387.005414517691
 20
1055.623858965848
 30
0.0
 11
4160.839446608256
 21
1055.623858965848
 31
0.0
  0
LINE
  5
24D
330
248
100
AcDbEntity
  8
2
  6
Continuous
 62
     4
370
    20
100
AcDbLine
 10
4180.839446608256
 20
2545.623858965848
 30
0.0
 11
4180.839446608256
 21
1055.623858965848
 31
0.0
  0
MTEXT
  5
24E
330
248
100
AcDbEntity
  8
2
  6
Continuous
 62
     4
370
     9
100
AcDbMText
 10
4180.839446608256
 20
1800.623858965849
 30
0.0
 40
60.0
 41
955.8
 46
60.0
 71
     8
 72
     1
  1
1490
  7
ＭＳ ゴシック
 11
1.615544574432587E-15
 21
1.0
 31
0.0
 73
     1
 44
1.0
1001
ACAD
1000
ACAD_MTEXT_DEFINED_HEIGHT_BEGIN
1070
    46
1040
60.0
1000
ACAD_MTEXT_DEFINED_HEIGHT_END
  0
INSERT
  5
24F
330
248
100
AcDbEntity
  8
2
  6
Continuous
 62
     4
370
    20
100
AcDbBlockReference
  2
_OPEN
 10
4180.839446608256
 20
2545.623858965848
 30
0.0
 41
20.0
 42
20.0
 43
20.0
 50
89.99999999999959
  0
INSERT
  5
250
330
248
100
AcDbEntity
  8
2
  6
Continuous
 62
     4
370
    20
100
AcDbBlockReference
  2
_OPEN
 10
4180.839446608256
 20
1055.623858965848
 30
0.0
 41
20.0
 42
20.0
 43
20.0
 50
269.9999999999998
  0
ENDBLK
  5
24A
330
248
100
AcDbEntity
  8
0
100
AcDbBlockEnd
  0
BLOCK
  5
258
330
257
100
AcDbEntity
  8
0
100
AcDbBlockBegin
  2
*G35
 70
     1
 10
0.0
 20
0.0
 30
0.0
  3
*G35
  1

  0
LINE
  5
25A
330
257
100
AcDbEntity
  8
1
  6
Continuous
 62
     7
370
    20
100
AcDbLine
 10
4477.00541451769
 20
2436.29663321509
 30
0.0
 11
4483.378430795608
 21
2429.923616937172
 31
0.0
  0
LINE
  5
25B
330
257
100
AcDbEntity
  8
1
  6
Continuous
 62
     7
370
    20
100
AcDbLine
 10
4477.00541451769
 20
2464.580904462552
 30
0.0
 11
4511.662702043071
 21
2429.923616937172
 31
0.0
  0
LINE
  5
25C
330
257
100
AcDbEntity
  8
1
  6
Continuous
 62
     7
370
    20
100
AcDbLine
 10
4477.00541451769
 20
2492.865175710014
 30
0.0
 11
4539.946973290532
 21
2429.923616937171
 31
0.0
  0
LINE
  5
25D
330
257
100
AcDbEntity
  8
1
  6
Continuous
 62
     7
370
    20
100
AcDbLine
 10
4477.00541451769
 20
2521.149446957476
 30
0.0
 11
4568.231244537994
 21
2429.923616937171
 31
0.0
  0
LINE
  5
25E
330
257
100
AcDbEntity
  8
1
  6
Continuous
 62
     7
370
    20
100
AcDbLine
 10
4501.515515785456
 20
2524.923616937172
 30
0.0
 11
4596.515515785455
 21
2429.923616937171
 31
0.0
  0
LINE
  5
25F
330
257
100
AcDbEntity
  8
1
  6
Continuous
 62
     7
370
    20
100
AcDbLine
 10
4529.799787032917
 20
2524.923616937171
 30
0.0
 11
4624.799787032917
 21
2429.923616937171
 31
0.0
  0
LINE
  5
260
330
257
100
AcDbEntity
  8
1
  6
Continuous
 62
     7
370
    20
100
AcDbLine
 10
4558.084058280379
 20
2524.923616937171
 30
0.0
 11
4653.084058280378
 21
2429.923616937171
 31
0.0
  0
LINE
  5
261
330
257
100
AcDbEntity
  8
1
  6
Continuous
 62
     7
370
    20
100
AcDbLine
 10
4586.368329527841
 20
2524.923616937171
 30
0.0
 11
4681.368329527841
 21
2429.923616937171
 31
0.0
  0
LINE
  5
262
330
257
100
AcDbEntity
  8
1
  6
Continuous
 62
     7
370
    20
100
AcDbLine
 10
4614.652600775303
 20
2524.923616937171
 30
0.0
 11
4709.652600775302
 21
2429.92361693717
 31
0.0
  0
LINE
  5
263
330
257
100
AcDbEntity
  8
1
  6
Continuous
 62
     7
370
    20
100
AcDbLine
 10
4642.936872022764
 20
2524.923616937171
 30
0.0
 11
4737.936872022764
 21
2429.92361693717
 31
0.0
  0
LINE
  5
264
330
257
100
AcDbEntity
  8
1
  6
Continuous
 62
     7
370
    20
100
AcDbLine
 10
4671.221143270226
 20
2524.923616937171
 30
0.0
 11
4766.221143270225
 21
2429.92361693717
 31
0.0
  0
LINE
  5
265
330
257
100
AcDbEntity
  8
1
  6
Continuous
 62
     7
370
    20
100
AcDbLine
 10
4699.505414517687
 20
2524.923616937171
 30
0.0
 11
4794.505414517687
 21
2429.92361693717
 31
0.0
  0
LINE
  5
266
330
257
100
AcDbEntity
  8
1
  6
Continuous
 62
     7
370
    20
100
AcDbLine
 10
4727.789685765149
 20
2524.92361693717
 30
0.0
 11
4822.789685765149
 21
2429.92361693717
 31
0.0
  0
LINE
  5
267
330
257
100
AcDbEntity
  8
1
  6
Continuous
 62
     7
370
    20
100
AcDbLine
 10
4756.073957012611
 20
2524.92361693717
 30
0.0
 11
4851.073957012611
 21
2429.92361693717
 31
0.0
  0
LINE
  5
268
330
257
100
AcDbEntity
  8
1
  6
Continuous
 62
     7
370
    20
100
AcDbLine
 10
4784.358228260073
 20
2524.92361693717
 30
0.0
 11
4879.358228260072
 21
2429.92361693717
 31
0.0
  0
LINE
  5
269
330
257
100
AcDbEntity
  8
1
  6
Continuous
 62
     7
370
    20
100
AcDbLine
 10
4812.642499507534
 20
2524.92361693717
 30
0.0
 11
4907.642499507534
 21
2429.923616937169
 31
0.0
  0
LINE
  5
26A
330
257
100
AcDbEntity
  8
1
  6
Continuous
 62
     7
370
    20
100
AcDbLine
 10
4840.926770754996
 20
2524.92361693717
 30
0.0
 11
4935.926770754995
 21
2429.923616937169
 31
0.0
  0
LINE
  5
26B
330
257
100
AcDbEntity
  8
1
  6
Continuous
 62
     7
370
    20
100
AcDbLine
 10
4869.211042002457
 20
2524.92361693717
 30
0.0
 11
4964.211042002456
 21
2429.923616937169
 31
0.0
  0
LINE
  5
26C
330
257
100
AcDbEntity
  8
1
  6
Continuous
 62
     7
370
    20
100
AcDbLine
 10
4897.495313249919
 20
2524.923616937169
 30
0.0
 11
4992.495313249919
 21
2429.923616937169
 31
0.0
  0
LINE
  5
26D
330
257
100
AcDbEntity
  8
1
  6
Continuous
 62
     7
370
    20
100
AcDbLine
 10
4925.779584497381
 20
2524.923616937169
 30
0.0
 11
5017.00541451769
 21
2433.697786916859
 31
0.0
  0
LINE
  5
26E
330
257
100
AcDbEntity
  8
1
  6
Continuous
 62
     7
370
    20
100
AcDbLine
 10
4954.063855744843
 20
2524.923616937169
 30
0.0
 11
5017.00541451769
 21
2461.982058164321
 31
0.0
  0
LINE
  5
26F
330
257
100
AcDbEntity
  8
1
  6
Continuous
 62
     7
370
    20
100
AcDbLine
 10
4982.348126992304
 20
2524.923616937169
 30
0.0
 11
5017.00541451769
 21
2490.266329411783
 31
0.0
  0
LINE
  5
270
330
257
100
AcDbEntity
  8
1
  6
Continuous
 62
     7
370
    20
100
AcDbLine
 10
5010.632398239766
 20
2524.923616937169
 30
0.0
 11
5017.00541451769
 21
2518.550600659245
 31
0.0
  0
ENDBLK
  5
259
330
257
100
AcDbEntity
  8
0
100
AcDbBlockEnd
  0
BLOCK
  5
273
330
272
100
AcDbEntity
  8
0
100
AcDbBlockBegin
  2
*G36
 70
     1
 10
0.0
 20
0.0
 30
0.0
  3
*G36
  1

  0
LINE
  5
275
330
272
100
AcDbEntity
  8
1
  6
Continuous
 62
     7
370
    20
100
AcDbLine
 10
5010.63239823977
 20
2429.923616937169
 30
0.0
 11
5017.00541451769
 21
2436.296633215089
 31
0.0
  0
LINE
  5
276
330
272
100
AcDbEntity
  8
1
  6
Continuous
 62
     7
370
    20
100
AcDbLine
 10
4982.348126992309
 20
2429.923616937169
 30
0.0
 11
5017.00541451769
 21
2464.580904462551
 31
0.0
  0
LINE
  5
277
330
272
100
AcDbEntity
  8
1
  6
Continuous
 62
     7
370
    20
100
AcDbLine
 10
4954.063855744846
 20
2429.923616937169
 30
0.0
 11
5017.00541451769
 21
2492.865175710012
 31
0.0
  0
LINE
  5
278
330
272
100
AcDbEntity
  8
1
  6
Continuous
 62
     7
370
    20
100
AcDbLine
 10
4925.779584497385
 20
2429.923616937169
 30
0.0
 11
5017.00541451769
 21
2521.149446957474
 31
0.0
  0
LINE
  5
279
330
272
100
AcDbEntity
  8
1
  6
Continuous
 62
     7
370
    20
100
AcDbLine
 10
4897.495313249924
 20
2429.923616937169
 30
0.0
 11
4992.495313249923
 21
2524.923616937169
 31
0.0
  0
LINE
  5
27A
330
272
100
AcDbEntity
  8
1
  6
Continuous
 62
     7
370
    20
100
AcDbLine
 10
4869.211042002462
 20
2429.92361693717
 30
0.0
 11
4964.211042002462
 21
2524.923616937169
 31
0.0
  0
LINE
  5
27B
330
272
100
AcDbEntity
  8
1
  6
Continuous
 62
     7
370
    20
100
AcDbLine
 10
4840.926770755001
 20
2429.92361693717
 30
0.0
 11
4935.926770755
 21
2524.923616937169
 31
0.0
  0
LINE
  5
27C
330
272
100
AcDbEntity
  8
1
  6
Continuous
 62
     7
370
    20
100
AcDbLine
 10
4812.642499507539
 20
2429.92361693717
 30
0.0
 11
4907.642499507539
 21
2524.923616937169
 31
0.0
  0
LINE
  5
27D
330
272
100
AcDbEntity
  8
1
  6
Continuous
 62
     7
370
    20
100
AcDbLine
 10
4784.358228260077
 20
2429.92361693717
 30
0.0
 11
4879.358228260077
 21
2524.92361693717
 31
0.0
  0
LINE
  5
27E
330
272
100
AcDbEntity
  8
1
  6
Continuous
 62
     7
370
    20
100
AcDbLine
 10
4756.073957012616
 20
2429.92361693717
 30
0.0
 11
4851.073957012615
 21
2524.92361693717
 31
0.0
  0
LINE
  5
27F
330
272
100
AcDbEntity
  8
1
  6
Continuous
 62
     7
370
    20
100
AcDbLine
 10
4727.789685765154
 20
2429.92361693717
 30
0.0
 11
4822.789685765154
 21
2524.92361693717
 31
0.0
  0
LINE
  5
280
330
272
100
AcDbEntity
  8
1
  6
Continuous
 62
     7
370
    20
100
AcDbLine
 10
4699.505414517693
 20
2429.923616937171
 30
0.0
 11
4794.505414517693
 21
2524.92361693717
 31
0.0
  0
LINE
  5
281
330
272
100
AcDbEntity
  8
1
  6
Continuous
 62
     7
370
    20
100
AcDbLine
 10
4671.221143270232
 20
2429.923616937171
 30
0.0
 11
4766.221143270231
 21
2524.92361693717
 31
0.0
  0
LINE
  5
282
330
272
100
AcDbEntity
  8
1
  6
Continuous
 62
     7
370
    20
100
AcDbLine
 10
4642.936872022769
 20
2429.923616937171
 30
0.0
 11
4737.936872022769
 21
2524.92361693717
 31
0.0
  0
LINE
  5
283
330
272
100
AcDbEntity
  8
1
  6
Continuous
 62
     7
370
    20
100
AcDbLine
 10
4614.652600775308
 20
2429.923616937171
 30
0.0
 11
4709.652600775307
 21
2524.92361693717
 31
0.0
  0
LINE
  5
284
330
272
100
AcDbEntity
  8
1
  6
Continuous
 62
     7
370
    20
100
AcDbLine
 10
4586.368329527846
 20
2429.923616937171
 30
0.0
 11
4681.368329527846
 21
2524.923616937171
 31
0.0
  0
LINE
  5
285
330
272
100
AcDbEntity
  8
1
  6
Continuous
 62
     7
370
    20
100
AcDbLine
 10
4558.084058280385
 20
2429.923616937171
 30
0.0
 11
4653.084058280385
 21
2524.923616937171
 31
0.0
  0
LINE
  5
286
330
272
100
AcDbEntity
  8
1
  6
Continuous
 62
     7
370
    20
100
AcDbLine
 10
4529.799787032924
 20
2429.923616937171
 30
0.0
 11
4624.799787032923
 21
2524.923616937171
 31
0.0
  0
LINE
  5
287
330
272
100
AcDbEntity
  8
1
  6
Continuous
 62
     7
370
    20
100
AcDbLine
 10
4501.515515785462
 20
2429.923616937172
 30
0.0
 11
4596.515515785462
 21
2524.923616937171
 31
0.0
  0
LINE
  5
288
330
272
100
AcDbEntity
  8
1
  6
Continuous
 62
     7
370
    20
100
AcDbLine
 10
4477.00541451769
 20
2433.697786916861
 30
0.0
 11
4568.231244538
 21
2524.923616937171
 31
0.0
  0
LINE
  5
289
330
272
100
AcDbEntity
  8
1
  6
Continuous
 62
     7
370
    20
100
AcDbLine
 10
4477.00541451769
 20
2461.982058164323
 30
0.0
 11
4539.946973290538
 21
2524.923616937171
 31
0.0
  0
LINE
  5
28A
330
272
100
AcDbEntity
  8
1
  6
Continuous
 62
     7
370
    20
100
AcDbLine
 10
4477.00541451769
 20
2490.266329411785
 30
0.0
 11
4511.662702043077
 21
2524.923616937172
 31
0.0
  0
LINE
  5
28B
330
272
100
AcDbEntity
  8
1
  6
Continuous
 62
     7
370
    20
100
AcDbLine
 10
4477.00541451769
 20
2518.550600659246
 30
0.0
 11
4483.378430795616
 21
2524.923616937172
 31
0.0
  0
ENDBLK
  5
274
330
272
100
AcDbEntity
  8
0
100
AcDbBlockEnd
  0
BLOCK
  5
297
330
296
100
AcDbEntity
  8
0
100
AcDbBlockBegin
  2
Dim10
 70
     0
 10
0.0
 20
0.0
 30
0.0
  3
Dim10
  1

  0
LINE
  5
299
330
296
100
AcDbEntity
  8
2
  6
Continuous
 62
     4
370
    20
100
AcDbLine
 10
4427.005414517691
 20
1015.623858965847
 30
0.0
 11
4427.005414517691
 21
763.6369921523141
 31
0.0
  0
LINE
  5
29A
330
296
100
AcDbEntity
  8
2
  6
Continuous
 62
     4
370
    20
100
AcDbLine
 10
5067.005414517692
 20
1015.623858965847
 30
0.0
 11
5067.005414517691
 21
763.6369921523141
 31
0.0
  0
LINE
  5
29B
330
296
100
AcDbEntity
  8
2
  6
Continuous
 62
     4
370
    20
100
AcDbLine
 10
4427.005414517691
 20
783.6369921523141
 30
0.0
 11
5067.005414517691
 21
783.6369921523141
 31
0.0
  0
MTEXT
  5
29C
330
296
100
AcDbEntity
  8
2
  6
Continuous
 62
     4
370
     9
100
AcDbMText
 10
4747.00541451769
 20
783.6369921523141
 30
0.0
 40
60.0
 41
756.5999999999999
 46
60.0
 71
     8
 72
     1
  1
640
  7
ＭＳ ゴシック
 73
     1
 44
1.0
1001
ACAD
1000
ACAD_MTEXT_DEFINED_HEIGHT_BEGIN
1070
    46
1040
60.0
1000
ACAD_MTEXT_DEFINED_HEIGHT_END
  0
INSERT
  5
29D
330
296
100
AcDbEntity
  8
2
  6
Continuous
 62
     4
370
    20
100
AcDbBlockReference
  2
_OPEN
 10
4427.005414517691
 20
783.6369921523141
 30
0.0
 41
20.0
 42
20.0
 43
20.0
 50
179.9999999999998
  0
INSERT
  5
29E
330
296
100
AcDbEntity
  8
2
  6
Continuous
 62
     4
370
    20
100
AcDbBlockReference
  2
_OPEN
 10
5067.005414517691
 20
783.6369921523141
 30
0.0
 41
20.0
 42
20.0
 43
20.0
 50
359.9999999999997
  0
ENDBLK
  5
298
330
296
100
AcDbEntity
  8
0
100
AcDbBlockEnd
  0
BLOCK
  5
2A1
330
2A0
100
AcDbEntity
  8
0
100
AcDbBlockBegin
  2
Dim11
 70
     0
 10
0.0
 20
0.0
 30
0.0
  3
Dim11
  1

  0
LINE
  5
2A3
330
2A0
100
AcDbEntity
  8
2
  6
Continuous
 62
     4
370
    20
100
AcDbLine
 10
4427.005414517691
 20
1015.623858965847
 30
0.0
 11
4427.005414517691
 21
875.413439258103
 31
0.0
  0
LINE
  5
2A4
330
2A0
100
AcDbEntity
  8
2
  6
Continuous
 62
     4
370
    20
100
AcDbLine
 10
4497.005414517691
 20
1005.931873651455
 30
0.0
 11
4497.005414517691
 21
875.413439258103
 31
0.0
  0
LINE
  5
2A5
330
2A0
100
AcDbEntity
  8
2
  6
Continuous
 62
     4
370
    20
100
AcDbLine
 10
4427.005414517691
 20
895.413439258103
 30
0.0
 11
4497.005414517691
 21
895.413439258103
 31
0.0
  0
MTEXT
  5
2A6
330
2A0
100
AcDbEntity
  8
2
  6
Continuous
 62
     4
370
     9
100
AcDbMText
 10
4462.005414517691
 20
895.413439258103
 30
0.0
 40
60.0
 41
453.3000000000001
 46
60.0
 71
     8
 72
     1
  1
70
  7
ＭＳ ゴシック
 73
     1
 44
1.0
1001
ACAD
1000
ACAD_MTEXT_DEFINED_HEIGHT_BEGIN
1070
    46
1040
60.0
1000
ACAD_MTEXT_DEFINED_HEIGHT_END
  0
INSERT
  5
2A7
330
2A0
100
AcDbEntity
  8
2
  6
Continuous
 62
     4
370
    20
100
AcDbBlockReference
  2
_OPEN
 10
4427.005414517691
 20
895.413439258103
 30
0.0
 41
20.0
 42
20.0
 43
20.0
 50
179.9999999999998
  0
INSERT
  5
2A8
330
2A0
100
AcDbEntity
  8
2
  6
Continuous
 62
     4
370
    20
100
AcDbBlockReference
  2
_OPEN
 10
4497.005414517691
 20
895.413439258103
 30
0.0
 41
20.0
 42
20.0
 43
20.0
 50
359.9999999999997
  0
ENDBLK
  5
2A2
330
2A0
100
AcDbEntity
  8
0
100
AcDbBlockEnd
  0
BLOCK
  5
2AB
330
2AA
100
AcDbEntity
  8
0
100
AcDbBlockBegin
  2
Dim12
 70
     0
 10
0.0
 20
0.0
 30
0.0
  3
Dim12
  1

  0
LINE
  5
2AD
330
2AA
100
AcDbEntity
  8
2
  6
Continuous
 62
     4
370
    20
100
AcDbLine
 10
4997.005414517692
 20
1008.220955600344
 30
0.0
 11
4997.005414517692
 21
875.413439258103
 31
0.0
  0
LINE
  5
2AE
330
2AA
100
AcDbEntity
  8
2
  6
Continuous
 62
     4
370
    20
100
AcDbLine
 10
4497.005414517691
 20
895.413439258103
 30
0.0
 11
4997.005414517692
 21
895.413439258103
 31
0.0
  0
MTEXT
  5
2AF
330
2AA
100
AcDbEntity
  8
2
  6
Continuous
 62
     4
370
     9
100
AcDbMText
 10
4747.00541451769
 20
895.413439258103
 30
0.0
 40
60.0
 41
706.8000000000001
 46
60.0
 71
     8
 72
     1
  1
500
  7
ＭＳ ゴシック
 73
     1
 44
1.0
1001
ACAD
1000
ACAD_MTEXT_DEFINED_HEIGHT_BEGIN
1070
    46
1040
60.0
1000
ACAD_MTEXT_DEFINED_HEIGHT_END
  0
INSERT
  5
2B0
330
2AA
100
AcDbEntity
  8
2
  6
Continuous
 62
     4
370
    20
100
AcDbBlockReference
  2
_OPEN
 10
4497.005414517691
 20
895.413439258103
 30
0.0
 41
20.0
 42
20.0
 43
20.0
 50
179.9999999999998
  0
INSERT
  5
2B1
330
2AA
100
AcDbEntity
  8
2
  6
Continuous
 62
     4
370
    20
100
AcDbBlockReference
  2
_OPEN
 10
4997.005414517692
 20
895.413439258103
 30
0.0
 41
20.0
 42
20.0
 43
20.0
 50
359.9999999999997
  0
ENDBLK
  5
2AC
330
2AA
100
AcDbEntity
  8
0
100
AcDbBlockEnd
  0
BLOCK
  5
2B4
330
2B3
100
AcDbEntity
  8
0
100
AcDbBlockBegin
  2
Dim13
 70
     0
 10
0.0
 20
0.0
 30
0.0
  3
Dim13
  1

  0
LINE
  5
2B6
330
2B3
100
AcDbEntity
  8
2
  6
Continuous
 62
     4
370
    20
100
AcDbLine
 10
5067.005414517692
 20
1015.623858965847
 30
0.0
 11
5067.005414517692
 21
875.413439258103
 31
0.0
  0
LINE
  5
2B7
330
2B3
100
AcDbEntity
  8
2
  6
Continuous
 62
     4
370
    20
100
AcDbLine
 10
4997.005414517692
 20
895.413439258103
 30
0.0
 11
5067.005414517692
 21
895.413439258103
 31
0.0
  0
MTEXT
  5
2B8
330
2B3
100
AcDbEntity
  8
2
  6
Continuous
 62
     4
370
     9
100
AcDbMText
 10
5032.005414517694
 20
895.413439258103
 30
0.0
 40
60.0
 41
453.3000000000001
 46
60.0
 71
     8
 72
     1
  1
70
  7
ＭＳ ゴシック
 73
     1
 44
1.0
1001
ACAD
1000
ACAD_MTEXT_DEFINED_HEIGHT_BEGIN
1070
    46
1040
60.0
1000
ACAD_MTEXT_DEFINED_HEIGHT_END
  0
INSERT
  5
2B9
330
2B3
100
AcDbEntity
  8
2
  6
Continuous
 62
     4
370
    20
100
AcDbBlockReference
  2
_OPEN
 10
4997.005414517692
 20
895.413439258103
 30
0.0
 41
20.0
 42
20.0
 43
20.0
 50
179.9999999999998
  0
INSERT
  5
2BA
330
2B3
100
AcDbEntity
  8
2
  6
Continuous
 62
     4
370
    20
100
AcDbBlockReference
  2
_OPEN
 10
5067.005414517692
 20
895.413439258103
 30
0.0
 41
20.0
 42
20.0
 43
20.0
 50
359.9999999999997
  0
ENDBLK
  5
2B5
330
2B3
100
AcDbEntity
  8
0
100
AcDbBlockEnd
  0
BLOCK
  5
2F9
330
2F8
100
AcDbEntity
  8
0
100
AcDbBlockBegin
  2
Dim14
 70
     0
 10
0.0
 20
0.0
 30
0.0
  3
Dim14
  1

  0
LINE
  5
2FB
330
2F8
100
AcDbEntity
  8
2
  6
Continuous
 62
     4
370
    20
100
AcDbLine
 10
1604.462586140223
 20
1015.623858965845
 30
0.0
 11
1604.462586140223
 21
662.6347921935289
 31
0.0
  0
LINE
  5
2FC
330
2F8
100
AcDbEntity
  8
2
  6
Continuous
 62
     4
370
    20
100
AcDbLine
 10
1009.462586140223
 20
1015.623858965845
 30
0.0
 11
1009.462586140223
 21
662.6347921935289
 31
0.0
  0
LINE
  5
2FD
330
2F8
100
AcDbEntity
  8
2
  6
Continuous
 62
     4
370
    20
100
AcDbLine
 10
1604.462586140223
 20
682.6347921935289
 30
0.0
 11
1009.462586140223
 21
682.6347921935289
 31
0.0
  0
MTEXT
  5
2FE
330
2F8
100
AcDbEntity
  8
2
  6
Continuous
 62
     4
370
     9
100
AcDbMText
 10
1306.962586140223
 20
682.6347921935289
 30
0.0
 40
60.0
 41
806.3999999999999
 46
60.0
 71
     8
 72
     1
  1
595
  7
ＭＳ ゴシック
 73
     1
 44
1.0
1001
ACAD
1000
ACAD_MTEXT_DEFINED_HEIGHT_BEGIN
1070
    46
1040
60.0
1000
ACAD_MTEXT_DEFINED_HEIGHT_END
  0
INSERT
  5
2FF
330
2F8
100
AcDbEntity
  8
2
  6
Continuous
 62
     4
370
    20
100
AcDbBlockReference
  2
_OPEN
 10
1604.462586140223
 20
682.6347921935289
 30
0.0
 41
20.0
 42
20.0
 43
20.0
 50
359.9999999999997
  0
INSERT
  5
300
330
2F8
100
AcDbEntity
  8
2
  6
Continuous
 62
     4
370
    20
100
AcDbBlockReference
  2
_OPEN
 10
1009.462586140223
 20
682.6347921935289
 30
0.0
 41
20.0
 42
20.0
 43
20.0
 50
179.9999999999999
  0
ENDBLK
  5
2FA
330
2F8
100
AcDbEntity
  8
0
100
AcDbBlockEnd
  0
BLOCK
  5
304
330
303
100
AcDbEntity
  8
0
100
AcDbBlockBegin
  2
*G42
 70
     1
 10
0.0
 20
0.0
 30
0.0
  3
*G42
  1

  0
LINE
  5
306
330
303
100
AcDbEntity
  8
2
  6
Continuous
 62
     4
370
    20
100
AcDbLine
 10
1604.462586140223
 20
1155.623858965845
 30
0.0
 11
1009.462586140223
 21
1155.623858965845
 31
0.0
  0
LINE
  5
307
330
303
100
AcDbEntity
  8
2
  6
Continuous
 62
     4
370
    20
100
AcDbLine
 10
1009.462586140223
 20
1055.623858965845
 30
0.0
 11
1604.462586140223
 21
1055.623858965845
 31
0.0
  0
LINE
  5
308
330
303
100
AcDbEntity
  8
2
  6
Continuous
 62
     4
370
    20
100
AcDbLine
 10
1009.462586140223
 20
1155.623858965845
 30
0.0
 11
1009.462586140223
 21
1149.623858965845
 31
0.0
  0
LINE
  5
309
330
303
100
AcDbEntity
  8
2
  6
Continuous
 62
     4
370
    20
100
AcDbLine
 10
1009.462586140223
 20
1061.623858965845
 30
0.0
 11
1009.462586140223
 21
1055.623858965845
 31
0.0
  0
LINE
  5
30A
330
303
100
AcDbEntity
  8
2
  6
Continuous
 62
     4
370
    20
100
AcDbLine
 10
1604.462586140223
 20
1149.623858965845
 30
0.0
 11
1604.462586140223
 21
1155.623858965845
 31
0.0
  0
LINE
  5
30B
330
303
100
AcDbEntity
  8
2
  6
Continuous
 62
     4
370
    20
100
AcDbLine
 10
1604.462586140223
 20
1055.623858965845
 30
0.0
 11
1604.462586140223
 21
1061.623858965845
 31
0.0
  0
ENDBLK
  5
305
330
303
100
AcDbEntity
  8
0
100
AcDbBlockEnd
  0
BLOCK
  5
310
330
30F
100
AcDbEntity
  8
0
100
AcDbBlockBegin
  2
Dim15
 70
     0
 10
0.0
 20
0.0
 30
0.0
  3
Dim15
  1

  0
LINE
  5
312
330
30F
100
AcDbEntity
  8
2
  6
Continuous
 62
     4
370
    20
100
AcDbLine
 10
1604.462586140223
 20
1015.623858965845
 30
0.0
 11
1604.462586140223
 21
774.411239299317
 31
0.0
  0
LINE
  5
313
330
30F
100
AcDbEntity
  8
2
  6
Continuous
 62
     4
370
    20
100
AcDbLine
 10
1584.462586140223
 20
1010.23781165774
 30
0.0
 11
1584.462586140223
 21
774.411239299317
 31
0.0
  0
LINE
  5
314
330
30F
100
AcDbEntity
  8
2
  6
Continuous
 62
     4
370
    20
100
AcDbLine
 10
1690.819011815215
 20
794.411239299317
 30
0.0
 11
1584.462586140223
 21
794.411239299317
 31
0.0
  0
MTEXT
  5
315
330
30F
100
AcDbEntity
  8
2
  6
Continuous
 62
     4
370
     9
100
AcDbMText
 10
1630.819011815214
 20
794.411239299317
 30
0.0
 40
60.0
 41
456.6
 46
60.0
 71
     7
 72
     1
  1
20
  7
ＭＳ ゴシック
 73
     1
 44
1.0
1001
ACAD
1000
ACAD_MTEXT_DEFINED_HEIGHT_BEGIN
1070
    46
1040
60.0
1000
ACAD_MTEXT_DEFINED_HEIGHT_END
  0
INSERT
  5
316
330
30F
100
AcDbEntity
  8
2
  6
Continuous
 62
     4
370
    20
100
AcDbBlockReference
  2
_OPEN
 10
1604.462586140223
 20
794.411239299317
 30
0.0
 41
20.0
 42
20.0
 43
20.0
 50
179.9999999999995
  0
ENDBLK
  5
311
330
30F
100
AcDbEntity
  8
0
100
AcDbBlockEnd
  0
BLOCK
  5
319
330
318
100
AcDbEntity
  8
0
100
AcDbBlockBegin
  2
Dim16
 70
     0
 10
0.0
 20
0.0
 30
0.0
  3
Dim16
  1

  0
LINE
  5
31B
330
318
100
AcDbEntity
  8
2
  6
Continuous
 62
     4
370
    20
100
AcDbLine
 10
1029.462586140223
 20
1009.474784341444
 30
0.0
 11
1029.462586140223
 21
774.411239299317
 31
0.0
  0
LINE
  5
31C
330
318
100
AcDbEntity
  8
2
  6
Continuous
 62
     4
370
    20
100
AcDbLine
 10
1584.462586140223
 20
794.411239299317
 30
0.0
 11
1029.462586140223
 21
794.411239299317
 31
0.0
  0
MTEXT
  5
31D
330
318
100
AcDbEntity
  8
2
  6
Continuous
 62
     4
370
     9
100
AcDbMText
 10
1306.962586140222
 20
794.411239299317
 30
0.0
 40
60.0
 41
806.3999999999999
 46
60.0
 71
     8
 72
     1
  1
555
  7
ＭＳ ゴシック
 73
     1
 44
1.0
1001
ACAD
1000
ACAD_MTEXT_DEFINED_HEIGHT_BEGIN
1070
    46
1040
60.0
1000
ACAD_MTEXT_DEFINED_HEIGHT_END
  0
INSERT
  5
31E
330
318
100
AcDbEntity
  8
2
  6
Continuous
 62
     4
370
    20
100
AcDbBlockReference
  2
_OPEN
 10
1584.462586140223
 20
794.411239299317
 30
0.0
 41
20.0
 42
20.0
 43
20.0
 50
359.9999999999997
  0
INSERT
  5
31F
330
318
100
AcDbEntity
  8
2
  6
Continuous
 62
     4
370
    20
100
AcDbBlockReference
  2
_OPEN
 10
1029.462586140223
 20
794.411239299317
 30
0.0
 41
20.0
 42
20.0
 43
20.0
 50
179.9999999999999
  0
ENDBLK
  5
31A
330
318
100
AcDbEntity
  8
0
100
AcDbBlockEnd
  0
BLOCK
  5
322
330
321
100
AcDbEntity
  8
0
100
AcDbBlockBegin
  2
Dim17
 70
     0
 10
0.0
 20
0.0
 30
0.0
  3
Dim17
  1

  0
LINE
  5
324
330
321
100
AcDbEntity
  8
2
  6
Continuous
 62
     4
370
    20
100
AcDbLine
 10
1009.462586140223
 20
985.6238589658446
 30
0.0
 11
1009.462586140223
 21
774.411239299317
 31
0.0
  0
LINE
  5
325
330
321
100
AcDbEntity
  8
2
  6
Continuous
 62
     4
370
    20
100
AcDbLine
 10
1029.462586140223
 20
794.411239299317
 30
0.0
 11
933.3521211794771
 21
794.411239299317
 31
0.0
  0
MTEXT
  5
326
330
321
100
AcDbEntity
  8
2
  6
Continuous
 62
     4
370
     9
100
AcDbMText
 10
993.3521211794771
 20
794.411239299317
 30
0.0
 40
60.0
 41
456.6
 46
60.0
 71
     9
 72
     1
  1
20
  7
ＭＳ ゴシック
 73
     1
 44
1.0
1001
ACAD
1000
ACAD_MTEXT_DEFINED_HEIGHT_BEGIN
1070
    46
1040
60.0
1000
ACAD_MTEXT_DEFINED_HEIGHT_END
  0
INSERT
  5
327
330
321
100
AcDbEntity
  8
2
  6
Continuous
 62
     4
370
    20
100
AcDbBlockReference
  2
_OPEN
 10
1009.462586140223
 20
794.411239299317
 30
0.0
 41
20.0
 42
20.0
 43
20.0
 50
359.9999999999997
  0
ENDBLK
  5
323
330
321
100
AcDbEntity
  8
0
100
AcDbBlockEnd
  0
BLOCK
  5
32A
330
329
100
AcDbEntity
  8
0
100
AcDbBlockBegin
  2
Dim18
 70
     0
 10
0.0
 20
0.0
 30
0.0
  3
Dim18
  1

  0
LINE
  5
32C
330
329
100
AcDbEntity
  8
2
  6
Continuous
 62
     4
370
    20
100
AcDbLine
 10
1004.506669716804
 20
2603.323616937165
 30
0.0
 11
1004.506669716806
 21
2857.450064272185
 31
0.0
  0
LINE
  5
32D
330
329
100
AcDbEntity
  8
2
  6
Continuous
 62
     4
370
    20
100
AcDbLine
 10
1654.506669716805
 20
2603.323616937165
 30
0.0
 11
1654.506669716805
 21
2857.450064272185
 31
0.0
  0
LINE
  5
32E
330
329
100
AcDbEntity
  8
2
  6
Continuous
 62
     4
370
    20
100
AcDbLine
 10
1004.506669716806
 20
2837.450064272185
 30
0.0
 11
1654.506669716805
 21
2837.450064272185
 31
0.0
  0
MTEXT
  5
32F
330
329
100
AcDbEntity
  8
2
  6
Continuous
 62
     4
370
     9
100
AcDbMText
 10
1329.506669716806
 20
2837.450064272185
 30
0.0
 40
60.0
 41
756.5999999999999
 46
60.0
 71
     8
 72
     1
  1
650
  7
ＭＳ ゴシック
 73
     1
 44
1.0
1001
ACAD
1000
ACAD_MTEXT_DEFINED_HEIGHT_BEGIN
1070
    46
1040
60.0
1000
ACAD_MTEXT_DEFINED_HEIGHT_END
  0
INSERT
  5
330
330
329
100
AcDbEntity
  8
2
  6
Continuous
 62
     4
370
    20
100
AcDbBlockReference
  2
_OPEN
 10
1004.506669716806
 20
2837.450064272185
 30
0.0
 41
20.0
 42
20.0
 43
20.0
 50
179.9999999999998
  0
INSERT
  5
331
330
329
100
AcDbEntity
  8
2
  6
Continuous
 62
     4
370
    20
100
AcDbBlockReference
  2
_OPEN
 10
1654.506669716805
 20
2837.450064272185
 30
0.0
 41
20.0
 42
20.0
 43
20.0
 50
359.9999999999997
  0
ENDBLK
  5
32B
330
329
100
AcDbEntity
  8
0
100
AcDbBlockEnd
  0
BLOCK
  5
37A
330
379
100
AcDbEntity
  8
0
100
AcDbBlockBegin
  2
Dim19
 70
     0
 10
0.0
 20
0.0
 30
0.0
  3
Dim19
  1

  0
LINE
  5
37C
330
379
100
AcDbEntity
  8
20
  6
Continuous
 62
    52
370
    20
100
AcDbLine
 10
3210.112173105013
 20
1015.623858965847
 30
0.0
 11
3210.112173105013
 21
890.9923303220289
 31
0.0
  0
LINE
  5
37D
330
379
100
AcDbEntity
  8
20
  6
Continuous
 62
    52
370
    20
100
AcDbLine
 10
3170.112173105014
 20
998.6238589658469
 30
0.0
 11
3170.112173105014
 21
890.9923303220289
 31
0.0
  0
LINE
  5
37E
330
379
100
AcDbEntity
  8
20
  6
Continuous
 62
    52
370
    20
100
AcDbLine
 10
3296.920317702314
 20
910.9923303220289
 30
0.0
 11
3170.112173105014
 21
910.9923303220289
 31
0.0
  0
MTEXT
  5
37F
330
379
100
AcDbEntity
  8
20
  6
Continuous
 62
    52
370
     9
100
AcDbMText
 10
3236.920317702314
 20
910.9923303220289
 30
0.0
 40
60.0
 41
460.2
 46
60.0
 71
     7
 72
     1
  1
40
  7
ＭＳ ゴシック
 73
     1
 44
1.0
1001
ACAD
1000
ACAD_MTEXT_DEFINED_HEIGHT_BEGIN
1070
    46
1040
60.0
1000
ACAD_MTEXT_DEFINED_HEIGHT_END
  0
INSERT
  5
380
330
379
100
AcDbEntity
  8
20
  6
Continuous
 62
    52
370
    20
100
AcDbBlockReference
  2
_OPEN
 10
3210.112173105013
 20
910.9923303220289
 30
0.0
 41
20.0
 42
20.0
 43
20.0
 50
359.9999999999997
  0
INSERT
  5
381
330
379
100
AcDbEntity
  8
20
  6
Continuous
 62
    52
370
    20
100
AcDbBlockReference
  2
_OPEN
 10
3170.112173105014
 20
910.9923303220289
 30
0.0
 41
20.0
 42
20.0
 43
20.0
 50
179.9999999999999
  0
ENDBLK
  5
37B
330
379
100
AcDbEntity
  8
0
100
AcDbBlockEnd
  0
BLOCK
  5
384
330
383
100
AcDbEntity
  8
0
100
AcDbBlockBegin
  2
Dim20
 70
     0
 10
0.0
 20
0.0
 30
0.0
  3
Dim20
  1

  0
LINE
  5
386
330
383
100
AcDbEntity
  8
20
  6
Continuous
 62
    52
370
    20
100
AcDbLine
 10
3015.112173105013
 20
1015.623858965847
 30
0.0
 11
3015.112173105013
 21
890.9923303220289
 31
0.0
  0
LINE
  5
387
330
383
100
AcDbEntity
  8
20
  6
Continuous
 62
    52
370
    20
100
AcDbLine
 10
3170.112173105014
 20
910.9923303220289
 30
0.0
 11
3015.112173105013
 21
910.9923303220289
 31
0.0
  0
MTEXT
  5
388
330
383
100
AcDbEntity
  8
20
  6
Continuous
 62
    52
370
     9
100
AcDbMText
 10
3092.612173105013
 20
910.9923303220289
 30
0.0
 40
60.0
 41
705.6
 46
60.0
 71
     8
 72
     1
  1
155
  7
ＭＳ ゴシック
 73
     1
 44
1.0
1001
ACAD
1000
ACAD_MTEXT_DEFINED_HEIGHT_BEGIN
1070
    46
1040
60.0
1000
ACAD_MTEXT_DEFINED_HEIGHT_END
  0
INSERT
  5
389
330
383
100
AcDbEntity
  8
20
  6
Continuous
 62
    52
370
    20
100
AcDbBlockReference
  2
_OPEN
 10
3170.112173105014
 20
910.9923303220289
 30
0.0
 41
20.0
 42
20.0
 43
20.0
 50
359.9999999999997
  0
INSERT
  5
38A
330
383
100
AcDbEntity
  8
20
  6
Continuous
 62
    52
370
    20
100
AcDbBlockReference
  2
_OPEN
 10
3015.112173105013
 20
910.9923303220289
 30
0.0
 41
20.0
 42
20.0
 43
20.0
 50
179.9999999999999
  0
ENDBLK
  5
385
330
383
100
AcDbEntity
  8
0
100
AcDbBlockEnd
  0
ENDSEC
  0
SECTION
  2
ENTITIES
  0
LINE
  5
AF
330
1F
100
AcDbEntity
  8
2
  6
Continuous
 62
     4
370
    20
100
AcDbLine
 10
2590.112173105012
 20
1155.623858965847
 30
0.0
 11
3190.112173105013
 21
1155.623858965847
 31
0.0
  0
INSERT
  5
B7
330
1F
100
AcDbEntity
  8
0
100
AcDbBlockReference
  2
*G16
 10
0.0
 20
0.0
 30
0.0
  0
LINE
  5
B8
330
1F
100
AcDbEntity
  8
2
  6
Continuous
 62
     4
370
    20
100
AcDbLine
 10
3210.112173105013
 20
1149.623858965847
 30
0.0
 11
2570.112173105012
 21
1149.623858965847
 31
0.0
  0
LINE
  5
B9
330
1F
100
AcDbEntity
  8
2
  6
Continuous
 62
     4
370
    20
100
AcDbLine
 10
2570.112173105012
 20
1061.623858965847
 30
0.0
 11
3210.112173105013
 21
1061.623858965847
 31
0.0
  0
LINE
  5
BA
330
1F
100
AcDbEntity
  8
2
  6
HIDDEN
 62
     4
370
    20
100
AcDbLine
 10
3170.112173105013
 20
1055.623858965847
 30
0.0
 11
3170.112173105013
 21
1155.623858965847
 31
0.0
  0
LINE
  5
BB
330
1F
100
AcDbEntity
  8
2
  6
HIDDEN
 62
     4
370
    20
100
AcDbLine
 10
3176.112173105013
 20
1149.623858965847
 30
0.0
 11
3176.112173105013
 21
1061.623858965847
 31
0.0
  0
LINE
  5
BC
330
1F
100
AcDbEntity
  8
2
  6
Continuous
 62
     4
370
    20
100
AcDbLine
 10
2640.112173105012
 20
1069.204206798496
 30
0.0
 11
2640.112173105012
 21
1045.931873651455
 31
0.0
  0
LINE
  5
BD
330
1F
100
AcDbEntity
  8
2
  6
Continuous
 62
     4
370
    20
100
AcDbLine
 10
3140.112173105013
 20
1068.822693140348
 30
0.0
 11
3140.112173105013
 21
1048.220955600344
 31
0.0
  0
LINE
  5
BE
330
1F
100
AcDbEntity
  8
2
  6
Continuous
 62
     4
370
    20
100
AcDbLine
 10
3215.112173105013
 20
2555.623858965848
 30
0.0
 11
3215.112173105013
 21
2414.92361693717
 31
0.0
  0
LINE
  5
BF
330
1F
100
AcDbEntity
  8
2
  6
Continuous
 62
     4
370
    20
100
AcDbLine
 10
2565.112173105012
 20
2555.623858965848
 30
0.0
 11
2565.112173105012
 21
2414.92361693717
 31
0.0
  0
LINE
  5
C0
330
1F
100
AcDbEntity
  8
2
  6
Continuous
 62
     4
370
    20
100
AcDbLine
 10
2565.112173105012
 20
2555.623858965848
 30
0.0
 11
3215.112173105013
 21
2555.623858965848
 31
0.0
  0
LINE
  5
C1
330
1F
100
AcDbEntity
  8
2
  6
Continuous
 62
     4
370
    20
100
AcDbLine
 10
2565.112173105012
 20
2384.92361693717
 30
0.0
 11
3215.112173105013
 21
2384.92361693717
 31
0.0
  0
LINE
  5
C2
330
1F
100
AcDbEntity
  8
2
  6
Continuous
 62
     4
370
    20
100
AcDbLine
 10
2565.112173105012
 20
1155.623858965847
 30
0.0
 11
2565.112173105012
 21
2384.92361693717
 31
0.0
  0
LINE
  5
C3
330
1F
100
AcDbEntity
  8
2
  6
Continuous
 62
     4
370
    20
100
AcDbLine
 10
3215.112173105013
 20
2384.92361693717
 30
0.0
 11
3215.112173105013
 21
1155.623858965847
 31
0.0
  0
LINE
  5
C4
330
1F
100
AcDbEntity
  8
2
  6
Continuous
 62
     4
370
    20
100
AcDbLine
 10
2590.112173105012
 20
1155.623858965847
 30
0.0
 11
2565.112173105012
 21
1155.623858965847
 31
0.0
  0
LINE
  5
C5
330
1F
100
AcDbEntity
  8
2
  6
Continuous
 62
     4
370
    20
100
AcDbLine
 10
3190.112173105013
 20
1155.623858965847
 30
0.0
 11
3215.112173105013
 21
1155.623858965847
 31
0.0
  0
LINE
  5
C6
330
1F
100
AcDbEntity
  8
2
  6
DASHDOT
 62
     4
370
    20
100
AcDbLine
 10
2646.703687161111
 20
1770.273737951509
 30
0.0
 11
2696.70368716111
 21
1770.273737951509
 31
0.0
  0
ARC
  5
C7
330
1F
100
AcDbEntity
  8
2
  6
Continuous
 62
     4
370
    20
100
AcDbCircle
 10
2671.703687161111
 20
1770.273737951509
 30
0.0
 40
13.24999999999999
100
AcDbArc
 50
0.0
 51
179.9999999999998
  0
LINE
  5
C8
330
1F
100
AcDbEntity
  8
2
  6
Continuous
 62
     4
370
    20
100
AcDbLine
 10
2658.453687161111
 20
1770.273737951509
 30
0.0
 11
2658.453687161111
 21
1675.073737951509
 31
0.0
  0
LINE
  5
C9
330
1F
100
AcDbEntity
  8
2
  6
Continuous
 62
     4
370
    20
100
AcDbLine
 10
2662.453687161111
 20
1671.073737951509
 30
0.0
 11
2680.953687161111
 21
1671.073737951509
 31
0.0
  0
LINE
  5
CA
330
1F
100
AcDbEntity
  8
2
  6
Continuous
 62
     4
370
    20
100
AcDbLine
 10
2684.953687161111
 20
1675.073737951509
 30
0.0
 11
2684.953687161111
 21
1770.273737951509
 31
0.0
  0
ARC
  5
CB
330
1F
100
AcDbEntity
  8
2
  6
Continuous
 62
     4
370
    20
100
AcDbCircle
 10
2680.953687161111
 20
1675.073737951509
 30
0.0
 40
4.0
100
AcDbArc
 50
269.9999999999998
 51
0.0
  0
ARC
  5
CC
330
1F
100
AcDbEntity
  8
2
  6
Continuous
 62
     4
370
    20
100
AcDbCircle
 10
2662.453687161111
 20
1675.073737951509
 30
0.0
 40
4.0
100
AcDbArc
 50
179.9999999999998
 51
269.9999999999998
  0
ARC
  5
CD
330
1F
100
AcDbEntity
  8
2
  6
Continuous
 62
     4
370
    20
100
AcDbCircle
 10
2671.703687161111
 20
1770.273737951509
 30
0.0
 40
13.7
100
AcDbArc
 50
0.0
 51
179.9999999999998
  0
ARC
  5
CE
330
1F
100
AcDbEntity
  8
2
  6
Continuous
 62
     4
370
    20
100
AcDbCircle
 10
2670.881893161109
 20
1642.773737951509
 30
0.0
 40
0.5
100
AcDbArc
 50
188.1545630000596
 51
269.9999999999998
  0
ARC
  5
CF
330
1F
100
AcDbEntity
  8
2
  6
Continuous
 62
     4
370
    20
100
AcDbCircle
 10
2672.525482161111
 20
1642.773737951509
 30
0.0
 40
0.5
100
AcDbArc
 50
269.9999999999998
 51
351.8454369999693
  0
ARC
  5
D0
330
1F
100
AcDbEntity
  8
2
  6
Continuous
 62
     4
370
    20
100
AcDbCircle
 10
2672.525482161111
 20
1647.773737951509
 30
0.0
 40
0.5
100
AcDbArc
 50
8.154563000030414
 51
89.99999999999991
  0
ARC
  5
D1
330
1F
100
AcDbEntity
  8
2
  6
Continuous
 62
     4
370
    20
100
AcDbCircle
 10
2670.881893161109
 20
1647.773737951509
 30
0.0
 40
0.5
100
AcDbArc
 50
89.99999999999991
 51
171.84543699994
  0
ARC
  5
D2
330
1F
100
AcDbEntity
  8
2
  6
Continuous
 62
     4
370
    20
100
AcDbCircle
 10
2655.078687161111
 20
1645.273737951509
 30
0.0
 40
18.125
100
AcDbArc
 50
351.8454369999988
 51
8.154563000000849
  0
ARC
  5
D3
330
1F
100
AcDbEntity
  8
2
  6
Continuous
 62
     4
370
    20
100
AcDbCircle
 10
2688.328687161111
 20
1645.273737951509
 30
0.0
 40
18.125
100
AcDbArc
 50
171.8454369999992
 51
188.1545630000005
  0
LINE
  5
D4
330
1F
100
AcDbEntity
  8
2
  6
Continuous
 62
     4
370
    20
100
AcDbLine
 10
2672.525482161111
 20
1642.273737951509
 30
0.0
 11
2670.881893161109
 21
1642.273737951509
 31
0.0
  0
LINE
  5
D5
330
1F
100
AcDbEntity
  8
2
  6
Continuous
 62
     4
370
    20
100
AcDbLine
 10
2672.525482161111
 20
1648.273737951509
 30
0.0
 11
2670.881893161109
 21
1648.273737951509
 31
0.0
  0
CIRCLE
  5
D6
330
1F
100
AcDbEntity
  8
2
  6
Continuous
 62
     4
370
    20
100
AcDbCircle
 10
2671.703687161111
 20
1645.273737951509
 30
0.0
 40
6.999999999999986
  0
LINE
  5
D7
330
1F
100
AcDbEntity
  8
2
  6
DASHDOT
 62
     4
370
    20
100
AcDbLine
 10
2686.703687161111
 20
1645.273737951509
 30
0.0
 11
2656.703687161111
 21
1645.273737951509
 31
0.0
  0
LINE
  5
D8
330
1F
100
AcDbEntity
  8
2
  6
Continuous
 62
     4
370
    20
100
AcDbLine
 10
2685.40368716111
 20
1770.273737951509
 30
0.0
 11
2685.40368716111
 21
1674.273737951509
 31
0.0
  0
ARC
  5
D9
330
1F
100
AcDbEntity
  8
2
  6
Continuous
 62
     4
370
    20
100
AcDbCircle
 10
2653.203687161111
 20
1631.773737951509
 30
0.0
 40
1.5
100
AcDbArc
 50
179.9999999999998
 51
269.9999999999998
  0
ARC
  5
DA
330
1F
100
AcDbEntity
  8
2
  6
Continuous
 62
     4
370
    20
100
AcDbCircle
 10
2690.203687161111
 20
1631.773737951509
 30
0.0
 40
1.5
100
AcDbArc
 50
269.9999999999998
 51
0.0
  0
ARC
  5
DB
330
1F
100
AcDbEntity
  8
2
  6
Continuous
 62
     4
370
    20
100
AcDbCircle
 10
2690.203687161111
 20
1788.773737951509
 30
0.0
 40
1.5
100
AcDbArc
 50
0.0
 51
89.99999999999991
  0
ARC
  5
DC
330
1F
100
AcDbEntity
  8
2
  6
Continuous
 62
     4
370
    20
100
AcDbCircle
 10
2653.203687161111
 20
1788.773737951509
 30
0.0
 40
1.5
100
AcDbArc
 50
89.99999999999991
 51
179.9999999999998
  0
LINE
  5
DD
330
1F
100
AcDbEntity
  8
2
  6
Continuous
 62
     4
370
    20
100
AcDbLine
 10
2655.703687161111
 20
1788.273737951509
 30
0.0
 11
2652.303687161109
 21
1789.973737951509
 31
0.0
  0
LINE
  5
DE
330
1F
100
AcDbEntity
  8
2
  6
Continuous
 62
     4
370
    20
100
AcDbLine
 10
2655.703687161111
 20
1632.273737951509
 30
0.0
 11
2652.303687161109
 21
1630.573737951509
 31
0.0
  0
LINE
  5
DF
330
1F
100
AcDbEntity
  8
2
  6
Continuous
 62
     4
370
    20
100
AcDbLine
 10
2655.703687161111
 20
1788.273737951509
 30
0.0
 11
2655.703687161111
 21
1632.273737951509
 31
0.0
  0
LINE
  5
E0
330
1F
100
AcDbEntity
  8
2
  6
Continuous
 62
     4
370
    20
100
AcDbLine
 10
2687.703687161111
 20
1632.273737951509
 30
0.0
 11
2691.10368716111
 21
1630.573737951509
 31
0.0
  0
LINE
  5
E1
330
1F
100
AcDbEntity
  8
2
  6
Continuous
 62
     4
370
    20
100
AcDbLine
 10
2687.703687161111
 20
1788.273737951509
 30
0.0
 11
2691.10368716111
 21
1789.973737951509
 31
0.0
  0
LINE
  5
E2
330
1F
100
AcDbEntity
  8
2
  6
DASHDOT
 62
     4
370
    20
100
AcDbLine
 10
2671.703687161111
 20
1625.273737951509
 30
0.0
 11
2671.703687161111
 21
1795.273737951509
 31
0.0
  0
LINE
  5
E3
330
1F
100
AcDbEntity
  8
2
  6
Continuous
 62
     4
370
    20
100
AcDbLine
 10
2687.703687161111
 20
1632.273737951509
 30
0.0
 11
2655.703687161111
 21
1632.273737951509
 31
0.0
  0
LINE
  5
E4
330
1F
100
AcDbEntity
  8
2
  6
Continuous
 62
     4
370
    20
100
AcDbLine
 10
2687.703687161111
 20
1788.273737951509
 30
0.0
 11
2655.703687161111
 21
1788.273737951509
 31
0.0
  0
LINE
  5
E5
330
1F
100
AcDbEntity
  8
2
  6
Continuous
 62
     4
370
    20
100
AcDbLine
 10
2687.703687161111
 20
1788.273737951509
 30
0.0
 11
2687.703687161111
 21
1632.273737951509
 31
0.0
  0
LINE
  5
E6
330
1F
100
AcDbEntity
  8
2
  6
Continuous
 62
     4
370
    20
100
AcDbLine
 10
2690.203687161111
 20
1630.273737951509
 30
0.0
 11
2653.203687161111
 21
1630.273737951509
 31
0.0
  0
LINE
  5
E7
330
1F
100
AcDbEntity
  8
2
  6
Continuous
 62
     4
370
    20
100
AcDbLine
 10
2691.70368716111
 20
1788.773737951509
 30
0.0
 11
2691.70368716111
 21
1631.773737951509
 31
0.0
  0
LINE
  5
E8
330
1F
100
AcDbEntity
  8
2
  6
Continuous
 62
     4
370
    20
100
AcDbLine
 10
2653.203687161111
 20
1790.273737951509
 30
0.0
 11
2690.203687161111
 21
1790.273737951509
 31
0.0
  0
LINE
  5
E9
330
1F
100
AcDbEntity
  8
2
  6
Continuous
 62
     4
370
    20
100
AcDbLine
 10
2651.703687161111
 20
1631.773737951509
 30
0.0
 11
2651.703687161111
 21
1788.773737951509
 31
0.0
  0
ARC
  5
EA
330
1F
100
AcDbEntity
  8
2
  6
Continuous
 62
     4
370
    20
100
AcDbCircle
 10
2662.00368716111
 20
1674.273737951509
 30
0.0
 40
4.0
100
AcDbArc
 50
179.9999999999998
 51
253.1420439999931
  0
ARC
  5
EB
330
1F
100
AcDbEntity
  8
2
  6
Continuous
 62
     4
370
    20
100
AcDbCircle
 10
2682.85368716111
 20
1669.488604951508
 30
0.0
 40
1.0
100
AcDbArc
 50
106.8579560000028
 51
179.9999999999998
  0
LINE
  5
EC
330
1F
100
AcDbEntity
  8
2
  6
Continuous
 62
     4
370
    20
100
AcDbLine
 10
2658.00368716111
 20
1674.273737951509
 30
0.0
 11
2658.00368716111
 21
1770.273737951509
 31
0.0
  0
ARC
  5
ED
330
1F
100
AcDbEntity
  8
2
  6
Continuous
 62
     4
370
    20
100
AcDbCircle
 10
2671.703687161111
 20
1645.273737951509
 30
0.0
 40
10.14999999999999
100
AcDbArc
 50
179.9999999999998
 51
0.0
  0
LINE
  5
EE
330
1F
100
AcDbEntity
  8
2
  6
Continuous
 62
     4
370
    20
100
AcDbLine
 10
2681.85368716111
 20
1669.488604951508
 30
0.0
 11
2681.85368716111
 21
1645.273737951509
 31
0.0
  0
LINE
  5
EF
330
1F
100
AcDbEntity
  8
2
  6
Continuous
 62
     4
370
    20
100
AcDbLine
 10
2661.553687161109
 20
1669.488604951508
 30
0.0
 11
2661.553687161109
 21
1645.273737951509
 31
0.0
  0
ARC
  5
F0
330
1F
100
AcDbEntity
  8
2
  6
Continuous
 62
     4
370
    20
100
AcDbCircle
 10
2681.40368716111
 20
1674.273737951509
 30
0.0
 40
4.0
100
AcDbArc
 50
286.8579560000062
 51
0.0
  0
ARC
  5
F1
330
1F
100
AcDbEntity
  8
2
  6
Continuous
 62
     4
370
    20
100
AcDbCircle
 10
2660.553687161109
 20
1669.488604951508
 30
0.0
 40
1.0
100
AcDbArc
 50
0.0
 51
73.14204399999724
  0
INSERT
  5
145
330
1F
100
AcDbEntity
  8
1
100
AcDbBlockReference
  2
*G17
 10
0.0
 20
0.0
 30
0.0
  0
LINE
  5
146
330
1F
100
AcDbEntity
  8
2
  6
Continuous
 62
     4
370
    20
100
AcDbLine
 10
2680.703687161111
 20
1670.273737951509
 30
0.0
 11
2662.703687161111
 21
1670.273737951509
 31
0.0
  0
ARC
  5
147
330
1F
100
AcDbEntity
  8
2
  6
Continuous
 62
     4
370
    20
100
AcDbCircle
 10
2680.703687161111
 20
1669.273737951509
 30
0.0
 40
1.0
100
AcDbArc
 50
0.0
 51
89.99999999999991
  0
ARC
  5
148
330
1F
100
AcDbEntity
  8
2
  6
Continuous
 62
     4
370
    20
100
AcDbCircle
 10
2662.703687161111
 20
1669.273737951509
 30
0.0
 40
1.0
100
AcDbArc
 50
89.99999999999991
 51
179.9999999999998
  0
ARC
  5
149
330
1F
100
AcDbEntity
  8
2
  6
Continuous
 62
     4
370
    20
100
AcDbCircle
 10
2671.703687161111
 20
1645.273737951509
 30
0.0
 40
9.999999999999986
100
AcDbArc
 50
179.9999999999998
 51
0.0
  0
LINE
  5
14A
330
1F
100
AcDbEntity
  8
2
  6
Continuous
 62
     4
370
    20
100
AcDbLine
 10
2681.703687161111
 20
1671.144679951509
 30
0.0
 11
2681.703687161111
 21
1645.273737951509
 31
0.0
  0
LINE
  5
14B
330
1F
100
AcDbEntity
  8
2
  6
Continuous
 62
     4
370
    20
100
AcDbLine
 10
2661.703687161111
 20
1645.273737951509
 30
0.0
 11
2661.703687161111
 21
1671.144679951509
 31
0.0
  0
INSERT
  5
152
330
1F
100
AcDbEntity
  8
0
100
AcDbBlockReference
  2
*G19
 10
0.0
 20
0.0
 30
0.0
  0
DIMENSION
  5
15D
330
1F
100
AcDbEntity
  8
2
  6
Continuous
 62
     4
370
    20
100
AcDbDimension
  2
Dim1
 10
3210.112173105011
 20
682.6347921935308
 30
0.0
 11
2890.112173105011
 21
682.6347921935308
 31
0.0
 70
   160
  1
<>
 71
     8
 42
-1.0
 73
     0
 74
     0
 75
     0
  3
Standard
100
AcDbAlignedDimension
 13
2570.112173105012
 23
1055.623858965847
 33
0.0
 14
3210.112173105013
 24
1055.623858965847
 34
0.0
100
AcDbRotatedDimension
1001
ACAD
1000
DSTYLE
1002
{
1070
   279
1070
     1
1070
   340
1005
153
1070
   140
1040
60.0
1070
    40
1040
1.0
1070
   147
1040
0.0
1070
    76
1070
     0
1070
    75
1070
     0
1070
   344
1005
51
1070
   343
1005
51
1070
   173
1070
     1
1070
   289
1070
     2
1070
   288
1070
     1
1070
    77
1070
     1
1070
   172
1070
     1
1070
   174
1070
     0
1070
    74
1070
     0
1070
    73
1070
     0
1070
   284
1070
     8
1070
    78
1070
     8
1070
    42
1040
40.0
1070
    44
1040
20.0
1070
    43
1040
10.0
1070
   271
1070
     2
1070
    41
1040
20.0
1002
}
  0
DIMENSION
  5
167
330
1F
100
AcDbEntity
  8
2
  6
Continuous
 62
     4
370
    20
100
AcDbDimension
  2
Dim2
 10
2640.112173105012
 20
794.4112392993197
 30
0.0
 11
2605.112173105012
 21
794.4112392993197
 31
0.0
 70
   160
  1
70
 71
     8
 42
-1.0
 73
     0
 74
     0
 75
     0
  3
Standard
100
AcDbAlignedDimension
 13
2570.112173105012
 23
1055.623858965847
 33
0.0
 14
2640.112173105012
 24
1045.931873651455
 34
0.0
100
AcDbRotatedDimension
1001
ACAD
1000
DSTYLE
1002
{
1070
   279
1070
     1
1070
   340
1005
153
1070
   140
1040
60.0
1070
    40
1040
1.0
1070
   147
1040
0.0
1070
    76
1070
     0
1070
    75
1070
     0
1070
   344
1005
51
1070
   343
1005
51
1070
   173
1070
     1
1070
   289
1070
     2
1070
   288
1070
     1
1070
    77
1070
     1
1070
   172
1070
     1
1070
   174
1070
     0
1070
    74
1070
     0
1070
    73
1070
     0
1070
   284
1070
     8
1070
    78
1070
     8
1070
    42
1040
40.0
1070
    44
1040
20.0
1070
    43
1040
10.0
1070
   271
1070
     2
1070
    41
1040
20.0
1002
}
  0
DIMENSION
  5
170
330
1F
100
AcDbEntity
  8
2
  6
Continuous
 62
     4
370
    20
100
AcDbDimension
  2
Dim3
 10
3140.112173105013
 20
794.4112392993197
 30
0.0
 11
2890.112173105011
 21
794.4112392993197
 31
0.0
 70
   160
  1
500
 71
     8
 42
-1.0
 73
     0
 74
     0
 75
     0
  3
Standard
100
AcDbAlignedDimension
 13
2640.112173105012
 23
1045.931873651455
 33
0.0
 14
3140.112173105013
 24
1048.220955600344
 34
0.0
100
AcDbRotatedDimension
1001
ACAD
1000
DSTYLE
1002
{
1070
   279
1070
     1
1070
   340
1005
153
1070
   140
1040
60.0
1070
    40
1040
1.0
1070
   147
1040
0.0
1070
    76
1070
     0
1070
    75
1070
     1
1070
   344
1005
51
1070
   343
1005
51
1070
   173
1070
     1
1070
   289
1070
     2
1070
   288
1070
     1
1070
    77
1070
     1
1070
   172
1070
     1
1070
   174
1070
     0
1070
    74
1070
     0
1070
    73
1070
     0
1070
   284
1070
     8
1070
    78
1070
     8
1070
    42
1040
40.0
1070
    44
1040
20.0
1070
    43
1040
10.0
1070
   271
1070
     2
1070
    41
1040
20.0
1002
}
  0
DIMENSION
  5
179
330
1F
100
AcDbEntity
  8
2
  6
Continuous
 62
     4
370
    20
100
AcDbDimension
  2
Dim4
 10
3210.112173105013
 20
794.4112392993197
 30
0.0
 11
3175.112173105014
 21
794.4112392993197
 31
0.0
 70
   160
  1
70
 71
     8
 42
-1.0
 73
     0
 74
     0
 75
     0
  3
Standard
100
AcDbAlignedDimension
 13
3140.112173105013
 23
1048.220955600344
 33
0.0
 14
3210.112173105013
 24
1055.623858965847
 34
0.0
100
AcDbRotatedDimension
1001
ACAD
1000
DSTYLE
1002
{
1070
   279
1070
     1
1070
   340
1005
153
1070
   140
1040
60.0
1070
    40
1040
1.0
1070
   147
1040
0.0
1070
    76
1070
     0
1070
    75
1070
     1
1070
   344
1005
51
1070
   343
1005
51
1070
   173
1070
     1
1070
   289
1070
     2
1070
   288
1070
     1
1070
    77
1070
     1
1070
   172
1070
     1
1070
   174
1070
     0
1070
    74
1070
     0
1070
    73
1070
     0
1070
   284
1070
     8
1070
    78
1070
     8
1070
    42
1040
40.0
1070
    44
1040
20.0
1070
    43
1040
10.0
1070
   271
1070
     2
1070
    41
1040
20.0
1002
}
  0
DIMENSION
  5
183
330
1F
100
AcDbEntity
  8
2
  6
Continuous
 62
     4
370
    20
100
AcDbDimension
  2
Dim5
 10
3215.112173105013
 20
2829.750306300868
 30
0.0
 11
2890.112173105013
 21
2829.750306300868
 31
0.0
 70
   160
  1
<>
 71
     8
 42
-1.0
 73
     0
 74
     0
 75
     0
  3
Standard
100
AcDbAlignedDimension
 13
2565.112173105012
 23
2555.623858965848
 33
0.0
 14
3215.112173105013
 24
2555.623858965848
 34
0.0
100
AcDbRotatedDimension
1001
ACAD
1000
DSTYLE
1002
{
1070
   279
1070
     1
1070
   340
1005
153
1070
   140
1040
60.0
1070
    40
1040
1.0
1070
   147
1040
0.0
1070
    76
1070
     0
1070
    75
1070
     0
1070
   344
1005
51
1070
   343
1005
51
1070
   173
1070
     1
1070
   289
1070
     2
1070
   288
1070
     1
1070
    77
1070
     1
1070
   172
1070
     1
1070
   174
1070
     0
1070
    74
1070
     0
1070
    73
1070
     0
1070
   284
1070
     8
1070
    78
1070
     8
1070
    42
1040
40.0
1070
    44
1040
20.0
1070
    43
1040
10.0
1070
   271
1070
     2
1070
    41
1040
20.0
1002
}
  0
DIMENSION
  5
18D
330
1F
100
AcDbEntity
  8
2
  6
Continuous
 62
     4
370
    20
100
AcDbDimension
  2
Dim6
 10
2423.521269972292
 20
1155.623858965848
 30
0.0
 11
2423.521269972292
 21
1105.623858965848
 31
0.0
 70
   160
  1
<>
 71
     8
 42
-1.0
 73
     0
 74
     0
 75
     0
  3
Standard
100
AcDbAlignedDimension
 13
2570.112173105012
 23
1055.623858965847
 33
0.0
 14
2570.112173105012
 24
1155.623858965847
 34
0.0
 50
89.99999999999991
100
AcDbRotatedDimension
1001
ACAD
1000
DSTYLE
1002
{
1070
   279
1070
     1
1070
   340
1005
153
1070
   140
1040
60.0
1070
    40
1040
1.0
1070
   147
1040
0.0
1070
    76
1070
     0
1070
    75
1070
     0
1070
   344
1005
51
1070
   343
1005
51
1070
   173
1070
     1
1070
   289
1070
     2
1070
   288
1070
     1
1070
    77
1070
     1
1070
   172
1070
     1
1070
   174
1070
     0
1070
    74
1070
     0
1070
    73
1070
     0
1070
   284
1070
     8
1070
    78
1070
     8
1070
    42
1040
40.0
1070
    44
1040
20.0
1070
    43
1040
10.0
1070
   271
1070
     2
1070
    41
1040
20.0
1002
}
  0
DIMENSION
  5
197
330
1F
100
AcDbEntity
  8
2
  6
Continuous
 62
     4
370
    20
100
AcDbDimension
  2
Dim7
 10
2323.946205195577
 20
1055.623858965848
 30
0.0
 11
2323.946205195577
 21
1805.623858965849
 31
0.0
 70
   160
  1
<>
 71
     8
 42
-1.0
 73
     0
 74
     0
 75
     0
 53
89.99999999999991
  3
Standard
100
AcDbAlignedDimension
 13
2565.112173105012
 23
2555.623858965848
 33
0.0
 14
2570.112173105012
 24
1055.623858965847
 34
0.0
 50
-89.99999999999991
100
AcDbRotatedDimension
1001
ACAD
1000
DSTYLE
1002
{
1070
   279
1070
     1
1070
   340
1005
153
1070
   140
1040
60.0
1070
    40
1040
1.0
1070
   147
1040
0.0
1070
    76
1070
     0
1070
    75
1070
     0
1070
   344
1005
51
1070
   343
1005
51
1070
   173
1070
     1
1070
   289
1070
     2
1070
   288
1070
     1
1070
    77
1070
     1
1070
   172
1070
     1
1070
   174
1070
     0
1070
    74
1070
     0
1070
    73
1070
     0
1070
   284
1070
     8
1070
    78
1070
     8
1070
    42
1040
40.0
1070
    44
1040
20.0
1070
    43
1040
10.0
1070
   271
1070
     2
1070
    41
1040
20.0
1002
}
  0
INSERT
  5
198
330
1F
100
AcDbEntity
  8
2
  6
Continuous
 62
     4
370
    20
100
AcDbBlockReference
  2
_OPEN
 10
2663.347099317803
 20
1781.129954586096
 30
0.0
 41
40.0
 42
40.0
 43
40.0
 50
314.8056648572006
  0
POLYLINE
  5
199
330
1F
100
AcDbEntity
  8
2
  6
Continuous
 62
     4
370
    20
100
AcDb2dPolyline
 66
     1
 10
0.0
 20
0.0
 30
0.0
  0
VERTEX
  5
19A
330
199
100
AcDbEntity
  8
2
  6
Continuous
 62
     4
370
    20
100
AcDbVertex
100
AcDb2dVertex
 10
2663.347099317803
 20
1781.129954586096
 30
0.0
  0
VERTEX
  5
19B
330
199
100
AcDbEntity
  8
2
  6
Continuous
 62
     4
370
    20
100
AcDbVertex
100
AcDb2dVertex
 10
2170.076977943627
 20
2277.757612337262
 30
0.0
  0
VERTEX
  5
19C
330
199
100
AcDbEntity
  8
2
  6
Continuous
 62
     4
370
    20
100
AcDbVertex
100
AcDb2dVertex
 10
1810.076977943627
 20
2277.757612337262
 30
0.0
  0
SEQEND
  5
19D
330
199
100
AcDbEntity
  8
2
  6
Continuous
 62
     4
370
    20
  0
MTEXT
  5
19E
330
1F
100
AcDbEntity
  8
2
  6
Continuous
 62
     4
370
     9
100
AcDbMText
 10
2170.076977943627
 20
2277.757612337262
 30
0.0
 40
60.0
 41
549.4654499999999
 46
60.0
 71
     9
 72
     1
  1
{\fＭＳ ゴシック;\T0.750000;ドアハンドル}
 73
     1
 44
1.0
1001
ACAD
1000
ACAD_MTEXT_DEFINED_HEIGHT_BEGIN
1070
    46
1040
60.0
1000
ACAD_MTEXT_DEFINED_HEIGHT_END
  0
INSERT
  5
19F
330
1F
100
AcDbEntity
  8
2
  6
Continuous
 62
     4
370
    20
100
AcDbBlockReference
  2
_OPEN
 10
2640.112173105011
 20
1055.623858965847
 30
0.0
 41
40.0
 42
40.0
 43
40.0
 50
56.82550489942263
  0
POLYLINE
  5
1A0
330
1F
100
AcDbEntity
  8
2
  6
Continuous
 62
     4
370
    20
100
AcDb2dPolyline
 66
     1
 10
0.0
 20
0.0
 30
0.0
  0
VERTEX
  5
1A1
330
1A0
100
AcDbEntity
  8
2
  6
Continuous
 62
     4
370
    20
100
AcDbVertex
100
AcDb2dVertex
 10
2640.112173105011
 20
1055.623858965847
 30
0.0
  0
VERTEX
  5
1A2
330
1A0
100
AcDbEntity
  8
2
  6
Continuous
 62
     4
370
    20
100
AcDbVertex
100
AcDb2dVertex
 10
2388.6222133366
 20
670.9332811612062
 30
0.0
  0
VERTEX
  5
1A3
330
1A0
100
AcDbEntity
  8
2
  6
Continuous
 62
     4
370
    20
100
AcDbVertex
100
AcDb2dVertex
 10
2208.6222133366
 20
670.9332811612062
 30
0.0
  0
SEQEND
  5
1A4
330
1A0
100
AcDbEntity
  8
2
  6
Continuous
 62
     4
370
    20
  0
MTEXT
  5
1A5
330
1F
100
AcDbEntity
  8
2
  6
Continuous
 62
     4
370
     9
100
AcDbMText
 10
2388.6222133366
 20
670.9332811612062
 30
0.0
 40
60.0
 41
269.1042
 46
60.0
 71
     9
 72
     1
  1
{\fＭＳ ゴシック;\T0.750000;4-Φ20}
 73
     1
 44
1.0
1001
ACAD
1000
ACAD_MTEXT_DEFINED_HEIGHT_BEGIN
1070
    46
1040
60.0
1000
ACAD_MTEXT_DEFINED_HEIGHT_END
  0
LINE
  5
1A6
330
1F
100
AcDbEntity
  8
8
  6
HIDDEN
 62
    30
370
    20
100
AcDbLine
 10
2770.112173105013
 20
1115.623858965847
 30
0.0
 11
2770.112173105013
 21
1070.623858965847
 31
0.0
  0
LINE
  5
1A7
330
1F
100
AcDbEntity
  8
8
  6
HIDDEN
 62
    30
370
    20
100
AcDbLine
 10
3010.112173105013
 20
1115.623858965847
 30
0.0
 11
3010.112173105013
 21
1070.623858965847
 31
0.0
  0
LINE
  5
1A8
330
1F
100
AcDbEntity
  8
8
  6
HIDDEN
 62
    30
370
    20
100
AcDbLine
 10
3010.112173105013
 20
1070.623858965847
 30
0.0
 11
2955.112173105013
 21
1070.623858965847
 31
0.0
  0
LINE
  5
1A9
330
1F
100
AcDbEntity
  8
8
  6
HIDDEN
 62
    30
370
    20
100
AcDbLine
 10
3010.112173105012
 20
1115.623858965847
 30
0.0
 11
2955.112173105013
 21
1115.623858965848
 31
0.0
  0
LINE
  5
1AA
330
1F
100
AcDbEntity
  8
8
  6
HIDDEN
 62
    30
370
    20
100
AcDbLine
 10
2770.112173105013
 20
1070.623858965847
 30
0.0
 11
2955.112173105013
 21
1070.623858965847
 31
0.0
  0
LINE
  5
1AB
330
1F
100
AcDbEntity
  8
8
  6
HIDDEN
 62
    30
370
    20
100
AcDbLine
 10
2770.112173105013
 20
1115.623858965847
 30
0.0
 11
2958.334794307483
 21
1115.623858965847
 31
0.0
  0
LINE
  5
1AC
330
1F
100
AcDbEntity
  8
8
  6
Continuous
 62
    30
370
    20
100
AcDbLine
 10
3045.112173105013
 20
1061.623858965847
 30
0.0
 11
3045.112173105013
 21
1149.623858965847
 31
0.0
  0
LINE
  5
1AD
330
1F
100
AcDbEntity
  8
8
  6
Continuous
 62
    30
370
    20
100
AcDbLine
 10
2735.112173105012
 20
1061.623858965847
 30
0.0
 11
2735.112173105012
 21
1149.623858965847
 31
0.0
  0
LINE
  5
1AE
330
1F
100
AcDbEntity
  8
2
  6
DOT
 62
     4
370
    20
100
AcDbLine
 10
3170.112173105012
 20
1038.623858965847
 30
0.0
 11
3170.112173105014
 21
1078.623858965847
 31
0.0
  0
LINE
  5
1AF
330
1F
100
AcDbEntity
  8
2
  6
HIDDEN
 62
     4
370
    20
100
AcDbLine
 10
2610.112173105012
 20
1055.623858965847
 30
0.0
 11
2610.112173105012
 21
1155.623858965847
 31
0.0
  0
LINE
  5
1B0
330
1F
100
AcDbEntity
  8
2
  6
HIDDEN
 62
     4
370
    20
100
AcDbLine
 10
2604.112173105012
 20
1149.623858965847
 30
0.0
 11
2604.112173105012
 21
1061.623858965847
 31
0.0
  0
INSERT
  5
1B1
330
1F
100
AcDbEntity
  8
2
  6
Continuous
 62
     4
370
    20
100
AcDbBlockReference
  2
_OPEN
 10
3092.611690817207
 20
1050.36307327677
 30
0.0
 41
40.0
 42
40.0
 43
40.0
 50
132.8082216288209
  0
POLYLINE
  5
1B2
330
1F
100
AcDbEntity
  8
2
  6
Continuous
 62
     4
370
    20
100
AcDb2dPolyline
 66
     1
 10
0.0
 20
0.0
 30
0.0
  0
VERTEX
  5
1B3
330
1B2
100
AcDbEntity
  8
2
  6
Continuous
 62
     4
370
    20
100
AcDbVertex
100
AcDb2dVertex
 10
3092.611690817207
 20
1050.36307327677
 30
0.0
  0
VERTEX
  5
1B4
330
1B2
100
AcDbEntity
  8
2
  6
Continuous
 62
     4
370
    20
100
AcDbVertex
100
AcDb2dVertex
 10
3361.0578281178
 20
760.5510452777066
 30
0.0
  0
VERTEX
  5
1B5
330
1B2
100
AcDbEntity
  8
2
  6
Continuous
 62
     4
370
    20
100
AcDbVertex
100
AcDb2dVertex
 10
3541.057828117801
 20
760.5510452777066
 30
0.0
  0
SEQEND
  5
1B6
330
1B2
100
AcDbEntity
  8
2
  6
Continuous
 62
     4
370
    20
  0
MTEXT
  5
1B7
330
1F
100
AcDbEntity
  8
2
  6
Continuous
 62
     4
370
     9
100
AcDbMText
 10
3361.0578281178
 20
760.5510452777066
 30
0.0
 40
60.0
 41
279.9032999999999
 46
60.0
 71
     7
 72
     1
  1
{\fＭＳ ゴシック;\T0.750000;通線口}
 73
     1
 44
1.0
1001
ACAD
1000
ACAD_MTEXT_DEFINED_HEIGHT_BEGIN
1070
    46
1040
60.0
1000
ACAD_MTEXT_DEFINED_HEIGHT_END
  0
LINE
  5
1B8
330
1F
100
AcDbEntity
  8
15
  6
DASHDOT
 62
   174
370
    20
100
AcDbLine
 10
3187.921597825448
 20
3312.520055323615
 30
0.0
 11
3220.922991465382
 21
3312.520055323615
 31
0.0
  0
LINE
  5
1B9
330
1F
100
AcDbEntity
  8
15
  6
DASHDOT
 62
   174
370
    20
100
AcDbLine
 10
3204.81217310501
 20
3322.569858525231
 30
0.0
 11
3204.81217310501
 21
3301.609513916083
 31
0.0
  0
LINE
  5
1BA
330
1F
100
AcDbEntity
  8
20
  6
Continuous
 62
    52
370
    20
100
AcDbLine
 10
3204.81217310501
 20
3312.520055323615
 30
0.0
 11
2751.988708606978
 21
2859.696590825587
 31
0.0
  0
ARC
  5
1BB
330
1F
100
AcDbEntity
  8
20
  6
Continuous
 62
    52
370
    20
100
AcDbCircle
 10
3204.81217310501
 20
3312.520055323615
 30
0.0
 40
640.389084853885
100
AcDbArc
 50
182.6582203154263
 51
224.999999999999
  0
CIRCLE
  5
1BC
330
1F
100
AcDbEntity
  8
15
  6
Continuous
 62
   174
370
    20
100
AcDbCircle
 10
3204.81217310501
 20
3312.520055323615
 30
0.0
 40
4.0
  0
CIRCLE
  5
1BD
330
1F
100
AcDbEntity
  8
2
  6
Continuous
 62
     4
370
    20
100
AcDbCircle
 10
3175.112173105013
 20
3347.820055323614
 30
0.0
 40
10.0
  0
CIRCLE
  5
1BE
330
1F
100
AcDbEntity
  8
2
  6
Continuous
 62
     4
370
    20
100
AcDbCircle
 10
3175.112173105013
 20
3347.820055323614
 30
0.0
 40
17.0
  0
CIRCLE
  5
1BF
330
1F
100
AcDbEntity
  8
2
  6
Continuous
 62
     4
370
    20
100
AcDbCircle
 10
3175.112173105013
 20
3347.820055323614
 30
0.0
 40
12.0
  0
INSERT
  5
1C9
330
1F
100
AcDbEntity
  8
0
100
AcDbBlockReference
  2
*G27
 10
0.0
 20
0.0
 30
0.0
  0
CIRCLE
  5
1CA
330
1F
100
AcDbEntity
  8
2
  6
Continuous
 62
     4
370
    20
100
AcDbCircle
 10
3175.112173105013
 20
3347.820055323614
 30
0.0
 40
8.0
  0
CIRCLE
  5
1CB
330
1F
100
AcDbEntity
  8
2
  6
Continuous
 62
     4
370
    20
100
AcDbCircle
 10
3175.112173105013
 20
3347.820055323614
 30
0.0
 40
13.85640646055072
  0
CIRCLE
  5
1CC
330
1F
100
AcDbEntity
  8
2
  6
Continuous
 62
     4
370
    20
100
AcDbCircle
 10
2605.112173105012
 20
3347.820055323614
 30
0.0
 40
10.0
  0
CIRCLE
  5
1CD
330
1F
100
AcDbEntity
  8
2
  6
Continuous
 62
     4
370
    20
100
AcDbCircle
 10
2605.112173105012
 20
3347.820055323614
 30
0.0
 40
17.0
  0
CIRCLE
  5
1CE
330
1F
100
AcDbEntity
  8
2
  6
Continuous
 62
     4
370
    20
100
AcDbCircle
 10
2605.112173105012
 20
3347.820055323614
 30
0.0
 40
12.0
  0
INSERT
  5
1D8
330
1F
100
AcDbEntity
  8
0
100
AcDbBlockReference
  2
*G28
 10
0.0
 20
0.0
 30
0.0
  0
CIRCLE
  5
1D9
330
1F
100
AcDbEntity
  8
2
  6
Continuous
 62
     4
370
    20
100
AcDbCircle
 10
2605.112173105012
 20
3347.820055323614
 30
0.0
 40
8.0
  0
CIRCLE
  5
1DA
330
1F
100
AcDbEntity
  8
2
  6
Continuous
 62
     4
370
    20
100
AcDbCircle
 10
2605.112173105012
 20
3347.820055323614
 30
0.0
 40
13.85640646055072
  0
CIRCLE
  5
1DB
330
1F
100
AcDbEntity
  8
2
  6
Continuous
 62
     4
370
    20
100
AcDbCircle
 10
3175.112173105013
 20
3872.820055323614
 30
0.0
 40
10.0
  0
CIRCLE
  5
1DC
330
1F
100
AcDbEntity
  8
2
  6
Continuous
 62
     4
370
    20
100
AcDbCircle
 10
3175.112173105013
 20
3872.820055323614
 30
0.0
 40
17.0
  0
CIRCLE
  5
1DD
330
1F
100
AcDbEntity
  8
2
  6
Continuous
 62
     4
370
    20
100
AcDbCircle
 10
3175.112173105013
 20
3872.820055323614
 30
0.0
 40
12.0
  0
CIRCLE
  5
1DE
330
1F
100
AcDbEntity
  8
2
  6
Continuous
 62
     4
370
    20
100
AcDbCircle
 10
3175.112173105013
 20
3872.820055323614
 30
0.0
 40
8.0
  0
CIRCLE
  5
1DF
330
1F
100
AcDbEntity
  8
2
  6
Continuous
 62
     4
370
    20
100
AcDbCircle
 10
3175.112173105013
 20
3872.820055323614
 30
0.0
 40
13.85640646055072
  0
CIRCLE
  5
1E0
330
1F
100
AcDbEntity
  8
2
  6
Continuous
 62
     4
370
    20
100
AcDbCircle
 10
2605.112173105012
 20
3872.820055323614
 30
0.0
 40
10.0
  0
CIRCLE
  5
1E1
330
1F
100
AcDbEntity
  8
2
  6
Continuous
 62
     4
370
    20
100
AcDbCircle
 10
2605.112173105012
 20
3872.820055323614
 30
0.0
 40
17.0
  0
CIRCLE
  5
1E2
330
1F
100
AcDbEntity
  8
2
  6
Continuous
 62
     4
370
    20
100
AcDbCircle
 10
2605.112173105012
 20
3872.820055323614
 30
0.0
 40
12.0
  0
CIRCLE
  5
1E3
330
1F
100
AcDbEntity
  8
2
  6
Continuous
 62
     4
370
    20
100
AcDbCircle
 10
2605.112173105012
 20
3872.820055323614
 30
0.0
 40
8.0
  0
CIRCLE
  5
1E4
330
1F
100
AcDbEntity
  8
2
  6
Continuous
 62
     4
370
    20
100
AcDbCircle
 10
2605.112173105012
 20
3872.820055323614
 30
0.0
 40
13.85640646055072
  0
LINE
  5
1E5
330
1F
100
AcDbEntity
  8
2
  6
HIDDEN
 62
     4
370
    20
100
AcDbLine
 10
2585.112173105012
 20
3327.820055323614
 30
0.0
 11
2585.112173105012
 21
3892.820055323614
 31
0.0
  0
LINE
  5
1E6
330
1F
100
AcDbEntity
  8
2
  6
HIDDEN
 62
     4
370
    20
100
AcDbLine
 10
3195.112173105013
 20
3327.820055323614
 30
0.0
 11
2585.112173105012
 21
3327.820055323614
 31
0.0
  0
LINE
  5
1E7
330
1F
100
AcDbEntity
  8
2
  6
HIDDEN
 62
     4
370
    20
100
AcDbLine
 10
3195.112173105013
 20
3892.820055323614
 30
0.0
 11
3195.112173105013
 21
3327.820055323614
 31
0.0
  0
LINE
  5
1E8
330
1F
100
AcDbEntity
  8
2
  6
HIDDEN
 62
     4
370
    20
100
AcDbLine
 10
2585.112173105012
 20
3892.820055323614
 30
0.0
 11
3195.112173105013
 21
3892.820055323614
 31
0.0
  0
LINE
  5
1E9
330
1F
100
AcDbEntity
  8
2
  6
Continuous
 62
     4
370
    20
100
AcDbLine
 10
2565.112173105012
 20
3912.820055323614
 30
0.0
 11
2565.112173105012
 21
3262.820055323614
 31
0.0
  0
LINE
  5
1EA
330
1F
100
AcDbEntity
  8
2
  6
Continuous
 62
     4
370
    20
100
AcDbLine
 10
2565.112173105012
 20
3262.820055323614
 30
0.0
 11
3215.112173105013
 21
3262.820055323614
 31
0.0
  0
LINE
  5
1EB
330
1F
100
AcDbEntity
  8
2
  6
Continuous
 62
     4
370
    20
100
AcDbLine
 10
3215.112173105013
 20
3262.820055323614
 30
0.0
 11
3215.112173105013
 21
3912.820055323614
 31
0.0
  0
LINE
  5
1EC
330
1F
100
AcDbEntity
  8
2
  6
Continuous
 62
     4
370
    20
100
AcDbLine
 10
3215.112173105013
 20
3912.820055323614
 30
0.0
 11
2565.112173105012
 21
3912.820055323614
 31
0.0
  0
LINE
  5
1ED
330
1F
100
AcDbEntity
  8
2
  6
DASHDOT
 62
     4
370
    20
100
AcDbLine
 10
2586.373445418834
 20
3347.820055323614
 30
0.0
 11
2623.363678275953
 21
3347.820055323614
 31
0.0
  0
LINE
  5
1EE
330
1F
100
AcDbEntity
  8
2
  6
DASHDOT
 62
     4
370
    20
100
AcDbLine
 10
2605.112173105012
 20
3327.629176307103
 30
0.0
 11
2605.112173105012
 21
3368.339415534011
 31
0.0
  0
LINE
  5
1EF
330
1F
100
AcDbEntity
  8
2
  6
DASHDOT
 62
     4
370
    20
100
AcDbLine
 10
2586.373445418834
 20
3347.820055323614
 30
0.0
 11
2623.363678275953
 21
3347.820055323614
 31
0.0
  0
LINE
  5
1F0
330
1F
100
AcDbEntity
  8
2
  6
DASHDOT
 62
     4
370
    20
100
AcDbLine
 10
2605.112173105012
 20
3327.829176307104
 30
0.0
 11
2605.112173105012
 21
3368.339415534013
 31
0.0
  0
LINE
  5
1F1
330
1F
100
AcDbEntity
  8
2
  6
DASHDOT
 62
     4
370
    20
100
AcDbLine
 10
3193.85090079119
 20
3347.820055323614
 30
0.0
 11
3156.860667934071
 21
3347.820055323614
 31
0.0
  0
LINE
  5
1F2
330
1F
100
AcDbEntity
  8
2
  6
DASHDOT
 62
     4
370
    20
100
AcDbLine
 10
3175.112173105013
 20
3327.629176307103
 30
0.0
 11
3175.112173105013
 21
3368.339415534011
 31
0.0
  0
LINE
  5
1F3
330
1F
100
AcDbEntity
  8
2
  6
DASHDOT
 62
     4
370
    20
100
AcDbLine
 10
3193.85090079119
 20
3347.820055323614
 30
0.0
 11
3156.860667934071
 21
3347.820055323614
 31
0.0
  0
LINE
  5
1F4
330
1F
100
AcDbEntity
  8
2
  6
DASHDOT
 62
     4
370
    20
100
AcDbLine
 10
3175.112173105013
 20
3327.829176307104
 30
0.0
 11
3175.112173105013
 21
3368.339415534013
 31
0.0
  0
LINE
  5
1F5
330
1F
100
AcDbEntity
  8
2
  6
DASHDOT
 62
     4
370
    20
100
AcDbLine
 10
2586.373445418834
 20
3872.820055323614
 30
0.0
 11
2623.363678275953
 21
3872.820055323614
 31
0.0
  0
LINE
  5
1F6
330
1F
100
AcDbEntity
  8
2
  6
DASHDOT
 62
     4
370
    20
100
AcDbLine
 10
2605.112173105012
 20
3893.010934340125
 30
0.0
 11
2605.112173105012
 21
3852.300695113217
 31
0.0
  0
LINE
  5
1F7
330
1F
100
AcDbEntity
  8
2
  6
DASHDOT
 62
     4
370
    20
100
AcDbLine
 10
2586.373445418834
 20
3872.820055323614
 30
0.0
 11
2623.363678275953
 21
3872.820055323614
 31
0.0
  0
LINE
  5
1F8
330
1F
100
AcDbEntity
  8
2
  6
DASHDOT
 62
     4
370
    20
100
AcDbLine
 10
2605.112173105012
 20
3892.810934340124
 30
0.0
 11
2605.112173105012
 21
3852.300695113215
 31
0.0
  0
LINE
  5
1F9
330
1F
100
AcDbEntity
  8
2
  6
DASHDOT
 62
     4
370
    20
100
AcDbLine
 10
3193.85090079119
 20
3872.820055323614
 30
0.0
 11
3156.860667934071
 21
3872.820055323614
 31
0.0
  0
LINE
  5
1FA
330
1F
100
AcDbEntity
  8
2
  6
DASHDOT
 62
     4
370
    20
100
AcDbLine
 10
3175.112173105013
 20
3893.010934340125
 30
0.0
 11
3175.112173105013
 21
3852.300695113217
 31
0.0
  0
LINE
  5
1FB
330
1F
100
AcDbEntity
  8
2
  6
DASHDOT
 62
     4
370
    20
100
AcDbLine
 10
3193.85090079119
 20
3872.820055323614
 30
0.0
 11
3156.860667934071
 21
3872.820055323614
 31
0.0
  0
LINE
  5
1FC
330
1F
100
AcDbEntity
  8
2
  6
DASHDOT
 62
     4
370
    20
100
AcDbLine
 10
3175.112173105013
 20
3892.810934340124
 30
0.0
 11
3175.112173105013
 21
3852.300695113215
 31
0.0
  0
LINE
  5
1FD
330
1F
100
AcDbEntity
  8
2
  6
DOT
 62
     4
370
    20
100
AcDbLine
 10
3015.112173105013
 20
1078.623858965847
 30
0.0
 11
3015.112173105013
 21
1038.623858965847
 31
0.0
  0
LINE
  5
1FE
330
1F
100
AcDbEntity
  8
2
  6
DOT
 62
     4
370
    20
100
AcDbLine
 10
3170.112173105014
 20
1078.623858965847
 30
0.0
 11
3015.112173105013
 21
1038.623858965847
 31
0.0
  0
LINE
  5
1FF
330
1F
100
AcDbEntity
  8
2
  6
DOT
 62
     4
370
    20
100
AcDbLine
 10
3015.112173105013
 20
1078.623858965847
 30
0.0
 11
3170.112173105014
 21
1038.623858965847
 31
0.0
  0
INSERT
  5
206
330
1F
100
AcDbEntity
  8
0
100
AcDbBlockReference
  2
*G29
 10
0.0
 20
0.0
 30
0.0
  0
INSERT
  5
207
330
1F
100
AcDbEntity
  8
2
  6
Continuous
 62
     4
370
    20
100
AcDbBlockReference
  2
_OPEN
 10
3174.226660180254
 20
2399.511000149519
 30
0.0
 41
40.0
 42
40.0
 43
40.0
 50
238.6913050423755
  0
POLYLINE
  5
208
330
1F
100
AcDbEntity
  8
2
  6
Continuous
 62
     4
370
    20
100
AcDb2dPolyline
 66
     1
 10
0.0
 20
0.0
 30
0.0
  0
VERTEX
  5
209
330
208
100
AcDbEntity
  8
2
  6
Continuous
 62
     4
370
    20
100
AcDbVertex
100
AcDb2dVertex
 10
3174.226660180254
 20
2399.511000149519
 30
0.0
  0
VERTEX
  5
20A
330
208
100
AcDbEntity
  8
2
  6
Continuous
 62
     4
370
    20
100
AcDbVertex
100
AcDb2dVertex
 10
3409.494009440746
 20
2786.325562151743
 30
0.0
  0
VERTEX
  5
20B
330
208
100
AcDbEntity
  8
2
  6
Continuous
 62
     4
370
    20
100
AcDbVertex
100
AcDb2dVertex
 10
4054.41811678771
 20
2786.325562151743
 30
0.0
  0
SEQEND
  5
20C
330
208
100
AcDbEntity
  8
2
  6
Continuous
 62
     4
370
    20
  0
MTEXT
  5
20D
330
1F
100
AcDbEntity
  8
2
  6
Continuous
 62
     4
370
     9
100
AcDbMText
 10
3424.418116787709
 20
2786.325562151743
 30
0.0
 40
60.0
 41
279.4773
 46
60.0
 71
     7
 72
     1
  1
{\fＭＳ ゴシック;\T0.750000;排風口}
 73
     1
 44
1.0
1001
ACAD
1000
ACAD_MTEXT_DEFINED_HEIGHT_BEGIN
1070
    46
1040
60.0
1000
ACAD_MTEXT_DEFINED_HEIGHT_END
  0
MTEXT
  5
20E
330
1F
100
AcDbEntity
  8
2
  6
Continuous
 62
     4
370
     9
100
AcDbMText
 10
3424.418116787709
 20
2786.325562151743
 30
0.0
 40
60.0
 41
900.0842697275997
 46
60.0
 71
     1
 72
     1
  1
{\fＭＳ ゴシック;\T0.816134;（左.右.後面　3方向）}
 73
     1
 44
1.0
1001
ACAD
1000
ACAD_MTEXT_DEFINED_HEIGHT_BEGIN
1070
    46
1040
60.0
1000
ACAD_MTEXT_DEFINED_HEIGHT_END
  0
INSERT
  5
218
330
1F
100
AcDbEntity
  8
0
100
AcDbBlockReference
  2
*G30
 10
0.0
 20
0.0
 30
0.0
  0
INSERT
  5
222
330
1F
100
AcDbEntity
  8
0
100
AcDbBlockReference
  2
*G31
 10
0.0
 20
0.0
 30
0.0
  0
MTEXT
  5
223
330
1F
100
AcDbEntity
  8
13
  6
Continuous
 62
    91
370
     9
100
AcDbMText
 10
2870.609812012839
 20
2609.373733592995
 30
0.0
 40
80.0
 41
712.8753766303998
 46
80.0
 71
     8
 72
     1
  1
{\fＭＳ ゴシック;\T1.063462;（ 正　面 ）}
 73
     1
 44
1.0
1001
ACAD
1000
ACAD_MTEXT_DEFINED_HEIGHT_BEGIN
1070
    46
1040
80.0
1000
ACAD_MTEXT_DEFINED_HEIGHT_END
  0
LINE
  5
224
330
1F
100
AcDbEntity
  8
2
  6
Continuous
 62
     4
370
    20
100
AcDbLine
 10
4447.005414517691
 20
1155.623858965847
 30
0.0
 11
5047.005414517692
 21
1155.623858965847
 31
0.0
  0
INSERT
  5
22C
330
1F
100
AcDbEntity
  8
0
100
AcDbBlockReference
  2
*G32
 10
0.0
 20
0.0
 30
0.0
  0
LINE
  5
22D
330
1F
100
AcDbEntity
  8
2
  6
Continuous
 62
     4
370
    20
100
AcDbLine
 10
5067.005414517692
 20
1149.623858965847
 30
0.0
 11
4427.005414517691
 21
1149.623858965847
 31
0.0
  0
LINE
  5
22E
330
1F
100
AcDbEntity
  8
2
  6
Continuous
 62
     4
370
    20
100
AcDbLine
 10
4427.005414517691
 20
1061.623858965847
 30
0.0
 11
5067.005414517692
 21
1061.623858965847
 31
0.0
  0
LINE
  5
22F
330
1F
100
AcDbEntity
  8
2
  6
HIDDEN
 62
     4
370
    20
100
AcDbLine
 10
5027.005414517692
 20
1055.623858965847
 30
0.0
 11
5027.005414517692
 21
1155.623858965847
 31
0.0
  0
LINE
  5
230
330
1F
100
AcDbEntity
  8
2
  6
HIDDEN
 62
     4
370
    20
100
AcDbLine
 10
5033.005414517692
 20
1149.623858965847
 30
0.0
 11
5033.005414517692
 21
1061.623858965847
 31
0.0
  0
LINE
  5
231
330
1F
100
AcDbEntity
  8
2
  6
Continuous
 62
     4
370
    20
100
AcDbLine
 10
4497.005414517691
 20
1069.204206798496
 30
0.0
 11
4497.005414517691
 21
1045.931873651455
 31
0.0
  0
LINE
  5
232
330
1F
100
AcDbEntity
  8
2
  6
Continuous
 62
     4
370
    20
100
AcDbLine
 10
4997.005414517692
 20
1068.822693140348
 30
0.0
 11
4997.005414517692
 21
1048.220955600344
 31
0.0
  0
LINE
  5
233
330
1F
100
AcDbEntity
  8
2
  6
Continuous
 62
     4
370
    20
100
AcDbLine
 10
5072.005414517692
 20
2414.92361693717
 30
0.0
 11
4422.005414517691
 21
2414.92361693717
 31
0.0
  0
LINE
  5
234
330
1F
100
AcDbEntity
  8
2
  6
Continuous
 62
     4
370
    20
100
AcDbLine
 10
4422.005414517691
 20
2384.92361693717
 30
0.0
 11
5072.005414517692
 21
2384.92361693717
 31
0.0
  0
LINE
  5
235
330
1F
100
AcDbEntity
  8
2
  6
Continuous
 62
     4
370
    20
100
AcDbLine
 10
4422.005414517691
 20
1155.623858965847
 30
0.0
 11
4422.005414517691
 21
2384.92361693717
 31
0.0
  0
LINE
  5
236
330
1F
100
AcDbEntity
  8
2
  6
Continuous
 62
     4
370
    20
100
AcDbLine
 10
5072.005414517692
 20
2384.92361693717
 30
0.0
 11
5072.005414517692
 21
1155.623858965847
 31
0.0
  0
LINE
  5
237
330
1F
100
AcDbEntity
  8
2
  6
Continuous
 62
     4
370
    20
100
AcDbLine
 10
4447.005414517691
 20
1155.623858965847
 30
0.0
 11
4422.005414517691
 21
1155.623858965847
 31
0.0
  0
LINE
  5
238
330
1F
100
AcDbEntity
  8
2
  6
Continuous
 62
     4
370
    20
100
AcDbLine
 10
5047.005414517692
 20
1155.623858965847
 30
0.0
 11
5072.005414517692
 21
1155.623858965847
 31
0.0
  0
LINE
  5
239
330
1F
100
AcDbEntity
  8
2
  6
HIDDEN
 62
     4
370
    20
100
AcDbLine
 10
4467.005414517691
 20
1055.623858965847
 30
0.0
 11
4467.005414517691
 21
1155.623858965847
 31
0.0
  0
LINE
  5
23A
330
1F
100
AcDbEntity
  8
2
  6
HIDDEN
 62
     4
370
    20
100
AcDbLine
 10
4461.005414517691
 20
1149.623858965847
 30
0.0
 11
4461.005414517691
 21
1061.623858965847
 31
0.0
  0
LINE
  5
23B
330
1F
100
AcDbEntity
  8
2
  6
Continuous
 62
     4
370
    20
100
AcDbLine
 10
5072.005414517692
 20
2545.623858965847
 30
0.0
 11
5072.005414517692
 21
2414.92361693717
 31
0.0
  0
LINE
  5
23C
330
1F
100
AcDbEntity
  8
2
  6
Continuous
 62
     4
370
    20
100
AcDbLine
 10
4422.005414517691
 20
2545.623858965847
 30
0.0
 11
4422.005414517691
 21
2414.92361693717
 31
0.0
  0
LINE
  5
23D
330
1F
100
AcDbEntity
  8
2
  6
Continuous
 62
     4
370
    20
100
AcDbLine
 10
4422.005414517691
 20
2545.623858965847
 30
0.0
 11
5072.005414517692
 21
2545.623858965847
 31
0.0
  0
DIMENSION
  5
247
330
1F
100
AcDbEntity
  8
2
  6
Continuous
 62
     4
370
    20
100
AcDbDimension
  2
Dim8
 10
5072.005414517692
 20
2829.750306300868
 30
0.0
 11
4747.005414517693
 21
2829.750306300868
 31
0.0
 70
   160
  1
<>
 71
     8
 42
-1.0
 73
     0
 74
     0
 75
     0
  3
Standard
100
AcDbAlignedDimension
 13
4422.005414517691
 23
2545.623858965847
 33
0.0
 14
5072.005414517692
 24
2545.623858965847
 34
0.0
100
AcDbRotatedDimension
1001
ACAD
1000
DSTYLE
1002
{
1070
   279
1070
     1
1070
   340
1005
153
1070
   140
1040
60.0
1070
    40
1040
1.0
1070
   147
1040
0.0
1070
    76
1070
     0
1070
    75
1070
     0
1070
   344
1005
51
1070
   343
1005
51
1070
   173
1070
     1
1070
   289
1070
     2
1070
   288
1070
     1
1070
    77
1070
     1
1070
   172
1070
     1
1070
   174
1070
     0
1070
    74
1070
     0
1070
    73
1070
     0
1070
   284
1070
     8
1070
    78
1070
     8
1070
    42
1040
40.0
1070
    44
1040
20.0
1070
    43
1040
10.0
1070
   271
1070
     2
1070
    41
1040
20.0
1002
}
  0
DIMENSION
  5
251
330
1F
100
AcDbEntity
  8
2
  6
Continuous
 62
     4
370
    20
100
AcDbDimension
  2
Dim9
 10
4180.839446608256
 20
1055.623858965848
 30
0.0
 11
4180.839446608256
 21
1800.623858965849
 31
0.0
 70
   160
  1
<>
 71
     8
 42
-1.0
 73
     0
 74
     0
 75
     0
 53
89.99999999999991
  3
Standard
100
AcDbAlignedDimension
 13
4422.005414517691
 23
2545.623858965847
 33
0.0
 14
4427.005414517691
 24
1055.623858965847
 34
0.0
 50
-89.99999999999991
100
AcDbRotatedDimension
1001
ACAD
1000
DSTYLE
1002
{
1070
   279
1070
     1
1070
   340
1005
153
1070
   140
1040
60.0
1070
    40
1040
1.0
1070
   147
1040
0.0
1070
    76
1070
     0
1070
    75
1070
     0
1070
   344
1005
51
1070
   343
1005
51
1070
   173
1070
     1
1070
   289
1070
     2
1070
   288
1070
     1
1070
    77
1070
     1
1070
   172
1070
     1
1070
   174
1070
     0
1070
    74
1070
     0
1070
    73
1070
     0
1070
   284
1070
     8
1070
    78
1070
     8
1070
    42
1040
40.0
1070
    44
1040
20.0
1070
    43
1040
10.0
1070
   271
1070
     2
1070
    41
1040
20.0
1002
}
  0
LINE
  5
252
330
1F
100
AcDbEntity
  8
1
  6
Continuous
 62
     7
370
    20
100
AcDbLine
 10
5017.00541451769
 20
2429.923616937169
 30
0.0
 11
5017.00541451769
 21
2524.923616937169
 31
0.0
  0
LINE
  5
253
330
1F
100
AcDbEntity
  8
1
  6
Continuous
 62
     7
370
    20
100
AcDbLine
 10
4477.00541451769
 20
2524.923616937172
 30
0.0
 11
4477.00541451769
 21
2429.923616937172
 31
0.0
  0
LINE
  5
254
330
1F
100
AcDbEntity
  8
1
  6
Continuous
 62
     7
370
    20
100
AcDbLine
 10
4477.00541451769
 20
2524.923616937172
 30
0.0
 11
5017.00541451769
 21
2524.923616937169
 31
0.0
  0
LINE
  5
255
330
1F
100
AcDbEntity
  8
1
  6
Continuous
 62
     7
370
    20
100
AcDbLine
 10
4477.00541451769
 20
2429.923616937172
 30
0.0
 11
5017.00541451769
 21
2429.923616937169
 31
0.0
  0
LINE
  5
256
330
1F
100
AcDbEntity
  8
2
  6
DASHDOT
 62
     4
370
     9
100
AcDbLine
 10
4747.005414517688
 20
2374.804191811622
 30
0.0
 11
4747.005414517688
 21
2588.924007479825
 31
0.0
  0
INSERT
  5
271
330
1F
100
AcDbEntity
  8
0
100
AcDbBlockReference
  2
*G35
 10
0.0
 20
0.0
 30
0.0
  0
INSERT
  5
28C
330
1F
100
AcDbEntity
  8
0
100
AcDbBlockReference
  2
*G36
 10
0.0
 20
0.0
 30
0.0
  0
INSERT
  5
28D
330
1F
100
AcDbEntity
  8
2
  6
Continuous
 62
     4
370
    20
100
AcDbBlockReference
  2
_OPEN
 10
5003.009612607455
 20
2493.345839453491
 30
0.0
 41
40.0
 42
40.0
 43
40.0
 50
238.6913050423755
  0
POLYLINE
  5
28E
330
1F
100
AcDbEntity
  8
2
  6
Continuous
 62
     4
370
    20
100
AcDb2dPolyline
 66
     1
 10
0.0
 20
0.0
 30
0.0
  0
VERTEX
  5
28F
330
28E
100
AcDbEntity
  8
2
  6
Continuous
 62
     4
370
    20
100
AcDbVertex
100
AcDb2dVertex
 10
5003.009612607455
 20
2493.345839453491
 30
0.0
  0
VERTEX
  5
290
330
28E
100
AcDbEntity
  8
2
  6
Continuous
 62
     4
370
    20
100
AcDbVertex
100
AcDb2dVertex
 10
5238.276961867947
 20
2880.160401455716
 30
0.0
  0
VERTEX
  5
291
330
28E
100
AcDbEntity
  8
2
  6
Continuous
 62
     4
370
    20
100
AcDbVertex
100
AcDb2dVertex
 10
5478.276961867947
 20
2880.160401455716
 30
0.0
  0
SEQEND
  5
292
330
28E
100
AcDbEntity
  8
2
  6
Continuous
 62
     4
370
    20
  0
MTEXT
  5
293
330
1F
100
AcDbEntity
  8
2
  6
Continuous
 62
     4
370
     9
100
AcDbMText
 10
5238.276961867947
 20
2880.160401455716
 30
0.0
 40
60.0
 41
279.4773
 46
60.0
 71
     7
 72
     1
  1
{\fＭＳ ゴシック;\T0.750000;排風口}
 73
     1
 44
1.0
1001
ACAD
1000
ACAD_MTEXT_DEFINED_HEIGHT_BEGIN
1070
    46
1040
60.0
1000
ACAD_MTEXT_DEFINED_HEIGHT_END
  0
MTEXT
  5
294
330
1F
100
AcDbEntity
  8
2
  6
Continuous
 62
     4
370
     9
100
AcDbMText
 10
5238.276961867947
 20
2880.160401455716
 30
0.0
 40
60.0
 41
357.969953217
 46
60.0
 71
     1
 72
     1
  1
{\fＭＳ ゴシック;\T1.396985;（後面）}
 73
     1
 44
1.0
1001
ACAD
1000
ACAD_MTEXT_DEFINED_HEIGHT_BEGIN
1070
    46
1040
60.0
1000
ACAD_MTEXT_DEFINED_HEIGHT_END
  0
MTEXT
  5
295
330
1F
100
AcDbEntity
  8
13
  6
Continuous
 62
    91
370
     9
100
AcDbMText
 10
4744.05216771104
 20
2607.222155146142
 30
0.0
 40
80.0
 41
712.8753766303998
 46
80.0
 71
     8
 72
     1
  1
{\fＭＳ ゴシック;\T1.063462;（ 裏　面 ）}
 73
     1
 44
1.0
1001
ACAD
1000
ACAD_MTEXT_DEFINED_HEIGHT_BEGIN
1070
    46
1040
80.0
1000
ACAD_MTEXT_DEFINED_HEIGHT_END
  0
DIMENSION
  5
29F
330
1F
100
AcDbEntity
  8
2
  6
Continuous
 62
     4
370
    20
100
AcDbDimension
  2
Dim10
 10
5067.005414517691
 20
783.6369921523141
 30
0.0
 11
4747.00541451769
 21
783.6369921523141
 31
0.0
 70
   160
  1
<>
 71
     8
 42
-1.0
 73
     0
 74
     0
 75
     0
  3
Standard
100
AcDbAlignedDimension
 13
4427.005414517691
 23
1055.623858965847
 33
0.0
 14
5067.005414517692
 24
1055.623858965847
 34
0.0
100
AcDbRotatedDimension
1001
ACAD
1000
DSTYLE
1002
{
1070
   279
1070
     1
1070
   340
1005
153
1070
   140
1040
60.0
1070
    40
1040
1.0
1070
   147
1040
0.0
1070
    76
1070
     0
1070
    75
1070
     0
1070
   344
1005
51
1070
   343
1005
51
1070
   173
1070
     1
1070
   289
1070
     2
1070
   288
1070
     1
1070
    77
1070
     1
1070
   172
1070
     1
1070
   174
1070
     0
1070
    74
1070
     0
1070
    73
1070
     0
1070
   284
1070
     8
1070
    78
1070
     8
1070
    42
1040
40.0
1070
    44
1040
20.0
1070
    43
1040
10.0
1070
   271
1070
     2
1070
    41
1040
20.0
1002
}
  0
DIMENSION
  5
2A9
330
1F
100
AcDbEntity
  8
2
  6
Continuous
 62
     4
370
    20
100
AcDbDimension
  2
Dim11
 10
4497.005414517691
 20
895.413439258103
 30
0.0
 11
4462.005414517691
 21
895.413439258103
 31
0.0
 70
   160
  1
70
 71
     8
 42
-1.0
 73
     0
 74
     0
 75
     0
  3
Standard
100
AcDbAlignedDimension
 13
4427.005414517691
 23
1055.623858965847
 33
0.0
 14
4497.005414517691
 24
1045.931873651455
 34
0.0
100
AcDbRotatedDimension
1001
ACAD
1000
DSTYLE
1002
{
1070
   279
1070
     1
1070
   340
1005
153
1070
   140
1040
60.0
1070
    40
1040
1.0
1070
   147
1040
0.0
1070
    76
1070
     0
1070
    75
1070
     0
1070
   344
1005
51
1070
   343
1005
51
1070
   173
1070
     1
1070
   289
1070
     2
1070
   288
1070
     1
1070
    77
1070
     1
1070
   172
1070
     1
1070
   174
1070
     0
1070
    74
1070
     0
1070
    73
1070
     0
1070
   284
1070
     8
1070
    78
1070
     8
1070
    42
1040
40.0
1070
    44
1040
20.0
1070
    43
1040
10.0
1070
   271
1070
     2
1070
    41
1040
20.0
1002
}
  0
DIMENSION
  5
2B2
330
1F
100
AcDbEntity
  8
2
  6
Continuous
 62
     4
370
    20
100
AcDbDimension
  2
Dim12
 10
4997.005414517692
 20
895.413439258103
 30
0.0
 11
4747.00541451769
 21
895.413439258103
 31
0.0
 70
   160
  1
500
 71
     8
 42
-1.0
 73
     0
 74
     0
 75
     0
  3
Standard
100
AcDbAlignedDimension
 13
4497.005414517691
 23
1045.931873651455
 33
0.0
 14
4997.005414517692
 24
1048.220955600344
 34
0.0
100
AcDbRotatedDimension
1001
ACAD
1000
DSTYLE
1002
{
1070
   279
1070
     1
1070
   340
1005
153
1070
   140
1040
60.0
1070
    40
1040
1.0
1070
   147
1040
0.0
1070
    76
1070
     0
1070
    75
1070
     1
1070
   344
1005
51
1070
   343
1005
51
1070
   173
1070
     1
1070
   289
1070
     2
1070
   288
1070
     1
1070
    77
1070
     1
1070
   172
1070
     1
1070
   174
1070
     0
1070
    74
1070
     0
1070
    73
1070
     0
1070
   284
1070
     8
1070
    78
1070
     8
1070
    42
1040
40.0
1070
    44
1040
20.0
1070
    43
1040
10.0
1070
   271
1070
     2
1070
    41
1040
20.0
1002
}
  0
DIMENSION
  5
2BB
330
1F
100
AcDbEntity
  8
2
  6
Continuous
 62
     4
370
    20
100
AcDbDimension
  2
Dim13
 10
5067.005414517692
 20
895.413439258103
 30
0.0
 11
5032.005414517694
 21
895.413439258103
 31
0.0
 70
   160
  1
70
 71
     8
 42
-1.0
 73
     0
 74
     0
 75
     0
  3
Standard
100
AcDbAlignedDimension
 13
4997.005414517692
 23
1048.220955600344
 33
0.0
 14
5067.005414517692
 24
1055.623858965847
 34
0.0
100
AcDbRotatedDimension
1001
ACAD
1000
DSTYLE
1002
{
1070
   279
1070
     1
1070
   340
1005
153
1070
   140
1040
60.0
1070
    40
1040
1.0
1070
   147
1040
0.0
1070
    76
1070
     0
1070
    75
1070
     1
1070
   344
1005
51
1070
   343
1005
51
1070
   173
1070
     1
1070
   289
1070
     2
1070
   288
1070
     1
1070
    77
1070
     1
1070
   172
1070
     1
1070
   174
1070
     0
1070
    74
1070
     0
1070
    73
1070
     0
1070
   284
1070
     8
1070
    78
1070
     8
1070
    42
1040
40.0
1070
    44
1040
20.0
1070
    43
1040
10.0
1070
   271
1070
     2
1070
    41
1040
20.0
1002
}
  0
LINE
  5
2BC
330
1F
100
AcDbEntity
  8
16
  6
Continuous
 62
     7
370
    50
100
AcDbLine
 10
260.5218070489829
 20
3972.379483752952
 30
0.0
 11
260.5218070489829
 21
188.9929908976904
 31
0.0
  0
LINE
  5
2BD
330
1F
100
AcDbEntity
  8
16
  6
Continuous
 62
     7
370
    20
100
AcDbLine
 10
4098.160818497586
 20
349.1179484964363
 30
0.0
 11
3641.410829293477
 21
349.1179484964363
 31
0.0
  0
LINE
  5
2BE
330
1F
100
AcDbEntity
  8
16
  6
Continuous
 62
     7
370
    20
100
AcDbLine
 10
4098.160818497586
 20
401.6179782242529
 30
0.0
 11
3641.410829293477
 21
401.6179782242529
 31
0.0
  0
LINE
  5
2BF
330
1F
100
AcDbEntity
  8
16
  6
Continuous
 62
     7
370
    20
100
AcDbLine
 10
3746.410823034989
 20
188.9929908976904
 30
0.0
 11
3746.410823034989
 21
614.2429819793455
 31
0.0
  0
LINE
  5
2C0
330
1F
100
AcDbEntity
  8
16
  6
Continuous
 62
     7
370
    20
100
AcDbLine
 10
4098.160818497586
 20
506.6180048228256
 30
0.0
 11
3641.410829293477
 21
506.6180048228256
 31
0.0
  0
LINE
  5
2C1
330
1F
100
AcDbEntity
  8
16
  6
Continuous
 62
     7
370
    20
100
AcDbLine
 10
4098.160818497586
 20
454.1179422379486
 30
0.0
 11
3641.410829293477
 21
454.1179422379486
 31
0.0
  0
LINE
  5
2C2
330
1F
100
AcDbEntity
  8
16
  6
Continuous
 62
     7
370
    20
100
AcDbLine
 10
4098.160818497586
 20
296.6180009112708
 30
0.0
 11
3641.410829293477
 21
296.6180009112708
 31
0.0
  0
LINE
  5
2C3
330
1F
100
AcDbEntity
  8
16
  6
Continuous
 62
     7
370
    20
100
AcDbLine
 10
4098.160818497586
 20
244.1179711834542
 30
0.0
 11
3641.410829293477
 21
244.1179711834542
 31
0.0
  0
LINE
  5
2C4
330
1F
100
AcDbEntity
  8
16
  6
Continuous
 62
     7
370
    20
100
AcDbLine
 10
4182.160846347856
 20
383.242962890958
 30
0.0
 11
4182.160846347856
 21
299.2429843262784
 31
0.0
  0
LINE
  5
2C5
330
1F
100
AcDbEntity
  8
16
  6
Continuous
 62
     7
370
    20
100
AcDbLine
 10
4413.160849007713
 20
614.2429819793455
 30
0.0
 11
4413.160849007713
 21
440.9930251629106
 31
0.0
  0
LINE
  5
2C6
330
1F
100
AcDbEntity
  8
16
  6
Continuous
 62
     7
370
    20
100
AcDbLine
 10
4413.160849007713
 20
383.242962890958
 30
0.0
 11
4413.160849007713
 21
299.2429843262784
 31
0.0
  0
LINE
  5
2C7
330
1F
100
AcDbEntity
  8
16
  6
Continuous
 62
     7
370
    20
100
AcDbLine
 10
4817.410841341065
 20
614.2429819793455
 30
0.0
 11
4817.410841341065
 21
188.9929908976904
 31
0.0
  0
LINE
  5
2C8
330
1F
100
AcDbEntity
  8
16
  6
Continuous
 62
     7
370
    20
100
AcDbLine
 10
4255.660841966915
 20
614.2429819793455
 30
0.0
 11
4255.660841966915
 21
383.242962890958
 31
0.0
  0
LINE
  5
2C9
330
1F
100
AcDbEntity
  8
16
  6
Continuous
 62
     7
370
    20
100
AcDbLine
 10
4098.160818497586
 20
559.1180016935817
 30
0.0
 11
4728.16081380372
 21
559.1180016935817
 31
0.0
  0
LINE
  5
2CA
330
1F
100
AcDbEntity
  8
16
  6
Continuous
 62
     7
370
    20
100
AcDbLine
 10
4098.160818497586
 20
559.1180016935817
 30
0.0
 11
3641.410829293477
 21
559.1180016935817
 31
0.0
  0
LINE
  5
2CB
330
1F
100
AcDbEntity
  8
16
  6
Continuous
 62
     7
370
    20
100
AcDbLine
 10
3641.410829293477
 20
188.9929908976904
 30
0.0
 11
3641.410829293477
 21
614.2429819793455
 31
0.0
  0
LINE
  5
2CC
330
1F
100
AcDbEntity
  8
16
  6
Continuous
 62
     7
370
    50
100
AcDbLine
 10
4570.660839619982
 20
614.2429819793455
 30
0.0
 11
4570.660839619982
 21
383.242962890958
 31
0.0
  0
LINE
  5
2CD
330
1F
100
AcDbEntity
  8
16
  6
Continuous
 62
     7
370
    50
100
AcDbLine
 10
4728.16081380372
 20
614.2429819793455
 30
0.0
 11
4728.16081380372
 21
188.9929908976904
 31
0.0
  0
LINE
  5
2CE
330
1F
100
AcDbEntity
  8
16
  6
Continuous
 62
     7
370
    50
100
AcDbLine
 10
4098.160818497586
 20
383.242962890958
 30
0.0
 11
4728.16081380372
 21
383.242962890958
 31
0.0
  0
LINE
  5
2CF
330
1F
100
AcDbEntity
  8
16
  6
Continuous
 62
     7
370
    50
100
AcDbLine
 10
4570.660839619982
 20
440.9930251629106
 30
0.0
 11
4098.160818497586
 21
440.9930251629106
 31
0.0
  0
LINE
  5
2D0
330
1F
100
AcDbEntity
  8
16
  6
Continuous
 62
     7
370
    50
100
AcDbLine
 10
4098.160818497586
 20
188.9929908976904
 30
0.0
 11
4098.160818497586
 21
614.2429819793455
 31
0.0
  0
LINE
  5
2D1
330
1F
100
AcDbEntity
  8
16
  6
Continuous
 62
     7
370
    50
100
AcDbLine
 10
3578.41088233416
 20
614.2429819793455
 30
0.0
 11
3578.41088233416
 21
188.9929908976904
 31
0.0
  0
MTEXT
  5
2D2
330
1F
100
AcDbEntity
  8
16
  6
Continuous
 62
     7
370
     9
100
AcDbMText
 10
3590.809445705771
 20
488.677100748608
 30
0.0
 40
42.0
 41
340.15674
 46
42.0
 71
     7
 72
     1
  1
{\f@HG丸ｺﾞｼｯｸM-PRO|b1;\T0.750000;訂　　　正}
  7
T_STANDARD
 11
6.123233995736766E-17
 21
-1.0
 31
0.0
 73
     1
 44
1.0
1001
ACAD
1000
ACAD_MTEXT_DEFINED_HEIGHT_BEGIN
1070
    46
1040
42.0
1000
ACAD_MTEXT_DEFINED_HEIGHT_END
  0
MTEXT
  5
2D3
330
1F
100
AcDbEntity
  8
16
  6
Continuous
 62
     7
370
     9
100
AcDbMText
 10
4133.529488533534
 20
564.7860412379781
 30
0.0
 40
42.0
 41
138.909015
 46
42.0
 71
     7
 72
     1
  1
{\fHG丸ｺﾞｼｯｸM-PRO|b1;\T0.750000;承認}
 73
     1
 44
1.0
1001
ACAD
1000
ACAD_MTEXT_DEFINED_HEIGHT_BEGIN
1070
    46
1040
42.0
1000
ACAD_MTEXT_DEFINED_HEIGHT_END
  0
MTEXT
  5
2D4
330
1F
100
AcDbEntity
  8
16
  6
Continuous
 62
     7
370
     9
100
AcDbMText
 10
4291.029512002863
 20
564.7860412379781
 30
0.0
 40
42.0
 41
138.312615
 46
42.0
 71
     7
 72
     1
  1
{\fHG丸ｺﾞｼｯｸM-PRO|b1;\T0.750000;検図}
 73
     1
 44
1.0
1001
ACAD
1000
ACAD_MTEXT_DEFINED_HEIGHT_BEGIN
1070
    46
1040
42.0
1000
ACAD_MTEXT_DEFINED_HEIGHT_END
  0
MTEXT
  5
2D5
330
1F
100
AcDbEntity
  8
16
  6
Continuous
 62
     7
370
     9
100
AcDbMText
 10
4448.529519043661
 20
564.7860412379781
 30
0.0
 40
42.0
 41
137.358375
 46
42.0
 71
     7
 72
     1
  1
{\fHG丸ｺﾞｼｯｸM-PRO|b1;\T0.750000;製図}
 73
     1
 44
1.0
1001
ACAD
1000
ACAD_MTEXT_DEFINED_HEIGHT_BEGIN
1070
    46
1040
42.0
1000
ACAD_MTEXT_DEFINED_HEIGHT_END
  0
MTEXT
  5
2D6
330
1F
100
AcDbEntity
  8
16
  6
Continuous
 62
     7
370
     9
100
AcDbMText
 10
4606.029509655929
 20
564.7860412379781
 30
0.0
 40
42.0
 41
139.803615
 46
42.0
 71
     7
 72
     1
  1
{\fHG丸ｺﾞｼｯｸM-PRO|b1;\T0.750000;尺度}
 73
     1
 44
1.0
1001
ACAD
1000
ACAD_MTEXT_DEFINED_HEIGHT_BEGIN
1070
    46
1040
42.0
1000
ACAD_MTEXT_DEFINED_HEIGHT_END
  0
MTEXT
  5
2D7
330
1F
100
AcDbEntity
  8
16
  6
Continuous
 62
     7
370
     9
100
AcDbMText
 10
4133.529488533534
 20
391.5360844215433
 30
0.0
 40
42.0
 41
132.408255
 46
42.0
 71
     7
 72
     1
  1
{\fHG丸ｺﾞｼｯｸM-PRO|b1;\T0.750000;日付}
 73
     1
 44
1.0
1001
ACAD
1000
ACAD_MTEXT_DEFINED_HEIGHT_BEGIN
1070
    46
1040
42.0
1000
ACAD_MTEXT_DEFINED_HEIGHT_END
  0
MTEXT
  5
2D8
330
1F
100
AcDbEntity
  8
16
  6
Continuous
 62
     7
370
     9
100
AcDbMText
 10
4124.07619556452
 20
376.9134665502955
 30
0.0
 40
33.59999999999999
 41
104.972364
 46
33.59999999999999
 71
     7
 72
     1
  1
{\f@HG丸ｺﾞｼｯｸM-PRO|b1;\T0.750000;工番}
  7
T_STANDARD
 11
6.123233995736766E-17
 21
-1.0
 31
0.0
 73
     1
 44
1.0
1001
ACAD
1000
ACAD_MTEXT_DEFINED_HEIGHT_BEGIN
1070
    46
1040
33.59999999999999
1000
ACAD_MTEXT_DEFINED_HEIGHT_END
  0
MTEXT
  5
2D9
330
1F
100
AcDbEntity
  8
16
  6
Continuous
 62
     7
370
     9
100
AcDbMText
 10
4475.769845319319
 20
318.1240328990338
 30
0.0
 40
42.0
 41
277.765845
 46
42.0
 71
     7
 72
     1
  1
{\fHG丸ｺﾞｼｯｸM-PRO|b1;\T0.750000;第三角法}
 73
     1
 44
1.0
1001
ACAD
1000
ACAD_MTEXT_DEFINED_HEIGHT_BEGIN
1070
    46
1040
42.0
1000
ACAD_MTEXT_DEFINED_HEIGHT_END
  0
MTEXT
  5
2DA
330
1F
100
AcDbEntity
  8
16
  6
Continuous
 62
     7
370
     9
100
AcDbMText
 10
4756.692899435628
 20
610.3480382753918
 30
0.0
 40
31.49999999999999
 41
120.6856927220175
 46
31.49999999999999
 71
     7
 72
     1
  1
{\f@HG丸ｺﾞｼｯｸM-PRO|b1;\W0.766667;\T0.750000;納入先}
  7
T_STANDARD
 11
6.123233995736766E-17
 21
-1.0
 31
0.0
 73
     1
 44
1.0
1001
ACAD
1000
ACAD_MTEXT_DEFINED_HEIGHT_BEGIN
1070
    46
1040
31.49999999999999
1000
ACAD_MTEXT_DEFINED_HEIGHT_END
  0
MTEXT
  5
2DB
330
1F
100
AcDbEntity
  8
16
  6
Continuous
 62
     7
370
     9
100
AcDbMText
 10
4756.700872974265
 20
475.3229615651256
 30
0.0
 40
31.49999999999999
 41
182.8693384983674
 46
31.49999999999999
 71
     7
 72
     1
  1
{\f@HG丸ｺﾞｼｯｸM-PRO|b1;\W1.166667;\T0.750000;名　称}
  7
T_STANDARD
 11
6.123233995736766E-17
 21
-1.0
 31
0.0
 73
     1
 44
1.0
1001
ACAD
1000
ACAD_MTEXT_DEFINED_HEIGHT_BEGIN
1070
    46
1040
31.49999999999999
1000
ACAD_MTEXT_DEFINED_HEIGHT_END
  0
MTEXT
  5
2DC
330
1F
100
AcDbEntity
  8
16
  6
Continuous
 62
     7
370
     9
100
AcDbMText
 10
4756.647256863995
 20
283.078166389267
 30
0.0
 40
31.49999999999999
 41
119.0927271514837
 46
31.49999999999999
 71
     7
 72
     1
  1
{\f@HG丸ｺﾞｼｯｸM-PRO|b1;\W1.166667;\T0.750000;図番}
  7
T_STANDARD
 11
6.123233995736766E-17
 21
-1.0
 31
0.0
 73
     1
 44
1.0
1001
ACAD
1000
ACAD_MTEXT_DEFINED_HEIGHT_BEGIN
1070
    46
1040
31.49999999999999
1000
ACAD_MTEXT_DEFINED_HEIGHT_END
  0
MTEXT
  5
2DD
330
1F
100
AcDbEntity
  8
16
  6
Continuous
 62
     7
370
     9
100
AcDbMText
 10
4568.411131439888
 20
391.3539924452965
 30
0.0
 40
42.0
 41
238.83402576096
 46
42.0
 71
     7
 72
     1
  1
{\fHG丸ｺﾞｼｯｸM-PRO|b1;\W0.875000;\T1.440576;（　　）}
 73
     1
 44
1.0
1001
ACAD
1000
ACAD_MTEXT_DEFINED_HEIGHT_BEGIN
1070
    46
1040
42.0
1000
ACAD_MTEXT_DEFINED_HEIGHT_END
  0
LINE
  5
2DE
330
1F
100
AcDbEntity
  8
16
  6
Continuous
 62
     7
370
    20
100
AcDbLine
 10
4817.410841341065
 20
440.9930251629106
 30
0.0
 11
5753.410839307056
 21
440.9930251629106
 31
0.0
  0
LINE
  5
2DF
330
1F
100
AcDbEntity
  8
16
  6
Continuous
 62
     7
370
    50
100
AcDbLine
 10
5753.410839307056
 20
530.2429541290752
 30
0.0
 11
4728.16081380372
 21
530.2429541290752
 31
0.0
  0
LINE
  5
2E0
330
1F
100
AcDbEntity
  8
16
  6
Continuous
 62
     7
370
    50
100
AcDbLine
 10
3578.41088233416
 20
614.2429819793455
 30
0.0
 11
5753.410839307056
 21
614.2429819793455
 31
0.0
  0
LINE
  5
2E1
330
1F
100
AcDbEntity
  8
16
  6
Continuous
 62
     7
370
    50
100
AcDbLine
 10
4098.160818497586
 20
299.2429843262784
 30
0.0
 11
5753.410839307056
 21
299.2429843262784
 31
0.0
  0
MTEXT
  5
2E2
330
1F
100
AcDbEntity
  8
16
  6
Continuous
 62
     7
370
     9
100
AcDbMText
 10
5702.725514194612
 20
540.7977398405786
 30
0.0
 40
62.99999999999999
 41
42.59998295999998
 46
62.99999999999999
 71
     8
 72
     1
  1
{\fＦＡ 隷書Ｍ;\W0.833333;\T0.750000;殿}
 73
     1
 44
1.0
1001
ACAD
1000
ACAD_MTEXT_DEFINED_HEIGHT_BEGIN
1070
    46
1040
62.99999999999999
1000
ACAD_MTEXT_DEFINED_HEIGHT_END
  0
MTEXT
  5
2E3
330
1F
100
AcDbEntity
  8
1
  6
Continuous
 62
     7
370
     9
100
AcDbMText
 10
4610.422779802764
 20
481.050285589907
 30
0.0
 40
40.0
 41
112.6947746512
 46
40.0
 71
     7
 72
     1
  1
{\fＭＳ ゴシック;\T0.775244;1/20}
 73
     1
 44
1.0
1001
ACAD
1000
ACAD_MTEXT_DEFINED_HEIGHT_BEGIN
1070
    46
1040
40.0
1000
ACAD_MTEXT_DEFINED_HEIGHT_END
  0
MTEXT
  5
2E4
330
1F
100
AcDbEntity
  8
16
  6
Continuous
 62
     7
370
     9
100
AcDbMText
 10
4243.830522388606
 20
209.7925836872859
 30
0.0
 40
62.99999999999999
 41
516.2440981219199
 46
62.99999999999999
 71
     7
 72
     1
  1
{\fHG丸ｺﾞｼｯｸM-PRO|b1;\W0.666667;\T0.750000;株式会社  桜電社}
 73
     1
 44
1.0
1001
ACAD
1000
ACAD_MTEXT_DEFINED_HEIGHT_BEGIN
1070
    46
1040
62.99999999999999
1000
ACAD_MTEXT_DEFINED_HEIGHT_END
  0
LINE
  5
2E5
330
1F
100
AcDbEntity
  8
16
  6
Continuous
 62
     7
370
    50
100
AcDbLine
 10
5753.410839307056
 20
188.9929908976904
 30
0.0
 11
5753.410839307056
 21
3972.379483752952
 31
0.0
  0
LINE
  5
2E6
330
1F
100
AcDbEntity
  8
16
  6
Continuous
 62
     7
370
    50
100
AcDbLine
 10
260.5218070489829
 20
188.9929908976904
 30
0.0
 11
5753.410839307056
 21
188.9929908976904
 31
0.0
  0
LINE
  5
2E7
330
1F
100
AcDbEntity
  8
16
  6
Continuous
 62
     7
370
    50
100
AcDbLine
 10
269.2898133152304
 20
188.9929908976904
 30
0.0
 11
5753.410839307056
 21
188.9929908976904
 31
0.0
  0
LINE
  5
2E8
330
1F
100
AcDbEntity
  8
16
  6
Continuous
 62
     7
370
    50
100
AcDbLine
 10
5753.410839307056
 20
3972.379483752952
 30
0.0
 11
260.5218070489829
 21
3972.379483752952
 31
0.0
  0
LINE
  5
2E9
330
1F
100
AcDbEntity
  8
2
  6
Continuous
 62
     4
370
    20
100
AcDbLine
 10
3215.112173105013
 20
2430.623858965851
 30
0.0
 11
2565.112173105012
 21
2430.623858965851
 31
0.0
  0
LINE
  5
2EA
330
1F
100
AcDbEntity
  8
2
  6
Continuous
 62
     4
370
    20
100
AcDbLine
 10
1545.655778184773
 20
2384.923616937165
 30
0.0
 11
1004.462586140223
 21
2384.923616937165
 31
0.0
  0
LINE
  5
2EB
330
1F
100
AcDbEntity
  8
2
  6
Continuous
 62
     4
370
    20
100
AcDbLine
 10
1004.462586140223
 20
1155.623858965845
 30
0.0
 11
1029.462586140223
 21
1155.623858965845
 31
0.0
  0
LINE
  5
2EC
330
1F
100
AcDbEntity
  8
2
  6
Continuous
 62
     4
370
    20
100
AcDbLine
 10
1004.462586140223
 20
2384.923616937165
 30
0.0
 11
1004.462586140223
 21
1155.623858965845
 31
0.0
  0
LINE
  5
2ED
330
1F
100
AcDbEntity
  8
2
  6
Continuous
 62
     4
370
    20
100
AcDbLine
 10
1609.462586140223
 20
2351.223616937166
 30
0.0
 11
1609.462586140223
 21
2384.923616937167
 31
0.0
  0
LINE
  5
2EE
330
1F
100
AcDbEntity
  8
2
  6
PHANTOM
 62
     4
370
    20
100
AcDbLine
 10
1652.16258614022
 20
1830.623858965847
 30
0.0
 11
1652.16258614022
 21
1831.823858965848
 31
0.0
  0
LINE
  5
2EF
330
1F
100
AcDbEntity
  8
2
  6
Continuous
 62
     4
370
    20
100
AcDbLine
 10
1654.462586140223
 20
2384.923616937167
 30
0.0
 11
1654.462586140219
 21
1155.623858965847
 31
0.0
  0
LINE
  5
2F0
330
1F
100
AcDbEntity
  8
2
  6
Continuous
 62
     4
370
    20
100
AcDbLine
 10
1614.462586140223
 20
1155.623858965847
 30
0.0
 11
1614.462586140223
 21
1170.623858965847
 31
0.0
  0
LINE
  5
2F1
330
1F
100
AcDbEntity
  8
2
  6
Continuous
 62
     4
370
    20
100
AcDbLine
 10
1654.462586140219
 20
1155.623858965847
 30
0.0
 11
1614.462586140223
 21
1155.623858965847
 31
0.0
  0
LINE
  5
2F2
330
1F
100
AcDbEntity
  8
2
  6
Continuous
 62
     4
370
    20
100
AcDbLine
 10
1609.462586140223
 20
1198.323858965845
 30
0.0
 11
1609.462586140223
 21
1155.623858965845
 31
0.0
  0
LINE
  5
2F3
330
1F
100
AcDbEntity
  8
2
  6
Continuous
 62
     4
370
    20
100
AcDbLine
 10
1654.462586140219
 20
2384.923616937167
 30
0.0
 11
1614.462586140223
 21
2384.923616937167
 31
0.0
  0
LINE
  5
2F4
330
1F
100
AcDbEntity
  8
2
  6
Continuous
 62
     4
370
    20
100
AcDbLine
 10
1614.462586140223
 20
1156.700153051682
 30
0.0
 11
1614.462586140223
 21
2384.923616937167
 31
0.0
  0
LINE
  5
2F5
330
1F
100
AcDbEntity
  8
2
  6
Continuous
 62
     4
370
    20
100
AcDbLine
 10
1614.462586140223
 20
2351.223616937166
 30
0.0
 11
1609.462586140223
 21
2351.223616937166
 31
0.0
  0
LINE
  5
2F6
330
1F
100
AcDbEntity
  8
2
  6
Continuous
 62
     4
370
    20
100
AcDbLine
 10
1609.462586140223
 20
2384.923616937167
 30
0.0
 11
1526.962586140223
 21
2384.923616937167
 31
0.0
  0
LINE
  5
2F7
330
1F
100
AcDbEntity
  8
2
  6
Continuous
 62
     4
370
    20
100
AcDbLine
 10
1614.462586140223
 20
1198.323858965845
 30
0.0
 11
1609.462586140223
 21
1198.323858965845
 31
0.0
  0
DIMENSION
  5
301
330
1F
100
AcDbEntity
  8
2
  6
Continuous
 62
     4
370
    20
100
AcDbDimension
  2
Dim14
 10
1009.462586140223
 20
682.6347921935289
 30
0.0
 11
1306.962586140223
 21
682.6347921935289
 31
0.0
 70
   160
  1
<>
 71
     8
 42
-1.0
 73
     0
 74
     0
 75
     0
 53
0.0000000000000509
  3
Standard
100
AcDbAlignedDimension
 13
1604.462586140223
 23
1055.623858965845
 33
0.0
 14
1009.462586140223
 24
1055.623858965845
 34
0.0
 50
179.9999999999998
100
AcDbRotatedDimension
1001
ACAD
1000
DSTYLE
1002
{
1070
   279
1070
     1
1070
   340
1005
153
1070
   140
1040
60.0
1070
    40
1040
1.0
1070
   147
1040
0.0
1070
    76
1070
     0
1070
    75
1070
     0
1070
   344
1005
51
1070
   343
1005
51
1070
   173
1070
     1
1070
   289
1070
     2
1070
   288
1070
     1
1070
    77
1070
     1
1070
   172
1070
     1
1070
   174
1070
     0
1070
    74
1070
     0
1070
    73
1070
     0
1070
   284
1070
     8
1070
    78
1070
     8
1070
    42
1040
40.0
1070
    44
1040
20.0
1070
    43
1040
10.0
1070
   271
1070
     2
1070
    41
1040
20.0
1002
}
  0
LINE
  5
302
330
1F
100
AcDbEntity
  8
2
  6
Continuous
 62
     4
370
    20
100
AcDbLine
 10
1609.462586140223
 20
1155.623858965845
 30
0.0
 11
1540.962586140224
 21
1155.623858965845
 31
0.0
  0
INSERT
  5
30C
330
1F
100
AcDbEntity
  8
0
100
AcDbBlockReference
  2
*G42
 10
0.0
 20
0.0
 30
0.0
  0
LINE
  5
30D
330
1F
100
AcDbEntity
  8
2
  6
Continuous
 62
     4
370
    20
100
AcDbLine
 10
1584.462586140223
 20
1070.076521881448
 30
0.0
 11
1584.462586140223
 21
1050.23781165774
 31
0.0
  0
LINE
  5
30E
330
1F
100
AcDbEntity
  8
2
  6
Continuous
 62
     4
370
    20
100
AcDbLine
 10
1029.462586140223
 20
1066.642898958114
 30
0.0
 11
1029.462586140223
 21
1049.474784341444
 31
0.0
  0
DIMENSION
  5
317
330
1F
100
AcDbEntity
  8
2
  6
Continuous
 62
     4
370
    20
100
AcDbDimension
  2
Dim15
 10
1584.462586140223
 20
794.411239299317
 30
0.0
 11
1660.819011815214
 21
794.411239299317
 31
0.0
 70
   160
  1
20
 71
     8
 42
-1.0
 73
     0
 74
     0
 75
     0
 53
0.0000000000000509
  3
Standard
100
AcDbAlignedDimension
 13
1604.462586140223
 23
1055.623858965845
 33
0.0
 14
1584.462586140223
 24
1050.23781165774
 34
0.0
 50
179.9999999999998
100
AcDbRotatedDimension
1001
ACAD
1000
DSTYLE
1002
{
1070
   279
1070
     1
1070
   340
1005
153
1070
   140
1040
60.0
1070
    40
1040
1.0
1070
   147
1040
0.0
1070
    76
1070
     0
1070
    75
1070
     0
1070
   344
1005
7E
1070
   343
1005
51
1070
   173
1070
     1
1070
   289
1070
     2
1070
   288
1070
     1
1070
    77
1070
     1
1070
   172
1070
     1
1070
   174
1070
     0
1070
    74
1070
     0
1070
    73
1070
     0
1070
   284
1070
     8
1070
    78
1070
     8
1070
    42
1040
40.0
1070
    44
1040
20.0
1070
    43
1040
10.0
1070
   271
1070
     2
1070
    41
1040
20.0
1002
}
  0
DIMENSION
  5
320
330
1F
100
AcDbEntity
  8
2
  6
Continuous
 62
     4
370
    20
100
AcDbDimension
  2
Dim16
 10
1029.462586140223
 20
794.411239299317
 30
0.0
 11
1306.962586140222
 21
794.411239299317
 31
0.0
 70
   160
  1
555
 71
     8
 42
-1.0
 73
     0
 74
     0
 75
     0
 53
0.0000000000000509
  3
Standard
100
AcDbAlignedDimension
 13
1584.462586140223
 23
1050.23781165774
 33
0.0
 14
1029.462586140223
 24
1049.474784341444
 34
0.0
 50
179.9999999999998
100
AcDbRotatedDimension
1001
ACAD
1000
DSTYLE
1002
{
1070
   279
1070
     1
1070
   340
1005
153
1070
   140
1040
60.0
1070
    40
1040
1.0
1070
   147
1040
0.0
1070
    76
1070
     0
1070
    75
1070
     1
1070
   344
1005
51
1070
   343
1005
51
1070
   173
1070
     1
1070
   289
1070
     2
1070
   288
1070
     1
1070
    77
1070
     1
1070
   172
1070
     1
1070
   174
1070
     0
1070
    74
1070
     0
1070
    73
1070
     0
1070
   284
1070
     8
1070
    78
1070
     8
1070
    42
1040
40.0
1070
    44
1040
20.0
1070
    43
1040
10.0
1070
   271
1070
     2
1070
    41
1040
20.0
1002
}
  0
DIMENSION
  5
328
330
1F
100
AcDbEntity
  8
2
  6
Continuous
 62
     4
370
    20
100
AcDbDimension
  2
Dim17
 10
1009.462586140223
 20
794.411239299317
 30
0.0
 11
963.3521211794771
 21
794.411239299317
 31
0.0
 70
   160
  1
20
 71
     8
 42
-1.0
 73
     0
 74
     0
 75
     0
 53
0.0000000000000509
  3
Standard
100
AcDbAlignedDimension
 13
1029.462586140223
 23
1049.474784341444
 33
0.0
 14
1009.462586140223
 24
1025.623858965845
 34
0.0
 50
179.9999999999998
100
AcDbRotatedDimension
1001
ACAD
1000
DSTYLE
1002
{
1070
   279
1070
     1
1070
   340
1005
153
1070
   140
1040
60.0
1070
    40
1040
1.0
1070
   147
1040
0.0
1070
    76
1070
     0
1070
    75
1070
     1
1070
   344
1005
51
1070
   343
1005
7E
1070
   173
1070
     1
1070
   289
1070
     2
1070
   288
1070
     1
1070
    77
1070
     1
1070
   172
1070
     1
1070
   174
1070
     0
1070
    74
1070
     0
1070
    73
1070
     0
1070
   284
1070
     8
1070
    78
1070
     8
1070
    42
1040
40.0
1070
    44
1040
20.0
1070
    43
1040
10.0
1070
   271
1070
     2
1070
    41
1040
20.0
1002
}
  0
DIMENSION
  5
332
330
1F
100
AcDbEntity
  8
2
  6
Continuous
 62
     4
370
    20
100
AcDbDimension
  2
Dim18
 10
1654.506669716805
 20
2837.450064272185
 30
0.0
 11
1329.506669716806
 21
2837.450064272185
 31
0.0
 70
   160
  1
<>
 71
     8
 42
-1.0
 73
     0
 74
     0
 75
     0
  3
Standard
100
AcDbAlignedDimension
 13
1004.506669716804
 23
2563.323616937165
 33
0.0
 14
1654.506669716805
 24
2563.323616937165
 34
0.0
100
AcDbRotatedDimension
1001
ACAD
1000
DSTYLE
1002
{
1070
   279
1070
     1
1070
   340
1005
153
1070
   140
1040
60.0
1070
    40
1040
1.0
1070
   147
1040
0.0
1070
    76
1070
     0
1070
    75
1070
     0
1070
   344
1005
51
1070
   343
1005
51
1070
   173
1070
     1
1070
   289
1070
     2
1070
   288
1070
     1
1070
    77
1070
     1
1070
   172
1070
     1
1070
   174
1070
     0
1070
    74
1070
     0
1070
    73
1070
     0
1070
   284
1070
     8
1070
    78
1070
     8
1070
    42
1040
40.0
1070
    44
1040
20.0
1070
    43
1040
10.0
1070
   271
1070
     2
1070
    41
1040
20.0
1002
}
  0
LINE
  5
333
330
1F
100
AcDbEntity
  8
2
  6
DOT
 62
     4
370
    20
100
AcDbLine
 10
1488.462586140223
 20
1073.623858965844
 30
0.0
 11
1548.462586140223
 21
1043.623858965844
 31
0.0
  0
LINE
  5
334
330
1F
100
AcDbEntity
  8
2
  6
DOT
 62
     4
370
    20
100
AcDbLine
 10
1548.462586140223
 20
1073.623858965845
 30
0.0
 11
1548.462586140222
 21
1043.623858965845
 31
0.0
  0
LINE
  5
335
330
1F
100
AcDbEntity
  8
2
  6
DOT
 62
     4
370
    20
100
AcDbLine
 10
1488.462586140223
 20
1043.623858965844
 30
0.0
 11
1488.462586140223
 21
1073.623858965844
 31
0.0
  0
LINE
  5
336
330
1F
100
AcDbEntity
  8
2
  6
DOT
 62
     4
370
    20
100
AcDbLine
 10
1488.462586140223
 20
1043.623858965844
 30
0.0
 11
1548.462586140223
 21
1073.623858965845
 31
0.0
  0
LINE
  5
337
330
1F
100
AcDbEntity
  8
2
  6
DOT
 62
     4
370
    20
100
AcDbLine
 10
1521.462586140223
 20
1155.623858965845
 30
0.0
 11
1482.162586140223
 21
1155.623858965845
 31
0.0
  0
LINE
  5
338
330
1F
100
AcDbEntity
  8
2
  6
Continuous
 62
     4
370
    20
100
AcDbLine
 10
1554.462586140223
 20
1149.623858965845
 30
0.0
 11
1554.462586140223
 21
1061.623858965845
 31
0.0
  0
INSERT
  5
339
330
1F
100
AcDbEntity
  8
2
  6
Continuous
 62
     4
370
    20
100
AcDbBlockReference
  2
_OPEN
 10
1528.048881688433
 20
1050.837644825458
 30
0.0
 41
40.0
 42
40.0
 43
40.0
 50
106.3841990493334
  0
POLYLINE
  5
33A
330
1F
100
AcDbEntity
  8
2
  6
Continuous
 62
     4
370
    20
100
AcDb2dPolyline
 66
     1
 10
0.0
 20
0.0
 30
0.0
  0
VERTEX
  5
33B
330
33A
100
AcDbEntity
  8
2
  6
Continuous
 62
     4
370
    20
100
AcDbVertex
100
AcDb2dVertex
 10
1528.048881688433
 20
1050.837644825458
 30
0.0
  0
VERTEX
  5
33C
330
33A
100
AcDbEntity
  8
2
  6
Continuous
 62
     4
370
    20
100
AcDbVertex
100
AcDb2dVertex
 10
1701.366114486864
 20
461.3560551247961
 30
0.0
  0
VERTEX
  5
33D
330
33A
100
AcDbEntity
  8
2
  6
Continuous
 62
     4
370
    20
100
AcDbVertex
100
AcDb2dVertex
 10
1881.366114486863
 20
461.3560551247961
 30
0.0
  0
SEQEND
  5
33E
330
33A
100
AcDbEntity
  8
2
  6
Continuous
 62
     4
370
    20
  0
MTEXT
  5
33F
330
1F
100
AcDbEntity
  8
2
  6
Continuous
 62
     4
370
     9
100
AcDbMText
 10
1701.366114486864
 20
461.3560551247961
 30
0.0
 40
60.0
 41
279.9032999999999
 46
60.0
 71
     7
 72
     1
  1
{\fＭＳ ゴシック;\T0.750000;通線口}
 73
     1
 44
1.0
1001
ACAD
1000
ACAD_MTEXT_DEFINED_HEIGHT_BEGIN
1070
    46
1040
60.0
1000
ACAD_MTEXT_DEFINED_HEIGHT_END
  0
LINE
  5
340
330
1F
100
AcDbEntity
  8
2
  6
Continuous
 62
     4
370
    20
100
AcDbLine
 10
1554.462586140223
 20
1149.623858965845
 30
0.0
 11
1604.462586140223
 21
1149.623858965845
 31
0.0
  0
LINE
  5
341
330
1F
100
AcDbEntity
  8
2
  6
Continuous
 62
     4
370
    20
100
AcDbLine
 10
1604.462586140223
 20
1061.623858965845
 30
0.0
 11
1554.462586140223
 21
1061.623858965845
 31
0.0
  0
LINE
  5
342
330
1F
100
AcDbEntity
  8
2
  6
Continuous
 62
     4
370
    20
100
AcDbLine
 10
1555.618882274671
 20
1061.623858965845
 30
0.0
 11
1083.028624611597
 21
1061.623858965845
 31
0.0
  0
LINE
  5
343
330
1F
100
AcDbEntity
  8
2
  6
HIDDEN
 62
     4
370
    20
100
AcDbLine
 10
1548.462586140223
 20
1061.623858965845
 30
0.0
 11
1548.462586140223
 21
1149.623858965845
 31
0.0
  0
LINE
  5
344
330
1F
100
AcDbEntity
  8
2
  6
DOT
 62
     4
370
    20
100
AcDbLine
 10
1103.96258614023
 20
1151.123858965846
 30
0.0
 11
1103.96258614023
 21
1155.623858965845
 31
0.0
  0
LINE
  5
345
330
1F
100
AcDbEntity
  8
2
  6
Continuous
 62
     4
370
    20
100
AcDbLine
 10
1059.462586140223
 20
1149.623858965845
 30
0.0
 11
1059.462586140223
 21
1061.623858965845
 31
0.0
  0
LINE
  5
346
330
1F
100
AcDbEntity
  8
2
  6
Continuous
 62
     4
370
    20
100
AcDbLine
 10
1059.462586140223
 20
1149.623858965845
 30
0.0
 11
1009.462586140223
 21
1149.623858965845
 31
0.0
  0
LINE
  5
347
330
1F
100
AcDbEntity
  8
2
  6
Continuous
 62
     4
370
    20
100
AcDbLine
 10
1009.462586140223
 20
1061.623858965845
 30
0.0
 11
1059.462586140223
 21
1061.623858965845
 31
0.0
  0
LINE
  5
348
330
1F
100
AcDbEntity
  8
2
  6
HIDDEN
 62
     4
370
    20
100
AcDbLine
 10
1065.462586140223
 20
1061.623858965845
 30
0.0
 11
1065.462586140223
 21
1149.623858965845
 31
0.0
  0
LINE
  5
349
330
1F
100
AcDbEntity
  8
2
  6
Continuous
 62
     4
370
    20
100
AcDbLine
 10
1059.462586140223
 20
1149.623858965845
 30
0.0
 11
1557.255599083968
 21
1149.623858965845
 31
0.0
  0
MTEXT
  5
34A
330
1F
100
AcDbEntity
  8
13
  6
Continuous
 62
    91
370
     9
100
AcDbMText
 10
1313.31582399648
 20
2624.137603377497
 30
0.0
 40
80.0
 41
712.8753766303998
 46
80.0
 71
     8
 72
     1
  1
{\fＭＳ ゴシック;\T1.063462;（ 側　面 ）}
 73
     1
 44
1.0
1001
ACAD
1000
ACAD_MTEXT_DEFINED_HEIGHT_BEGIN
1070
    46
1040
80.0
1000
ACAD_MTEXT_DEFINED_HEIGHT_END
  0
LINE
  5
34B
330
1F
100
AcDbEntity
  8
2
  6
Continuous
 62
     4
370
    20
100
AcDbLine
 10
1654.506669716805
 20
2555.623858965848
 30
0.0
 11
1004.506669716805
 21
2545.623858965851
 31
0.0
  0
LINE
  5
34C
330
1F
100
AcDbEntity
  8
2
  6
Continuous
 62
     4
370
    20
100
AcDbLine
 10
1654.506669716805
 20
2430.62385896585
 30
0.0
 11
1654.506669716805
 21
2555.623858965848
 31
0.0
  0
LINE
  5
34D
330
1F
100
AcDbEntity
  8
2
  6
HIDDEN
 62
     4
370
    20
100
AcDbLine
 10
1081.634872947084
 20
2530.772901571353
 30
0.0
 11
1081.634872947084
 21
2530.760928139077
 31
0.0
  0
LINE
  5
34E
330
1F
100
AcDbEntity
  8
2
  6
HIDDEN
 62
     4
370
    20
100
AcDbLine
 10
1537.306669716797
 20
2537.834711428102
 30
0.0
 11
1537.306669716797
 21
2538.08194182849
 31
0.0
  0
LINE
  5
34F
330
1F
100
AcDbEntity
  8
2
  6
Continuous
 62
     4
370
    20
100
AcDbLine
 10
1004.506669716805
 20
2545.623858964279
 30
0.0
 11
1004.506669716805
 21
2395.623858965851
 31
0.0
  0
LINE
  5
350
330
1F
100
AcDbEntity
  8
2
  6
Continuous
 62
     4
370
    20
100
AcDbLine
 10
1004.506669716805
 20
2395.623858965851
 30
0.0
 11
1049.506669716804
 21
2395.623858965851
 31
0.0
  0
LINE
  5
351
330
1F
100
AcDbEntity
  8
2
  6
Continuous
 62
     4
370
    20
100
AcDbLine
 10
1049.506669716804
 20
2395.623858965851
 30
0.0
 11
1084.506669716804
 21
2430.623858965851
 31
0.0
  0
LINE
  5
352
330
1F
100
AcDbEntity
  8
2
  6
Continuous
 62
     4
370
    20
100
AcDbLine
 10
1084.506669716804
 20
2430.623858965851
 30
0.0
 11
1654.506669716805
 21
2430.623858965848
 31
0.0
  0
INSERT
  5
353
330
1F
100
AcDbEntity
  8
13
  6
Continuous
 62
    91
370
    20
100
AcDbBlockReference
  2
_OPEN
 10
1127.805887815127
 20
1092.099889992664
 30
0.0
 41
40.0
 42
40.0
 43
40.0
 50
42.10787264400705
  0
POLYLINE
  5
354
330
1F
100
AcDbEntity
  8
13
  6
Continuous
 62
    91
370
    20
100
AcDb2dPolyline
 66
     1
 10
0.0
 20
0.0
 30
0.0
  0
VERTEX
  5
355
330
354
100
AcDbEntity
  8
13
  6
Continuous
 62
    91
370
    20
100
AcDbVertex
100
AcDb2dVertex
 10
1127.805887815127
 20
1092.099889992664
 30
0.0
  0
VERTEX
  5
356
330
354
100
AcDbEntity
  8
13
  6
Continuous
 62
    91
370
    20
100
AcDbVertex
100
AcDb2dVertex
 10
830.3676788150487
 20
823.2695992556769
 30
0.0
  0
VERTEX
  5
357
330
354
100
AcDbEntity
  8
13
  6
Continuous
 62
    91
370
    20
100
AcDbVertex
100
AcDb2dVertex
 10
350.7643432279349
 20
823.2695992556769
 30
0.0
  0
SEQEND
  5
358
330
354
100
AcDbEntity
  8
13
  6
Continuous
 62
    91
370
    20
  0
MTEXT
  5
359
330
1F
100
AcDbEntity
  8
13
  6
Continuous
 62
    91
370
     9
100
AcDbMText
 10
844.7643432279349
 20
823.2695992556769
 30
0.0
 40
60.0
 41
766.6615499999998
 46
60.0
 71
     9
 72
     1
  1
{\fＭＳ ゴシック;\T0.750000;チャンネルべース}
 73
     1
 44
1.0
1001
ACAD
1000
ACAD_MTEXT_DEFINED_HEIGHT_BEGIN
1070
    46
1040
60.0
1000
ACAD_MTEXT_DEFINED_HEIGHT_END
  0
MTEXT
  5
35A
330
1F
100
AcDbEntity
  8
13
  6
Continuous
 62
    91
370
     9
100
AcDbMText
 10
694.7643432279349
 20
823.2695992556769
 30
0.0
 40
60.0
 41
521.878372665
 46
60.0
 71
     3
 72
     1
  1
{\fＭＳ ゴシック;\T1.035925;（材質SPHC)}
 73
     1
 44
1.0
1001
ACAD
1000
ACAD_MTEXT_DEFINED_HEIGHT_BEGIN
1070
    46
1040
60.0
1000
ACAD_MTEXT_DEFINED_HEIGHT_END
  0
INSERT
  5
35B
330
1F
100
AcDbEntity
  8
13
  6
Continuous
 62
    91
370
    20
100
AcDbBlockReference
  2
_OPEN
 10
4881.960867786875
 20
1303.048359820719
 30
0.0
 41
40.0
 42
40.0
 43
40.0
 50
210.3785695277381
  0
POLYLINE
  5
35C
330
1F
100
AcDbEntity
  8
13
  6
Continuous
 62
    91
370
    20
100
AcDb2dPolyline
 66
     1
 10
0.0
 20
0.0
 30
0.0
  0
VERTEX
  5
35D
330
35C
100
AcDbEntity
  8
13
  6
Continuous
 62
    91
370
    20
100
AcDbVertex
100
AcDb2dVertex
 10
4881.960867786875
 20
1303.048359820719
 30
0.0
  0
VERTEX
  5
35E
330
35C
100
AcDbEntity
  8
13
  6
Continuous
 62
    91
370
    20
100
AcDbVertex
100
AcDb2dVertex
 10
5161.85944790858
 20
1467.123185153151
 30
0.0
  0
VERTEX
  5
35F
330
35C
100
AcDbEntity
  8
13
  6
Continuous
 62
    91
370
    20
100
AcDbVertex
100
AcDb2dVertex
 10
5595.629923818713
 20
1467.123185153151
 30
0.0
  0
SEQEND
  5
360
330
35C
100
AcDbEntity
  8
13
  6
Continuous
 62
    91
370
    20
  0
MTEXT
  5
361
330
1F
100
AcDbEntity
  8
13
  6
Continuous
 62
    91
370
     9
100
AcDbMText
 10
5176.15361459178
 20
1497.390549655359
 30
0.0
 40
60.0
 41
660.2497453125
 46
60.0
 71
     7
 72
     1
  1
{\fＭＳ Ｐゴシック;\T0.750000;メンテナンス口}
 73
     1
 44
1.0
1001
ACAD
1000
ACAD_MTEXT_DEFINED_HEIGHT_BEGIN
1070
    46
1040
60.0
1000
ACAD_MTEXT_DEFINED_HEIGHT_END
  0
LINE
  5
362
330
1F
100
AcDbEntity
  8
1
  6
Continuous
 62
     7
370
    20
100
AcDbLine
 10
4747.005414517688
 20
1155.623858965847
 30
0.0
 11
4747.005414517688
 21
1205.623858965847
 31
0.0
  0
LINE
  5
363
330
1F
100
AcDbEntity
  8
1
  6
HIDDEN
 62
     7
370
    20
100
AcDbLine
 10
4750.205414517688
 20
1205.623858965847
 30
0.0
 11
4750.205414517688
 21
1155.623858965847
 31
0.0
  0
LINE
  5
364
330
1F
100
AcDbEntity
  8
1
  6
HIDDEN
 62
     7
370
    20
100
AcDbLine
 10
4743.805414517688
 20
1205.623858965847
 30
0.0
 11
4743.805414517688
 21
1155.623858965847
 31
0.0
  0
MTEXT
  5
365
330
1F
100
AcDbEntity
  8
1
  6
Continuous
 62
     7
370
     9
100
AcDbMText
 10
4610.422779802764
 20
481.050285589907
 30
0.0
 40
40.0
 41
112.6947746512
 46
40.0
 71
     7
 72
     1
  1
{\fＭＳ ゴシック;\T0.775244;1/20}
 73
     1
 44
1.0
1001
ACAD
1000
ACAD_MTEXT_DEFINED_HEIGHT_BEGIN
1070
    46
1040
40.0
1000
ACAD_MTEXT_DEFINED_HEIGHT_END
  0
MTEXT
  5
366
330
1F
100
AcDbEntity
  8
1
  6
Continuous
 62
     7
370
     9
100
AcDbMText
 10
4283.38226832933
 20
474.7186353269793
 30
0.0
 40
60.0
 41
159.65231113905
 46
60.0
 71
     7
 72
     1
  1
{\fＭＳ ゴシック;\W0.833333;\T0.750000;柿間}
 73
     1
 44
1.0
1001
ACAD
1000
ACAD_MTEXT_DEFINED_HEIGHT_BEGIN
1070
    46
1040
60.0
1000
ACAD_MTEXT_DEFINED_HEIGHT_END
  0
MTEXT
  5
367
330
1F
100
AcDbEntity
  8
1
  6
Continuous
 62
     7
370
     9
100
AcDbMText
 10
4125.065868516417
 20
476.9367219360387
 30
0.0
 40
60.0
 41
160.78831068465
 46
60.0
 71
     7
 72
     1
  1
{\fＭＳ ゴシック;\W0.833333;\T0.750000;黒澤}
 73
     1
 44
1.0
1001
ACAD
1000
ACAD_MTEXT_DEFINED_HEIGHT_BEGIN
1070
    46
1040
60.0
1000
ACAD_MTEXT_DEFINED_HEIGHT_END
  0
MTEXT
  5
368
330
1F
100
AcDbEntity
  8
1
  6
Continuous
 62
     7
370
     9
100
AcDbMText
 10
4440.882258941599
 20
474.7186353269793
 30
0.0
 40
60.0
 41
159.65231113905
 46
60.0
 71
     7
 72
     1
  1
{\fＭＳ ゴシック;\W0.833333;\T0.750000;淳一}
 73
     1
 44
1.0
1001
ACAD
1000
ACAD_MTEXT_DEFINED_HEIGHT_BEGIN
1070
    46
1040
60.0
1000
ACAD_MTEXT_DEFINED_HEIGHT_END
  0
MTEXT
  5
369
330
1F
100
AcDbEntity
  8
4
  6
Continuous
 62
     6
370
     9
100
AcDbMText
 10
423.2384112919439
 20
692.0277691903148
 30
0.0
 40
60.0
 41
601.4268
 46
60.0
 71
     7
 72
     1
  1
{\fＭＳ ゴシック;\T0.750000;HDZ45　仕上げ}
 73
     1
 44
1.0
1001
ACAD
1000
ACAD_MTEXT_DEFINED_HEIGHT_BEGIN
1070
    46
1040
60.0
1000
ACAD_MTEXT_DEFINED_HEIGHT_END
  0
INSERT
  5
36A
330
1F
100
AcDbEntity
  8
13
  6
Continuous
 62
    91
370
    20
100
AcDbBlockReference
  2
_OPEN
 10
1312.179713973944
 20
2084.296819850187
 30
0.0
 41
40.0
 42
40.0
 43
40.0
 50
326.7361887467662
  0
POLYLINE
  5
36B
330
1F
100
AcDbEntity
  8
13
  6
Continuous
 62
    91
370
    20
100
AcDb2dPolyline
 66
     1
 10
0.0
 20
0.0
 30
0.0
  0
VERTEX
  5
36C
330
36B
100
AcDbEntity
  8
13
  6
Continuous
 62
    91
370
    20
100
AcDbVertex
100
AcDb2dVertex
 10
1312.179713973944
 20
2084.296819850187
 30
0.0
  0
VERTEX
  5
36D
330
36B
100
AcDbEntity
  8
13
  6
Continuous
 62
    91
370
    20
100
AcDbVertex
100
AcDb2dVertex
 10
931.8626829469695
 20
2333.774695291554
 30
0.0
  0
VERTEX
  5
36E
330
36B
100
AcDbEntity
  8
13
  6
Continuous
 62
    91
370
    20
100
AcDbVertex
100
AcDb2dVertex
 10
415.4290248599673
 20
2333.774695291554
 30
0.0
  0
SEQEND
  5
36F
330
36B
100
AcDbEntity
  8
13
  6
Continuous
 62
    91
370
    20
  0
MTEXT
  5
370
330
1F
100
AcDbEntity
  8
13
  6
Continuous
 62
    91
370
     9
100
AcDbMText
 10
777.6462281921945
 20
2333.774695291554
 30
0.0
 40
60.0
 41
581.4154499999999
 46
60.0
 71
     9
 72
     1
  1
{\fＭＳ ゴシック;\T0.750000;キュービクル}
 73
     1
 44
1.0
1001
ACAD
1000
ACAD_MTEXT_DEFINED_HEIGHT_BEGIN
1070
    46
1040
60.0
1000
ACAD_MTEXT_DEFINED_HEIGHT_END
  0
LINE
  5
371
330
1F
100
AcDbEntity
  8
2
  6
Continuous
 62
     4
370
    20
100
AcDbLine
 10
1101.262586140221
 20
2430.623858965852
 30
0.0
 11
1101.262586140221
 21
2384.923616937166
 31
0.0
  0
LINE
  5
372
330
1F
100
AcDbEntity
  8
2
  6
Continuous
 62
     4
370
    20
100
AcDbLine
 10
1574.462586140221
 20
2430.623858965852
 30
0.0
 11
1574.462586140221
 21
2384.923616937166
 31
0.0
  0
LINE
  5
373
330
1F
100
AcDbEntity
  8
2
  6
Continuous
 62
     4
370
    20
100
AcDbLine
 10
2615.112173105013
 20
2430.623858965851
 30
0.0
 11
2615.112173105013
 21
2384.92361693717
 31
0.0
  0
LINE
  5
374
330
1F
100
AcDbEntity
  8
2
  6
Continuous
 62
     4
370
    20
100
AcDbLine
 10
3165.112173105013
 20
2430.623858965851
 30
0.0
 11
3165.112173105013
 21
2384.92361693717
 31
0.0
  0
LINE
  5
375
330
1F
100
AcDbEntity
  8
2
  6
Continuous
 62
     4
370
    20
100
AcDbLine
 10
2615.112173105013
 20
2414.92361693717
 30
0.0
 11
2565.112173105012
 21
2414.92361693717
 31
0.0
  0
LINE
  5
376
330
1F
100
AcDbEntity
  8
2
  6
Continuous
 62
     4
370
    20
100
AcDbLine
 10
3215.112173105013
 20
2414.92361693717
 30
0.0
 11
3165.112173105013
 21
2414.92361693717
 31
0.0
  0
LINE
  5
377
330
1F
100
AcDbEntity
  8
2
  6
Continuous
 62
     4
370
    20
100
AcDbLine
 10
4472.005414517693
 20
2414.92361693717
 30
0.0
 11
4472.005414517693
 21
2384.92361693717
 31
0.0
  0
LINE
  5
378
330
1F
100
AcDbEntity
  8
2
  6
Continuous
 62
     4
370
    20
100
AcDbLine
 10
5022.005414517693
 20
2414.92361693717
 30
0.0
 11
5022.005414517693
 21
2384.92361693717
 31
0.0
  0
DIMENSION
  5
382
330
1F
100
AcDbEntity
  8
20
  6
Continuous
 62
    52
370
    20
100
AcDbDimension
  2
Dim19
 10
3170.112173105014
 20
910.9923303220289
 30
0.0
 11
3266.920317702314
 21
910.9923303220289
 31
0.0
 70
   160
  1
40
 71
     8
 42
-1.0
 73
     0
 74
     0
 75
     0
 53
0.0000000000000509
  3
Standard
100
AcDbAlignedDimension
 13
3210.112173105013
 23
1055.623858965847
 33
0.0
 14
3170.112173105014
 24
1038.623858965847
 34
0.0
 50
179.9999999999998
100
AcDbRotatedDimension
1001
ACAD
1000
DSTYLE
1002
{
1070
   279
1070
     1
1070
   340
1005
153
1070
   140
1040
60.0
1070
    40
1040
1.0
1070
   147
1040
0.0
1070
    76
1070
     0
1070
    75
1070
     0
1070
   344
1005
51
1070
   343
1005
51
1070
   173
1070
     1
1070
   289
1070
     2
1070
   288
1070
     1
1070
    77
1070
     1
1070
   172
1070
     1
1070
   174
1070
     0
1070
    74
1070
     0
1070
    73
1070
     0
1070
   284
1070
     8
1070
    78
1070
     8
1070
    42
1040
40.0
1070
    44
1040
20.0
1070
    43
1040
10.0
1070
   271
1070
     2
1070
    41
1040
20.0
1002
}
  0
DIMENSION
  5
38B
330
1F
100
AcDbEntity
  8
20
  6
Continuous
 62
    52
370
    20
100
AcDbDimension
  2
Dim20
 10
3015.112173105013
 20
910.9923303220289
 30
0.0
 11
3092.612173105013
 21
910.9923303220289
 31
0.0
 70
   160
  1
155
 71
     8
 42
-1.0
 73
     0
 74
     0
 75
     0
 53
0.0000000000000509
  3
Standard
100
AcDbAlignedDimension
 13
3170.112173105014
 23
1038.623858965847
 33
0.0
 14
3015.112173105013
 24
1055.623858965847
 34
0.0
 50
179.9999999999998
100
AcDbRotatedDimension
1001
ACAD
1000
DSTYLE
1002
{
1070
   279
1070
     1
1070
   340
1005
153
1070
   140
1040
60.0
1070
    40
1040
1.0
1070
   147
1040
0.0
1070
    76
1070
     0
1070
    75
1070
     1
1070
   344
1005
51
1070
   343
1005
51
1070
   173
1070
     1
1070
   289
1070
     2
1070
   288
1070
     1
1070
    77
1070
     1
1070
   172
1070
     1
1070
   174
1070
     0
1070
    74
1070
     0
1070
    73
1070
     0
1070
   284
1070
     8
1070
    78
1070
     8
1070
    42
1040
40.0
1070
    44
1040
20.0
1070
    43
1040
10.0
1070
   271
1070
     2
1070
    41
1040
20.0
1002
}
  0
MTEXT
  5
38C
330
1F
100
AcDbEntity
  8
1
  6
Continuous
 62
     7
370
     9
100
AcDbMText
 10
4311.514022889171
 20
391.0857911876923
 30
0.0
 40
40.0
 41
282.8717947208
 46
40.0
 71
     7
 72
     1
  1
{\fＭＳ ゴシック;\T0.793882;2020.05.11}
 73
     1
 44
1.0
1001
ACAD
1000
ACAD_MTEXT_DEFINED_HEIGHT_BEGIN
1070
    46
1040
40.0
1000
ACAD_MTEXT_DEFINED_HEIGHT_END
  0
LINE
  5
38D
330
1F
100
AcDbEntity
  8
3
  6
Continuous
 62
     3
370
    20
100
AcDbLine
 10
4962.005414517693
 20
1210.62652229474
 30
0.0
 11
4967.005414517693
 21
1215.62652229474
 31
0.0
  0
LINE
  5
38E
330
1F
100
AcDbEntity
  8
3
  6
Continuous
 62
     3
370
    20
100
AcDbLine
 10
4967.005414517693
 20
1435.62652229474
 30
0.0
 11
4967.005414517693
 21
1215.62652229474
 31
0.0
  0
LINE
  5
38F
330
1F
100
AcDbEntity
  8
3
  6
Continuous
 62
     3
370
    20
100
AcDbLine
 10
4532.005414517691
 20
1210.62652229474
 30
0.0
 11
4962.005414517693
 21
1210.62652229474
 31
0.0
  0
LINE
  5
390
330
1F
100
AcDbEntity
  8
3
  6
Continuous
 62
     3
370
    20
100
AcDbLine
 10
4532.005414517691
 20
1210.62652229474
 30
0.0
 11
4527.005414517691
 21
1215.62652229474
 31
0.0
  0
LINE
  5
391
330
1F
100
AcDbEntity
  8
3
  6
Continuous
 62
     3
370
    20
100
AcDbLine
 10
4527.005414517691
 20
1435.62652229474
 30
0.0
 11
4527.005414517691
 21
1215.62652229474
 31
0.0
  0
LINE
  5
392
330
1F
100
AcDbEntity
  8
3
  6
Continuous
 62
     3
370
    20
100
AcDbLine
 10
4962.005414517693
 20
1440.62652229474
 30
0.0
 11
4967.005414517693
 21
1435.62652229474
 31
0.0
  0
LINE
  5
393
330
1F
100
AcDbEntity
  8
3
  6
Continuous
 62
     3
370
    20
100
AcDbLine
 10
4532.005414517691
 20
1440.62652229474
 30
0.0
 11
4962.005414517693
 21
1440.62652229474
 31
0.0
  0
LINE
  5
394
330
1F
100
AcDbEntity
  8
3
  6
Continuous
 62
     3
370
    20
100
AcDbLine
 10
4527.005414517691
 20
1435.62652229474
 30
0.0
 11
4532.005414517691
 21
1440.62652229474
 31
0.0
  0
CIRCLE
  5
395
330
1F
100
AcDbEntity
  8
1
  6
Continuous
 62
     7
370
    20
100
AcDbCircle
 10
4860.005414517691
 20
1225.624271594267
 30
0.0
 40
5.5
  0
LINE
  5
396
330
1F
100
AcDbEntity
  8
1
  6
DASHDOT
 62
     7
370
    20
100
AcDbLine
 10
4860.005414517691
 20
1233.101613219364
 30
0.0
 11
4860.005414517691
 21
1218.15899494189
 31
0.0
  0
LINE
  5
397
330
1F
100
AcDbEntity
  8
1
  6
DASHDOT
 62
     7
370
    20
100
AcDbLine
 10
4853.247669957005
 20
1225.624778582896
 30
0.0
 11
4867.634716917311
 21
1225.62369921845
 31
0.0
  0
CIRCLE
  5
398
330
1F
100
AcDbEntity
  8
1
  6
Continuous
 62
     7
370
    20
100
AcDbCircle
 10
4634.005414517682
 20
1225.624271594267
 30
0.0
 40
5.5
  0
LINE
  5
399
330
1F
100
AcDbEntity
  8
1
  6
DASHDOT
 62
     7
370
    20
100
AcDbLine
 10
4634.005414517682
 20
1233.101613219364
 30
0.0
 11
4634.005414517682
 21
1218.15899494189
 31
0.0
  0
LINE
  5
39A
330
1F
100
AcDbEntity
  8
1
  6
DASHDOT
 62
     7
370
    20
100
AcDbLine
 10
4627.247669956992
 20
1225.624778582896
 30
0.0
 11
4641.634716917299
 21
1225.62369921845
 31
0.0
  0
CIRCLE
  5
39B
330
1F
100
AcDbEntity
  8
1
  6
Continuous
 62
     7
370
    20
100
AcDbCircle
 10
4860.005414517691
 20
1425.593512021141
 30
0.0
 40
5.5
  0
LINE
  5
39C
330
1F
100
AcDbEntity
  8
1
  6
DASHDOT
 62
     7
370
    20
100
AcDbLine
 10
4860.005414517691
 20
1433.070853646238
 30
0.0
 11
4860.005414517691
 21
1418.128235368764
 31
0.0
  0
LINE
  5
39D
330
1F
100
AcDbEntity
  8
1
  6
DASHDOT
 62
     7
370
    20
100
AcDbLine
 10
4853.247669957005
 20
1425.594019009769
 30
0.0
 11
4867.634716917311
 21
1425.592939645323
 31
0.0
  0
CIRCLE
  5
39E
330
1F
100
AcDbEntity
  8
1
  6
Continuous
 62
     7
370
    20
100
AcDbCircle
 10
4634.005414517682
 20
1425.624271594266
 30
0.0
 40
5.5
  0
LINE
  5
39F
330
1F
100
AcDbEntity
  8
1
  6
DASHDOT
 62
     7
370
    20
100
AcDbLine
 10
4634.005414517682
 20
1433.101613219364
 30
0.0
 11
4634.005414517682
 21
1418.158994941889
 31
0.0
  0
LINE
  5
3A0
330
1F
100
AcDbEntity
  8
1
  6
DASHDOT
 62
     7
370
    20
100
AcDbLine
 10
4627.247669956996
 20
1425.624778582895
 30
0.0
 11
4641.634716917302
 21
1425.623699218449
 31
0.0
  0
CIRCLE
  5
3A1
330
1F
100
AcDbEntity
  8
1
  6
Continuous
 62
     7
370
    20
100
AcDbCircle
 10
4952.005414517693
 20
1325.624271594266
 30
0.0
 40
5.5
  0
LINE
  5
3A2
330
1F
100
AcDbEntity
  8
1
  6
DASHDOT
 62
     7
370
    20
100
AcDbLine
 10
4952.005414517693
 20
1333.101613219364
 30
0.0
 11
4952.005414517693
 21
1318.15899494189
 31
0.0
  0
LINE
  5
3A3
330
1F
100
AcDbEntity
  8
1
  6
DASHDOT
 62
     7
370
    20
100
AcDbLine
 10
4945.247669957005
 20
1325.624778582895
 30
0.0
 11
4959.634716917311
 21
1325.623699218449
 31
0.0
  0
CIRCLE
  5
3A4
330
1F
100
AcDbEntity
  8
1
  6
Continuous
 62
     7
370
    20
100
AcDbCircle
 10
4542.005414517691
 20
1325.624271594266
 30
0.0
 40
5.5
  0
LINE
  5
3A5
330
1F
100
AcDbEntity
  8
1
  6
DASHDOT
 62
     7
370
    20
100
AcDbLine
 10
4542.005414517691
 20
1333.101613219364
 30
0.0
 11
4542.005414517691
 21
1318.15899494189
 31
0.0
  0
LINE
  5
3A6
330
1F
100
AcDbEntity
  8
1
  6
DASHDOT
 62
     7
370
    20
100
AcDbLine
 10
4535.247669957005
 20
1325.624778582895
 30
0.0
 11
4549.634716917311
 21
1325.623699218449
 31
0.0
  0
LINE
  5
3A7
330
1F
100
AcDbEntity
  8
1
  6
Continuous
 62
     7
370
    20
100
AcDbLine
 10
4747.005414517688
 20
1440.62652229474
 30
0.0
 11
4747.005414517688
 21
2384.92361693717
 31
0.0
  0
LINE
  5
3A8
330
1F
100
AcDbEntity
  8
1
  6
HIDDEN
 62
     7
370
    20
100
AcDbLine
 10
4743.805414517688
 20
2384.92361693717
 30
0.0
 11
4743.805414517688
 21
1440.62652229474
 31
0.0
  0
LINE
  5
3A9
330
1F
100
AcDbEntity
  8
1
  6
HIDDEN
 62
     7
370
    20
100
AcDbLine
 10
4750.205414517688
 20
2384.92361693717
 30
0.0
 11
4750.205414517688
 21
1440.62652229474
 31
0.0
  0
MTEXT
  5
3AA
330
1F
100
AcDbEntity
  8
1
  6
Continuous
 62
     7
370
     9
100
AcDbMText
 10
4999.220588870257
 20
339.9813559271203
 30
0.0
 40
60.0
 41
804.04805338065
 46
60.0
 71
     7
 72
     1
  1
{\fＭＳ ゴシック;\W0.833333;\T0.750000;小型発電装置　外形図}
 73
     1
 44
1.0
1001
ACAD
1000
ACAD_MTEXT_DEFINED_HEIGHT_BEGIN
1070
    46
1040
60.0
1000
ACAD_MTEXT_DEFINED_HEIGHT_END
  0
MTEXT
  5
3AB
330
1F
100
AcDbEntity
  8
1
  6
Continuous
 62
     7
370
     9
100
AcDbMText
 10
5079.182999633826
 20
445.6885943659839
 30
0.0
 40
60.0
 41
468.059713998
 46
60.0
 71
     7
 72
     1
  1
{\fＭＳ ゴシック;\T0.758377;ODG-130A-24}
 73
     1
 44
1.0
1001
ACAD
1000
ACAD_MTEXT_DEFINED_HEIGHT_BEGIN
1070
    46
1040
60.0
1000
ACAD_MTEXT_DEFINED_HEIGHT_END
  0
VIEWPORT
  5
3F
330
1B
100
AcDbEntity
 67
     1
  8
0
100
AcDbViewport
 10
2970.0
 20
2100.0
 30
0.0
 40
5940.0
 41
4200.0
 68
     1
 69
     1
 12
2970.0
 22
2100.0
 13
0.0
 23
0.0
 14
0.5
 24
0.5
 15
0.5
 25
0.5
 16
0.0
 26
0.0
 36
1.0
 17
0.0
 27
0.0
 37
0.0
 42
50.0
 43
0.0
 44
0.0
 45
9.0
 50
0.0
 51
0.0
 72
   100
 90
   557152
  1

281
     0
 71
     1
 74
     0
110
0.0
120
0.0
130
0.0
111
1.0
121
0.0
131
0.0
112
0.0
122
1.0
132
0.0
 79
     0
146
0.0
170
     0
 61
     5
292
     1
282
     1
141
0.0
142
0.0
 63
   256
  0
ENDSEC
  0
SECTION
  2
OBJECTS
  0
DICTIONARY
  5
C
330
0
100
AcDbDictionary
281
     1
  3
ACAD_GROUP
350
D
  3
ACAD_LAYOUT
350
1A
  3
ACAD_MATERIAL
350
3B
  3
ACAD_MLEADERSTYLE
350
3CD
  3
ACAD_MLINESTYLE
350
17
  3
ACAD_PLOTSETTINGS
350
19
  3
ACAD_PLOTSTYLENAME
350
E
  3
ACAD_TABLESTYLE
350
3CC
  3
ACAD_VISUALSTYLE
350
2A
  0
DICTIONARY
  5
D
102
{ACAD_REACTORS
330
C
102
}
330
C
100
AcDbDictionary
281
     1
  0
DICTIONARY
  5
1A
102
{ACAD_REACTORS
330
C
102
}
330
C
100
AcDbDictionary
281
     1
  3
Layout1
350
1E
  3
Layout2
350
26
  3
Model
350
22
  0
DICTIONARY
  5
3B
102
{ACAD_REACTORS
330
C
102
}
330
C
100
AcDbDictionary
281
     1
  3
ByBlock
350
3D
  3
ByLayer
350
3C
  3
Global
350
3E
  0
DICTIONARY
  5
3CD
102
{ACAD_REACTORS
330
C
102
}
330
C
100
AcDbDictionary
281
     1
  0
DICTIONARY
  5
17
102
{ACAD_REACTORS
330
C
102
}
330
C
100
AcDbDictionary
281
     1
  3
Standard
350
18
  0
DICTIONARY
  5
19
102
{ACAD_REACTORS
330
C
102
}
330
C
100
AcDbDictionary
281
     1
  0
ACDBDICTIONARYWDFLT
  5
E
102
{ACAD_REACTORS
330
C
102
}
330
C
100
AcDbDictionary
281
     1
  3
Normal
350
F
100
AcDbDictionaryWithDefault
340
F
  0
DICTIONARY
  5
3CC
102
{ACAD_REACTORS
330
C
102
}
330
C
100
AcDbDictionary
281
     1
  0
DICTIONARY
  5
2A
102
{ACAD_REACTORS
330
C
102
}
330
C
100
AcDbDictionary
281
     1
  3
2dWireframe
350
2F
  3
3D Hidden
350
31
  3
3dWireframe
350
30
  3
Basic
350
32
  3
Brighten
350
36
  3
ColorChange
350
3A
  3
Conceptual
350
34
  3
Dim
350
35
  3
Facepattern
350
39
  3
Flat
350
2B
  3
FlatWithEdges
350
2C
  3
Gouraud
350
2D
  3
GouraudWithEdges
350
2E
  3
Linepattern
350
38
  3
Realistic
350
33
  3
Thicken
350
37
  0
LAYOUT
  5
1E
102
{ACAD_REACTORS
330
1A
102
}
330
1A
100
AcDbPlotSettings
  1

  2
none_device
  4

  6

 40
0.0
 41
0.0
 42
0.0
 43
0.0
 44
0.0
 45
0.0
 46
0.0
 47
0.0
 48
0.0
 49
0.0
140
0.0
141
0.0
142
1.0
143
1.0
 70
   688
 72
     0
 73
     0
 74
     5
  7

 75
    16
 76
     0
 77
     2
 78
   300
147
1.0
148
0.0
149
0.0
100
AcDbLayout
  1
Layout1
 70
     1
 71
     1
 10
0.0
 20
0.0
 11
297.0
 21
210.0
 12
0.0
 22
0.0
 32
0.0
 14
0.0
 24
0.0
 34
0.0
 15
297.0
 25
210.0
 35
0.0
146
0.0
 13
0.0
 23
0.0
 33
0.0
 16
1.0
 26
0.0
 36
0.0
 17
0.0
 27
1.0
 37
0.0
 76
     0
330
1B
331
3F
  0
LAYOUT
  5
26
102
{ACAD_REACTORS
330
1A
102
}
330
1A
100
AcDbPlotSettings
  1

  2
none_device
  4

  6

 40
0.0
 41
0.0
 42
0.0
 43
0.0
 44
0.0
 45
0.0
 46
0.0
 47
0.0
 48
0.0
 49
0.0
140
0.0
141
0.0
142
1.0
143
1.0
 70
   688
 72
     0
 73
     0
 74
     5
  7

 75
    16
 76
     0
 77
     2
 78
   300
147
1.0
148
0.0
149
0.0
100
AcDbLayout
  1
Layout2
 70
     1
 71
     2
 10
0.0
 20
0.0
 11
0.0
 21
0.0
 12
0.0
 22
0.0
 32
0.0
 14
0.0
 24
0.0
 34
0.0
 15
0.0
 25
0.0
 35
0.0
146
0.0
 13
0.0
 23
0.0
 33
0.0
 16
1.0
 26
0.0
 36
0.0
 17
0.0
 27
1.0
 37
0.0
 76
     0
330
23
  0
LAYOUT
  5
22
102
{ACAD_REACTORS
330
1A
102
}
330
1A
100
AcDbPlotSettings
  1

  2
none_device
  4

  6

 40
0.0
 41
0.0
 42
0.0
 43
0.0
 44
0.0
 45
0.0
 46
0.0
 47
0.0
 48
0.0
 49
0.0
140
0.0
141
0.0
142
1.0
143
1.0
 70
  1712
 72
     0
 73
     0
 74
     0
  7

 75
     0
 76
     0
 77
     2
 78
   300
147
1.0
148
0.0
149
0.0
100
AcDbLayout
  1
Model
 70
     1
 71
     0
 10
0.0
 20
0.0
 11
297.0
 21
210.0
 12
0.0
 22
0.0
 32
0.0
 14
260.5218070489829
 24
188.9929908976904
 34
0.0
 15
5753.410839307056
 25
3972.379483752952
 35
0.0
146
0.0
 13
0.0
 23
0.0
 33
0.0
 16
1.0
 26
0.0
 36
0.0
 17
0.0
 27
1.0
 37
0.0
 76
     0
330
1F
331
29
  0
MATERIAL
  5
3D
102
{ACAD_REACTORS
330
3B
102
}
330
3B
100
AcDbMaterial
  1
ByBlock
 72
     1
 94
      127
  0
MATERIAL
  5
3C
102
{ACAD_REACTORS
330
3B
102
}
330
3B
100
AcDbMaterial
  1
ByLayer
 72
     1
 94
      127
  0
MATERIAL
  5
3E
102
{ACAD_REACTORS
330
3B
102
}
330
3B
100
AcDbMaterial
  1
Global
 72
     1
 94
      127
  0
MLINESTYLE
  5
18
102
{ACAD_REACTORS
330
17
102
}
330
17
100
AcDbMlineStyle
  2
Standard
 70
     0
  3

 62
   256
 51
90.0
 52
90.0
 71
     2
 49
0.5
 62
   256
  6
BYLAYER
 49
-0.5
 62
   256
  6
BYLAYER
  0
ACDBPLACEHOLDER
  5
F
102
{ACAD_REACTORS
330
E
102
}
330
E
  0
VISUALSTYLE
  5
2F
102
{ACAD_REACTORS
330
2A
102
}
102
{ACAD_XDICTIONARY
360
3B4
102
}
330
2A
100
AcDbVisualStyle
  2
2dWireframe
 70
     4
 71
     0
 72
     2
 73
     0
 90
        0
 40
-0.6
 41
-30.0
 62
     5
 63
     7
421
 16777215
 74
     1
 91
        4
 64
     7
 65
   257
 75
     1
175
     1
 42
1.0
 92
        0
 66
   257
 43
1.0
 76
     1
 77
     6
 78
     2
 67
     7
 79
     5
170
     0
171
     0
290
     0
174
     0
 93
        1
 44
0.0
173
     0
291
     0
 45
0.0
  0
VISUALSTYLE
  5
31
102
{ACAD_REACTORS
330
2A
102
}
102
{ACAD_XDICTIONARY
360
3B8
102
}
330
2A
100
AcDbVisualStyle
  2
3D Hidden
 70
     6
 71
     1
 72
     2
 73
     2
 90
        0
 40
-0.6
 41
-30.0
 62
     5
 63
     7
421
 16777215
 74
     2
 91
        2
 64
     7
 65
   257
 75
     2
175
     1
 42
40.0
 92
        0
 66
   257
 43
1.0
 76
     1
 77
     6
 78
     2
 67
     7
 79
     3
170
     0
171
     0
290
     0
174
     0
 93
        1
 44
0.0
173
     0
291
     0
 45
0.0
  0
VISUALSTYLE
  5
30
102
{ACAD_REACTORS
330
2A
102
}
102
{ACAD_XDICTIONARY
360
3B6
102
}
330
2A
100
AcDbVisualStyle
  2
3dWireframe
 70
     5
 71
     0
 72
     2
 73
     0
 90
        0
 40
-0.6
 41
-30.0
 62
     5
 63
     7
421
 16777215
 74
     1
 91
        4
 64
     7
 65
   257
 75
     1
175
     1
 42
1.0
 92
        0
 66
   257
 43
1.0
 76
     1
 77
     6
 78
     2
 67
     7
 79
     5
170
     0
171
     0
290
     0
174
     0
 93
        1
 44
0.0
173
     0
291
     0
 45
0.0
  0
VISUALSTYLE
  5
32
102
{ACAD_REACTORS
330
2A
102
}
102
{ACAD_XDICTIONARY
360
3BA
102
}
330
2A
100
AcDbVisualStyle
  2
Basic
 70
     7
 71
     1
 72
     0
 73
     1
 90
        0
 40
-0.6
 41
-30.0
 62
     5
 63
     7
421
 16777215
 74
     0
 91
        4
 64
     7
 65
   257
 75
     1
175
     1
 42
1.0
 92
        8
 66
     7
 43
1.0
 76
     1
 77
     6
 78
     2
 67
     7
 79
     5
170
     0
171
     0
290
     0
174
     0
 93
        1
 44
0.0
173
     0
291
     1
 45
0.0
  0
VISUALSTYLE
  5
36
102
{ACAD_REACTORS
330
2A
102
}
102
{ACAD_XDICTIONARY
360
3C2
102
}
330
2A
100
AcDbVisualStyle
  2
Brighten
 70
    12
 71
     2
 72
     2
 73
     0
 90
        0
 40
-0.6
 41
-30.0
 62
     5
 63
     7
421
 16777215
 74
     1
 91
        4
 64
     7
 65
   257
 75
     1
175
     1
 42
1.0
 92
        8
 66
     7
 43
1.0
 76
     1
 77
     6
 78
     2
 67
     7
 79
     5
170
     0
171
     0
290
     0
174
     0
 93
        1
 44
50.0
173
     0
291
     1
 45
0.0
  0
VISUALSTYLE
  5
3A
102
{ACAD_REACTORS
330
2A
102
}
102
{ACAD_XDICTIONARY
360
3CA
102
}
330
2A
100
AcDbVisualStyle
  2
ColorChange
 70
    16
 71
     2
 72
     2
 73
     3
 90
        0
 40
-0.6
 41
-30.0
 62
     5
 63
     8
421
  8421504
 74
     1
 91
        4
 64
     7
 65
   257
 75
     1
175
     1
 42
1.0
 92
        8
 66
     8
424
  8421504
 43
1.0
 76
     1
 77
     6
 78
     2
 67
     7
 79
     5
170
     0
171
     0
290
     0
174
     0
 93
        1
 44
0.0
173
     0
291
     1
 45
0.0
  0
VISUALSTYLE
  5
34
102
{ACAD_REACTORS
330
2A
102
}
102
{ACAD_XDICTIONARY
360
3BE
102
}
330
2A
100
AcDbVisualStyle
  2
Conceptual
 70
     9
 71
     3
 72
     2
 73
     0
 90
        0
 40
-0.6
 41
-30.0
 62
     5
 63
     7
421
 16777215
 74
     2
 91
        2
 64
     7
 65
   257
 75
     1
175
     1
 42
40.0
 92
        8
 66
     7
 43
1.0
 76
     1
 77
     6
 78
     2
 67
     7
 79
     3
170
     0
171
     0
290
     0
174
     0
 93
        1
 44
0.0
173
     0
291
     0
 45
0.0
  0
VISUALSTYLE
  5
35
102
{ACAD_REACTORS
330
2A
102
}
102
{ACAD_XDICTIONARY
360
3C0
102
}
330
2A
100
AcDbVisualStyle
  2
Dim
 70
    11
 71
     2
 72
     2
 73
     0
 90
        0
 40
-0.6
 41
-30.0
 62
     5
 63
     7
421
 16777215
 74
     1
 91
        4
 64
     7
 65
   257
 75
     1
175
     1
 42
1.0
 92
        8
 66
     7
 43
1.0
 76
     1
 77
     6
 78
     2
 67
     7
 79
     5
170
     0
171
     0
290
     0
174
     0
 93
        1
 44
-50.0
173
     0
291
     1
 45
0.0
  0
VISUALSTYLE
  5
39
102
{ACAD_REACTORS
330
2A
102
}
102
{ACAD_XDICTIONARY
360
3C8
102
}
330
2A
100
AcDbVisualStyle
  2
Facepattern
 70
    15
 71
     2
 72
     2
 73
     0
 90
        0
 40
-0.6
 41
-30.0
 62
     5
 63
     7
421
 16777215
 74
     1
 91
        4
 64
     7
 65
   257
 75
     1
175
     1
 42
1.0
 92
        8
 66
     7
 43
1.0
 76
     1
 77
     6
 78
     2
 67
     7
 79
     5
170
     0
171
     0
290
     0
174
     0
 93
        1
 44
0.0
173
     0
291
     1
 45
0.0
  0
VISUALSTYLE
  5
2B
102
{ACAD_REACTORS
330
2A
102
}
102
{ACAD_XDICTIONARY
360
3AC
102
}
330
2A
100
AcDbVisualStyle
  2
Flat
 70
     0
 71
     2
 72
     1
 73
     1
 90
        2
 40
-0.6
 41
30.0
 62
     5
 63
     7
421
 16777215
 74
     0
 91
        4
 64
     7
 65
   257
 75
     1
175
     1
 42
1.0
 92
        8
 66
     7
 43
1.0
 76
     1
 77
     6
 78
     2
 67
     7
 79
     5
170
     0
171
     0
290
     0
174
     0
 93
       13
 44
0.0
173
     0
291
     1
 45
0.0
  0
VISUALSTYLE
  5
2C
102
{ACAD_REACTORS
330
2A
102
}
102
{ACAD_XDICTIONARY
360
3AE
102
}
330
2A
100
AcDbVisualStyle
  2
FlatWithEdges
 70
     1
 71
     2
 72
     1
 73
     1
 90
        2
 40
-0.6
 41
30.0
 62
     5
 63
     7
421
 16777215
 74
     1
 91
        4
 64
     7
 65
   257
 75
     1
175
     1
 42
1.0
 92
        0
 66
   257
 43
1.0
 76
     1
 77
     6
 78
     2
 67
     7
 79
     5
170
     0
171
     0
290
     0
174
     0
 93
       13
 44
0.0
173
     0
291
     1
 45
0.0
  0
VISUALSTYLE
  5
2D
102
{ACAD_REACTORS
330
2A
102
}
102
{ACAD_XDICTIONARY
360
3B0
102
}
330
2A
100
AcDbVisualStyle
  2
Gouraud
 70
     2
 71
     2
 72
     2
 73
     1
 90
        2
 40
-0.6
 41
30.0
 62
     5
 63
     7
421
 16777215
 74
     0
 91
        4
 64
     7
 65
   257
 75
     1
175
     1
 42
1.0
 92
        0
 66
     7
 43
1.0
 76
     1
 77
     6
 78
     2
 67
     7
 79
     5
170
     0
171
     0
290
     0
174
     0
 93
       13
 44
0.0
173
     0
291
     1
 45
0.0
  0
VISUALSTYLE
  5
2E
102
{ACAD_REACTORS
330
2A
102
}
102
{ACAD_XDICTIONARY
360
3B2
102
}
330
2A
100
AcDbVisualStyle
  2
GouraudWithEdges
 70
     3
 71
     2
 72
     2
 73
     1
 90
        2
 40
-0.6
 41
30.0
 62
     5
 63
     7
421
 16777215
 74
     1
 91
        4
 64
     7
 65
   257
 75
     1
175
     1
 42
1.0
 92
        0
 66
   257
 43
1.0
 76
     1
 77
     6
 78
     2
 67
     7
 79
     5
170
     0
171
     0
290
     0
174
     0
 93
       13
 44
0.0
173
     0
291
     1
 45
0.0
  0
VISUALSTYLE
  5
38
102
{ACAD_REACTORS
330
2A
102
}
102
{ACAD_XDICTIONARY
360
3C6
102
}
330
2A
100
AcDbVisualStyle
  2
Linepattern
 70
    14
 71
     2
 72
     2
 73
     0
 90
        0
 40
-0.6
 41
-30.0
 62
     5
 63
     7
421
 16777215
 74
     1
 91
        4
 64
     7
 65
   257
 75
     7
175
     7
 42
1.0
 92
        8
 66
     7
 43
1.0
 76
     1
 77
     6
 78
     2
 67
     7
 79
     5
170
     0
171
     0
290
     0
174
     0
 93
        1
 44
0.0
173
     0
291
     1
 45
0.0
  0
VISUALSTYLE
  5
33
102
{ACAD_REACTORS
330
2A
102
}
102
{ACAD_XDICTIONARY
360
3BC
102
}
330
2A
100
AcDbVisualStyle
  2
Realistic
 70
     8
 71
     2
 72
     2
 73
     0
 90
        0
 40
-0.6
 41
-30.0
 62
     5
 63
     7
421
 16777215
 74
     1
 91
        0
 64
     7
 65
   257
 75
     1
175
     1
 42
1.0
 92
        8
 66
     8
424
  7895160
 43
1.0
 76
     1
 77
     6
 78
     2
 67
     7
 79
     5
170
     0
171
     0
290
     0
174
     0
 93
       13
 44
0.0
173
     0
291
     0
 45
0.0
  0
VISUALSTYLE
  5
37
102
{ACAD_REACTORS
330
2A
102
}
102
{ACAD_XDICTIONARY
360
3C4
102
}
330
2A
100
AcDbVisualStyle
  2
Thicken
 70
    13
 71
     2
 72
     2
 73
     0
 90
        0
 40
-0.6
 41
-30.0
 62
     5
 63
     7
421
 16777215
 74
     1
 91
        4
 64
     7
 65
   257
 75
     1
175
     1
 42
1.0
 92
       12
 66
     7
 43
1.0
 76
     1
 77
     6
 78
     2
 67
     7
 79
     5
170
     0
171
     0
290
     0
174
     0
 93
        1
 44
0.0
173
     0
291
     1
 45
0.0
  0
DICTIONARY
  5
3B4
330
2F
100
AcDbDictionary
280
     1
281
     1
  3
ACAD_XREC_ROUNDTRIP
360
3B5
  0
DICTIONARY
  5
3B8
330
31
100
AcDbDictionary
280
     1
281
     1
  3
ACAD_XREC_ROUNDTRIP
360
3B9
  0
DICTIONARY
  5
3B6
330
30
100
AcDbDictionary
280
     1
281
     1
  3
ACAD_XREC_ROUNDTRIP
360
3B7
  0
DICTIONARY
  5
3BA
330
32
100
AcDbDictionary
280
     1
281
     1
  3
ACAD_XREC_ROUNDTRIP
360
3BB
  0
DICTIONARY
  5
3C2
330
36
100
AcDbDictionary
280
     1
281
     1
  3
ACAD_XREC_ROUNDTRIP
360
3C3
  0
DICTIONARY
  5
3CA
330
3A
100
AcDbDictionary
280
     1
281
     1
  3
ACAD_XREC_ROUNDTRIP
360
3CB
  0
DICTIONARY
  5
3BE
330
34
100
AcDbDictionary
280
     1
281
     1
  3
ACAD_XREC_ROUNDTRIP
360
3BF
  0
DICTIONARY
  5
3C0
330
35
100
AcDbDictionary
280
     1
281
     1
  3
ACAD_XREC_ROUNDTRIP
360
3C1
  0
DICTIONARY
  5
3C8
330
39
100
AcDbDictionary
280
     1
281
     1
  3
ACAD_XREC_ROUNDTRIP
360
3C9
  0
DICTIONARY
  5
3AC
330
2B
100
AcDbDictionary
280
     1
281
     1
  3
ACAD_XREC_ROUNDTRIP
360
3AD
  0
DICTIONARY
  5
3AE
330
2C
100
AcDbDictionary
280
     1
281
     1
  3
ACAD_XREC_ROUNDTRIP
360
3AF
  0
DICTIONARY
  5
3B0
330
2D
100
AcDbDictionary
280
     1
281
     1
  3
ACAD_XREC_ROUNDTRIP
360
3B1
  0
DICTIONARY
  5
3B2
330
2E
100
AcDbDictionary
280
     1
281
     1
  3
ACAD_XREC_ROUNDTRIP
360
3B3
  0
DICTIONARY
  5
3C6
330
38
100
AcDbDictionary
280
     1
281
     1
  3
ACAD_XREC_ROUNDTRIP
360
3C7
  0
DICTIONARY
  5
3BC
330
33
100
AcDbDictionary
280
     1
281
     1
  3
ACAD_XREC_ROUNDTRIP
360
3BD
  0
DICTIONARY
  5
3C4
330
37
100
AcDbDictionary
280
     1
281
     1
  3
ACAD_XREC_ROUNDTRIP
360
3C5
  0
XRECORD
  5
3B5
102
{ACAD_REACTORS
330
3B4
102
}
330
3B4
100
AcDbXrecord
280
     1
102
RTVSPropertyOp0
 70
     1
102
RTVSPropertyOp1
 70
     1
102
RTVSPropertyOp2
 70
     1
102
RTVSPropertyOp3
 70
     1
102
RTVSPropertyOp4
 70
     1
102
RTVSPropertyOp5
 70
     1
102
RTVSPropertyOp6
 70
     1
102
RTVSPropertyOp7
 70
     1
102
RTVSPropertyOp8
 70
     1
102
RTVSPropertyOp9
 70
     1
102
RTVSPropertyOp10
 70
     1
102
RTVSPropertyOp11
 70
     1
102
RTVSPropertyOp12
 70
     1
102
RTVSPropertyOp13
 70
     1
102
RTVSPropertyOp14
 70
     1
102
RTVSPropertyOp15
 70
     1
102
RTVSPropertyOp16
 70
     1
102
RTVSPropertyOp17
 70
     1
102
RTVSPropertyOp18
 70
     1
102
RTVSPropertyOp19
 70
     1
102
RTVSPropertyOp20
 70
     1
102
RTVSPropertyOp21
 70
     1
102
RTVSPropertyOp22
 70
     1
102
RTVSPropertyOp23
 70
     1
102
RTVSPropertyOp24
 70
     1
102
RTVSPropertyOp25
 70
     1
102
RTVSPropertyOp26
 70
     1
102
RTVSPropertyOp27
 70
     1
102
RTVSPropertyOp28
 70
     1
102
RTVSPropertyOp29
 70
     1
102
RTVSPropertyOp30
 70
     1
102
RTVSPropertyOp31
 70
     1
102
RTVSPropertyOp32
 70
     1
  0
XRECORD
  5
3B9
102
{ACAD_REACTORS
330
3B8
102
}
330
3B8
100
AcDbXrecord
280
     1
102
RTVSPropertyOp0
 70
     1
102
RTVSPropertyOp1
 70
     1
102
RTVSPropertyOp2
 70
     1
102
RTVSPropertyOp3
 70
     1
102
RTVSPropertyOp4
 70
     1
102
RTVSPropertyOp5
 70
     1
102
RTVSPropertyOp6
 70
     1
102
RTVSPropertyOp7
 70
     1
102
RTVSPropertyOp8
 70
     1
102
RTVSPropertyOp9
 70
     1
102
RTVSPropertyOp10
 70
     1
102
RTVSPropertyOp11
 70
     1
102
RTVSPropertyOp12
 70
     1
102
RTVSPropertyOp13
 70
     1
102
RTVSPropertyOp14
 70
     1
102
RTVSPropertyOp15
 70
     1
102
RTVSPropertyOp16
 70
     1
102
RTVSPropertyOp17
 70
     1
102
RTVSPropertyOp18
 70
     1
102
RTVSPropertyOp19
 70
     1
102
RTVSPropertyOp20
 70
     1
102
RTVSPropertyOp21
 70
     1
102
RTVSPropertyOp22
 70
     1
102
RTVSPropertyOp23
 70
     1
102
RTVSPropertyOp24
 70
     1
102
RTVSPropertyOp25
 70
     1
102
RTVSPropertyOp26
 70
     1
102
RTVSPropertyOp27
 70
     1
102
RTVSPropertyOp28
 70
     1
102
RTVSPropertyOp29
 70
     1
102
RTVSPropertyOp30
 70
     1
102
RTVSPropertyOp31
 70
     1
102
RTVSPropertyOp32
 70
     1
  0
XRECORD
  5
3B7
102
{ACAD_REACTORS
330
3B6
102
}
330
3B6
100
AcDbXrecord
280
     1
102
RTVSPropertyOp0
 70
     1
102
RTVSPropertyOp1
 70
     1
102
RTVSPropertyOp2
 70
     1
102
RTVSPropertyOp3
 70
     1
102
RTVSPropertyOp4
 70
     1
102
RTVSPropertyOp5
 70
     1
102
RTVSPropertyOp6
 70
     1
102
RTVSPropertyOp7
 70
     1
102
RTVSPropertyOp8
 70
     1
102
RTVSPropertyOp9
 70
     1
102
RTVSPropertyOp10
 70
     1
102
RTVSPropertyOp11
 70
     1
102
RTVSPropertyOp12
 70
     1
102
RTVSPropertyOp13
 70
     1
102
RTVSPropertyOp14
 70
     1
102
RTVSPropertyOp15
 70
     1
102
RTVSPropertyOp16
 70
     1
102
RTVSPropertyOp17
 70
     1
102
RTVSPropertyOp18
 70
     1
102
RTVSPropertyOp19
 70
     1
102
RTVSPropertyOp20
 70
     1
102
RTVSPropertyOp21
 70
     1
102
RTVSPropertyOp22
 70
     1
102
RTVSPropertyOp23
 70
     1
102
RTVSPropertyOp24
 70
     1
102
RTVSPropertyOp25
 70
     1
102
RTVSPropertyOp26
 70
     1
102
RTVSPropertyOp27
 70
     1
102
RTVSPropertyOp28
 70
     1
102
RTVSPropertyOp29
 70
     1
102
RTVSPropertyOp30
 70
     1
102
RTVSPropertyOp31
 70
     1
102
RTVSPropertyOp32
 70
     1
  0
XRECORD
  5
3BB
102
{ACAD_REACTORS
330
3BA
102
}
330
3BA
100
AcDbXrecord
280
     1
102
RTVSPropertyOp0
 70
     1
102
RTVSPropertyOp1
 70
     1
102
RTVSPropertyOp2
 70
     1
102
RTVSPropertyOp3
 70
     1
102
RTVSPropertyOp4
 70
     1
102
RTVSPropertyOp5
 70
     1
102
RTVSPropertyOp6
 70
     1
102
RTVSPropertyOp7
 70
     1
102
RTVSPropertyOp8
 70
     1
102
RTVSPropertyOp9
 70
     1
102
RTVSPropertyOp10
 70
     1
102
RTVSPropertyOp11
 70
     1
102
RTVSPropertyOp12
 70
     1
102
RTVSPropertyOp13
 70
     1
102
RTVSPropertyOp14
 70
     1
102
RTVSPropertyOp15
 70
     1
102
RTVSPropertyOp16
 70
     1
102
RTVSPropertyOp17
 70
     1
102
RTVSPropertyOp18
 70
     1
102
RTVSPropertyOp19
 70
     1
102
RTVSPropertyOp20
 70
     1
102
RTVSPropertyOp21
 70
     1
102
RTVSPropertyOp22
 70
     1
102
RTVSPropertyOp23
 70
     1
102
RTVSPropertyOp24
 70
     1
102
RTVSPropertyOp25
 70
     1
102
RTVSPropertyOp26
 70
     1
102
RTVSPropertyOp27
 70
     1
102
RTVSPropertyOp28
 70
     1
102
RTVSPropertyOp29
 70
     1
102
RTVSPropertyOp30
 70
     1
102
RTVSPropertyOp31
 70
     1
102
RTVSPropertyOp32
 70
     1
  0
XRECORD
  5
3C3
102
{ACAD_REACTORS
330
3C2
102
}
330
3C2
100
AcDbXrecord
280
     1
102
RTVSPropertyOp0
 70
     1
102
RTVSPropertyOp1
 70
     1
102
RTVSPropertyOp2
 70
     1
102
RTVSPropertyOp3
 70
     1
102
RTVSPropertyOp4
 70
     1
102
RTVSPropertyOp5
 70
     1
102
RTVSPropertyOp6
 70
     1
102
RTVSPropertyOp7
 70
     1
102
RTVSPropertyOp8
 70
     1
102
RTVSPropertyOp9
 70
     1
102
RTVSPropertyOp10
 70
     1
102
RTVSPropertyOp11
 70
     1
102
RTVSPropertyOp12
 70
     1
102
RTVSPropertyOp13
 70
     1
102
RTVSPropertyOp14
 70
     1
102
RTVSPropertyOp15
 70
     1
102
RTVSPropertyOp16
 70
     1
102
RTVSPropertyOp17
 70
     1
102
RTVSPropertyOp18
 70
     1
102
RTVSPropertyOp19
 70
     1
102
RTVSPropertyOp20
 70
     1
102
RTVSPropertyOp21
 70
     1
102
RTVSPropertyOp22
 70
     1
102
RTVSPropertyOp23
 70
     1
102
RTVSPropertyOp24
 70
     1
102
RTVSPropertyOp25
 70
     1
102
RTVSPropertyOp26
 70
     1
102
RTVSPropertyOp27
 70
     1
102
RTVSPropertyOp28
 70
     1
102
RTVSPropertyOp29
 70
     1
102
RTVSPropertyOp30
 70
     1
102
RTVSPropertyOp31
 70
     1
102
RTVSPropertyOp32
 70
     1
  0
XRECORD
  5
3CB
102
{ACAD_REACTORS
330
3CA
102
}
330
3CA
100
AcDbXrecord
280
     1
102
RTVSPropertyOp0
 70
     1
102
RTVSPropertyOp1
 70
     1
102
RTVSPropertyOp2
 70
     1
102
RTVSPropertyOp3
 70
     1
102
RTVSPropertyOp4
 70
     1
102
RTVSPropertyOp5
 70
     1
102
RTVSPropertyOp6
 70
     1
102
RTVSPropertyOp7
 70
     1
102
RTVSPropertyOp8
 70
     1
102
RTVSPropertyOp9
 70
     1
102
RTVSPropertyOp10
 70
     1
102
RTVSPropertyOp11
 70
     1
102
RTVSPropertyOp12
 70
     1
102
RTVSPropertyOp13
 70
     1
102
RTVSPropertyOp14
 70
     1
102
RTVSPropertyOp15
 70
     1
102
RTVSPropertyOp16
 70
     1
102
RTVSPropertyOp17
 70
     1
102
RTVSPropertyOp18
 70
     1
102
RTVSPropertyOp19
 70
     1
102
RTVSPropertyOp20
 70
     1
102
RTVSPropertyOp21
 70
     1
102
RTVSPropertyOp22
 70
     1
102
RTVSPropertyOp23
 70
     1
102
RTVSPropertyOp24
 70
     1
102
RTVSPropertyOp25
 70
     1
102
RTVSPropertyOp26
 70
     1
102
RTVSPropertyOp27
 70
     1
102
RTVSPropertyOp28
 70
     1
102
RTVSPropertyOp29
 70
     1
102
RTVSPropertyOp30
 70
     1
102
RTVSPropertyOp31
 70
     1
102
RTVSPropertyOp32
 70
     1
  0
XRECORD
  5
3BF
102
{ACAD_REACTORS
330
3BE
102
}
330
3BE
100
AcDbXrecord
280
     1
102
RTVSPropertyOp0
 70
     1
102
RTVSPropertyOp1
 70
     1
102
RTVSPropertyOp2
 70
     1
102
RTVSPropertyOp3
 70
     1
102
RTVSPropertyOp4
 70
     1
102
RTVSPropertyOp5
 70
     1
102
RTVSPropertyOp6
 70
     1
102
RTVSPropertyOp7
 70
     1
102
RTVSPropertyOp8
 70
     1
102
RTVSPropertyOp9
 70
     1
102
RTVSPropertyOp10
 70
     1
102
RTVSPropertyOp11
 70
     1
102
RTVSPropertyOp12
 70
     1
102
RTVSPropertyOp13
 70
     1
102
RTVSPropertyOp14
 70
     1
102
RTVSPropertyOp15
 70
     1
102
RTVSPropertyOp16
 70
     1
102
RTVSPropertyOp17
 70
     1
102
RTVSPropertyOp18
 70
     1
102
RTVSPropertyOp19
 70
     1
102
RTVSPropertyOp20
 70
     1
102
RTVSPropertyOp21
 70
     1
102
RTVSPropertyOp22
 70
     1
102
RTVSPropertyOp23
 70
     1
102
RTVSPropertyOp24
 70
     1
102
RTVSPropertyOp25
 70
     1
102
RTVSPropertyOp26
 70
     1
102
RTVSPropertyOp27
 70
     1
102
RTVSPropertyOp28
 70
     1
102
RTVSPropertyOp29
 70
     1
102
RTVSPropertyOp30
 70
     1
102
RTVSPropertyOp31
 70
     1
102
RTVSPropertyOp32
 70
     1
  0
XRECORD
  5
3C1
102
{ACAD_REACTORS
330
3C0
102
}
330
3C0
100
AcDbXrecord
280
     1
102
RTVSPropertyOp0
 70
     1
102
RTVSPropertyOp1
 70
     1
102
RTVSPropertyOp2
 70
     1
102
RTVSPropertyOp3
 70
     1
102
RTVSPropertyOp4
 70
     1
102
RTVSPropertyOp5
 70
     1
102
RTVSPropertyOp6
 70
     1
102
RTVSPropertyOp7
 70
     1
102
RTVSPropertyOp8
 70
     1
102
RTVSPropertyOp9
 70
     1
102
RTVSPropertyOp10
 70
     1
102
RTVSPropertyOp11
 70
     1
102
RTVSPropertyOp12
 70
     1
102
RTVSPropertyOp13
 70
     1
102
RTVSPropertyOp14
 70
     1
102
RTVSPropertyOp15
 70
     1
102
RTVSPropertyOp16
 70
     1
102
RTVSPropertyOp17
 70
     1
102
RTVSPropertyOp18
 70
     1
102
RTVSPropertyOp19
 70
     1
102
RTVSPropertyOp20
 70
     1
102
RTVSPropertyOp21
 70
     1
102
RTVSPropertyOp22
 70
     1
102
RTVSPropertyOp23
 70
     1
102
RTVSPropertyOp24
 70
     1
102
RTVSPropertyOp25
 70
     1
102
RTVSPropertyOp26
 70
     1
102
RTVSPropertyOp27
 70
     1
102
RTVSPropertyOp28
 70
     1
102
RTVSPropertyOp29
 70
     1
102
RTVSPropertyOp30
 70
     1
102
RTVSPropertyOp31
 70
     1
102
RTVSPropertyOp32
 70
     1
  0
XRECORD
  5
3C9
102
{ACAD_REACTORS
330
3C8
102
}
330
3C8
100
AcDbXrecord
280
     1
102
RTVSPropertyOp0
 70
     1
102
RTVSPropertyOp1
 70
     1
102
RTVSPropertyOp2
 70
     1
102
RTVSPropertyOp3
 70
     1
102
RTVSPropertyOp4
 70
     1
102
RTVSPropertyOp5
 70
     1
102
RTVSPropertyOp6
 70
     1
102
RTVSPropertyOp7
 70
     1
102
RTVSPropertyOp8
 70
     1
102
RTVSPropertyOp9
 70
     1
102
RTVSPropertyOp10
 70
     1
102
RTVSPropertyOp11
 70
     1
102
RTVSPropertyOp12
 70
     1
102
RTVSPropertyOp13
 70
     1
102
RTVSPropertyOp14
 70
     1
102
RTVSPropertyOp15
 70
     1
102
RTVSPropertyOp16
 70
     1
102
RTVSPropertyOp17
 70
     1
102
RTVSPropertyOp18
 70
     1
102
RTVSPropertyOp19
 70
     1
102
RTVSPropertyOp20
 70
     1
102
RTVSPropertyOp21
 70
     1
102
RTVSPropertyOp22
 70
     1
102
RTVSPropertyOp23
 70
     1
102
RTVSPropertyOp24
 70
     1
102
RTVSPropertyOp25
 70
     1
102
RTVSPropertyOp26
 70
     1
102
RTVSPropertyOp27
 70
     1
102
RTVSPropertyOp28
 70
     1
102
RTVSPropertyOp29
 70
     1
102
RTVSPropertyOp30
 70
     1
102
RTVSPropertyOp31
 70
     1
102
RTVSPropertyOp32
 70
     1
  0
XRECORD
  5
3AD
102
{ACAD_REACTORS
330
3AC
102
}
330
3AC
100
AcDbXrecord
280
     1
102
RTVSPropertyOp0
 70
     1
102
RTVSPropertyOp1
 70
     1
102
RTVSPropertyOp2
 70
     1
102
RTVSPropertyOp3
 70
     1
102
RTVSPropertyOp4
 70
     1
102
RTVSPropertyOp5
 70
     1
102
RTVSPropertyOp6
 70
     1
102
RTVSPropertyOp7
 70
     1
102
RTVSPropertyOp8
 70
     1
102
RTVSPropertyOp9
 70
     1
102
RTVSPropertyOp10
 70
     1
102
RTVSPropertyOp11
 70
     1
102
RTVSPropertyOp12
 70
     1
102
RTVSPropertyOp13
 70
     1
102
RTVSPropertyOp14
 70
     1
102
RTVSPropertyOp15
 70
     1
102
RTVSPropertyOp16
 70
     1
102
RTVSPropertyOp17
 70
     1
102
RTVSPropertyOp18
 70
     1
102
RTVSPropertyOp19
 70
     1
102
RTVSPropertyOp20
 70
     1
102
RTVSPropertyOp21
 70
     1
102
RTVSPropertyOp22
 70
     1
102
RTVSPropertyOp23
 70
     1
102
RTVSPropertyOp24
 70
     1
102
RTVSPropertyOp25
 70
     1
102
RTVSPropertyOp26
 70
     1
102
RTVSPropertyOp27
 70
     1
102
RTVSPropertyOp28
 70
     1
102
RTVSPropertyOp29
 70
     1
102
RTVSPropertyOp30
 70
     1
102
RTVSPropertyOp31
 70
     1
102
RTVSPropertyOp32
 70
     1
  0
XRECORD
  5
3AF
102
{ACAD_REACTORS
330
3AE
102
}
330
3AE
100
AcDbXrecord
280
     1
102
RTVSPropertyOp0
 70
     1
102
RTVSPropertyOp1
 70
     1
102
RTVSPropertyOp2
 70
     1
102
RTVSPropertyOp3
 70
     1
102
RTVSPropertyOp4
 70
     1
102
RTVSPropertyOp5
 70
     1
102
RTVSPropertyOp6
 70
     1
102
RTVSPropertyOp7
 70
     1
102
RTVSPropertyOp8
 70
     1
102
RTVSPropertyOp9
 70
     1
102
RTVSPropertyOp10
 70
     1
102
RTVSPropertyOp11
 70
     1
102
RTVSPropertyOp12
 70
     1
102
RTVSPropertyOp13
 70
     1
102
RTVSPropertyOp14
 70
     1
102
RTVSPropertyOp15
 70
     1
102
RTVSPropertyOp16
 70
     1
102
RTVSPropertyOp17
 70
     1
102
RTVSPropertyOp18
 70
     1
102
RTVSPropertyOp19
 70
     1
102
RTVSPropertyOp20
 70
     1
102
RTVSPropertyOp21
 70
     1
102
RTVSPropertyOp22
 70
     1
102
RTVSPropertyOp23
 70
     1
102
RTVSPropertyOp24
 70
     1
102
RTVSPropertyOp25
 70
     1
102
RTVSPropertyOp26
 70
     1
102
RTVSPropertyOp27
 70
     1
102
RTVSPropertyOp28
 70
     1
102
RTVSPropertyOp29
 70
     1
102
RTVSPropertyOp30
 70
     1
102
RTVSPropertyOp31
 70
     1
102
RTVSPropertyOp32
 70
     1
  0
XRECORD
  5
3B1
102
{ACAD_REACTORS
330
3B0
102
}
330
3B0
100
AcDbXrecord
280
     1
102
RTVSPropertyOp0
 70
     1
102
RTVSPropertyOp1
 70
     1
102
RTVSPropertyOp2
 70
     1
102
RTVSPropertyOp3
 70
     1
102
RTVSPropertyOp4
 70
     1
102
RTVSPropertyOp5
 70
     1
102
RTVSPropertyOp6
 70
     1
102
RTVSPropertyOp7
 70
     1
102
RTVSPropertyOp8
 70
     1
102
RTVSPropertyOp9
 70
     1
102
RTVSPropertyOp10
 70
     1
102
RTVSPropertyOp11
 70
     1
102
RTVSPropertyOp12
 70
     1
102
RTVSPropertyOp13
 70
     1
102
RTVSPropertyOp14
 70
     1
102
RTVSPropertyOp15
 70
     1
102
RTVSPropertyOp16
 70
     1
102
RTVSPropertyOp17
 70
     1
102
RTVSPropertyOp18
 70
     1
102
RTVSPropertyOp19
 70
     1
102
RTVSPropertyOp20
 70
     1
102
RTVSPropertyOp21
 70
     1
102
RTVSPropertyOp22
 70
     1
102
RTVSPropertyOp23
 70
     1
102
RTVSPropertyOp24
 70
     1
102
RTVSPropertyOp25
 70
     1
102
RTVSPropertyOp26
 70
     1
102
RTVSPropertyOp27
 70
     1
102
RTVSPropertyOp28
 70
     1
102
RTVSPropertyOp29
 70
     1
102
RTVSPropertyOp30
 70
     1
102
RTVSPropertyOp31
 70
     1
102
RTVSPropertyOp32
 70
     1
  0
XRECORD
  5
3B3
102
{ACAD_REACTORS
330
3B2
102
}
330
3B2
100
AcDbXrecord
280
     1
102
RTVSPropertyOp0
 70
     1
102
RTVSPropertyOp1
 70
     1
102
RTVSPropertyOp2
 70
     1
102
RTVSPropertyOp3
 70
     1
102
RTVSPropertyOp4
 70
     1
102
RTVSPropertyOp5
 70
     1
102
RTVSPropertyOp6
 70
     1
102
RTVSPropertyOp7
 70
     1
102
RTVSPropertyOp8
 70
     1
102
RTVSPropertyOp9
 70
     1
102
RTVSPropertyOp10
 70
     1
102
RTVSPropertyOp11
 70
     1
102
RTVSPropertyOp12
 70
     1
102
RTVSPropertyOp13
 70
     1
102
RTVSPropertyOp14
 70
     1
102
RTVSPropertyOp15
 70
     1
102
RTVSPropertyOp16
 70
     1
102
RTVSPropertyOp17
 70
     1
102
RTVSPropertyOp18
 70
     1
102
RTVSPropertyOp19
 70
     1
102
RTVSPropertyOp20
 70
     1
102
RTVSPropertyOp21
 70
     1
102
RTVSPropertyOp22
 70
     1
102
RTVSPropertyOp23
 70
     1
102
RTVSPropertyOp24
 70
     1
102
RTVSPropertyOp25
 70
     1
102
RTVSPropertyOp26
 70
     1
102
RTVSPropertyOp27
 70
     1
102
RTVSPropertyOp28
 70
     1
102
RTVSPropertyOp29
 70
     1
102
RTVSPropertyOp30
 70
     1
102
RTVSPropertyOp31
 70
     1
102
RTVSPropertyOp32
 70
     1
  0
XRECORD
  5
3C7
102
{ACAD_REACTORS
330
3C6
102
}
330
3C6
100
AcDbXrecord
280
     1
102
RTVSPropertyOp0
 70
     1
102
RTVSPropertyOp1
 70
     1
102
RTVSPropertyOp2
 70
     1
102
RTVSPropertyOp3
 70
     1
102
RTVSPropertyOp4
 70
     1
102
RTVSPropertyOp5
 70
     1
102
RTVSPropertyOp6
 70
     1
102
RTVSPropertyOp7
 70
     1
102
RTVSPropertyOp8
 70
     1
102
RTVSPropertyOp9
 70
     1
102
RTVSPropertyOp10
 70
     1
102
RTVSPropertyOp11
 70
     1
102
RTVSPropertyOp12
 70
     1
102
RTVSPropertyOp13
 70
     1
102
RTVSPropertyOp14
 70
     1
102
RTVSPropertyOp15
 70
     1
102
RTVSPropertyOp16
 70
     1
102
RTVSPropertyOp17
 70
     1
102
RTVSPropertyOp18
 70
     1
102
RTVSPropertyOp19
 70
     1
102
RTVSPropertyOp20
 70
     1
102
RTVSPropertyOp21
 70
     1
102
RTVSPropertyOp22
 70
     1
102
RTVSPropertyOp23
 70
     1
102
RTVSPropertyOp24
 70
     1
102
RTVSPropertyOp25
 70
     1
102
RTVSPropertyOp26
 70
     1
102
RTVSPropertyOp27
 70
     1
102
RTVSPropertyOp28
 70
     1
102
RTVSPropertyOp29
 70
     1
102
RTVSPropertyOp30
 70
     1
102
RTVSPropertyOp31
 70
     1
102
RTVSPropertyOp32
 70
     1
  0
XRECORD
  5
3BD
102
{ACAD_REACTORS
330
3BC
102
}
330
3BC
100
AcDbXrecord
280
     1
102
RTVSPropertyOp0
 70
     1
102
RTVSPropertyOp1
 70
     1
102
RTVSPropertyOp2
 70
     1
102
RTVSPropertyOp3
 70
     1
102
RTVSPropertyOp4
 70
     1
102
RTVSPropertyOp5
 70
     1
102
RTVSPropertyOp6
 70
     1
102
RTVSPropertyOp7
 70
     1
102
RTVSPropertyOp8
 70
     1
102
RTVSPropertyOp9
 70
     1
102
RTVSPropertyOp10
 70
     1
102
RTVSPropertyOp11
 70
     1
102
RTVSPropertyOp12
 70
     1
102
RTVSPropertyOp13
 70
     1
102
RTVSPropertyOp14
 70
     1
102
RTVSPropertyOp15
 70
     1
102
RTVSPropertyOp16
 70
     1
102
RTVSPropertyOp17
 70
     1
102
RTVSPropertyOp18
 70
     1
102
RTVSPropertyOp19
 70
     1
102
RTVSPropertyOp20
 70
     1
102
RTVSPropertyOp21
 70
     1
102
RTVSPropertyOp22
 70
     1
102
RTVSPropertyOp23
 70
     1
102
RTVSPropertyOp24
 70
     1
102
RTVSPropertyOp25
 70
     1
102
RTVSPropertyOp26
 70
     1
102
RTVSPropertyOp27
 70
     1
102
RTVSPropertyOp28
 70
     1
102
RTVSPropertyOp29
 70
     1
102
RTVSPropertyOp30
 70
     1
102
RTVSPropertyOp31
 70
     1
102
RTVSPropertyOp32
 70
     1
  0
XRECORD
  5
3C5
102
{ACAD_REACTORS
330
3C4
102
}
330
3C4
100
AcDbXrecord
280
     1
102
RTVSPropertyOp0
 70
     1
102
RTVSPropertyOp1
 70
     1
102
RTVSPropertyOp2
 70
     1
102
RTVSPropertyOp3
 70
     1
102
RTVSPropertyOp4
 70
     1
102
RTVSPropertyOp5
 70
     1
102
RTVSPropertyOp6
 70
     1
102
RTVSPropertyOp7
 70
     1
102
RTVSPropertyOp8
 70
     1
102
RTVSPropertyOp9
 70
     1
102
RTVSPropertyOp10
 70
     1
102
RTVSPropertyOp11
 70
     1
102
RTVSPropertyOp12
 70
     1
102
RTVSPropertyOp13
 70
     1
102
RTVSPropertyOp14
 70
     1
102
RTVSPropertyOp15
 70
     1
102
RTVSPropertyOp16
 70
     1
102
RTVSPropertyOp17
 70
     1
102
RTVSPropertyOp18
 70
     1
102
RTVSPropertyOp19
 70
     1
102
RTVSPropertyOp20
 70
     1
102
RTVSPropertyOp21
 70
     1
102
RTVSPropertyOp22
 70
     1
102
RTVSPropertyOp23
 70
     1
102
RTVSPropertyOp24
 70
     1
102
RTVSPropertyOp25
 70
     1
102
RTVSPropertyOp26
 70
     1
102
RTVSPropertyOp27
 70
     1
102
RTVSPropertyOp28
 70
     1
102
RTVSPropertyOp29
 70
     1
102
RTVSPropertyOp30
 70
     1
102
RTVSPropertyOp31
 70
     1
102
RTVSPropertyOp32
 70
     1
  0
ENDSEC
  0
EOF
